找回密码

查看: 6644|回复: 109

[动作] 疾速营救.Retribution.2023.1080p.BluRay.AVC.DTS-HD.MA.5.1.x264-PANAM 11.60GB

  [复制链接]
蓝光币
1839
发表于 2023-12-14 12:25:18 | 显示全部楼层 |阅读模式


◎译  名 快速救援 / 爆复(台) / 缓慢救援 / 极速救援 / 炸掉银行司理
◎片  名 Retribution
◎年  代 2023
◎产  地 法国 / 德国 / 西班牙 / 美国
◎类  别 行动 / 惊悚 / 犯罪 / 冒险
◎语  言 英语 / 德语
◎上映日期 2023-08-23(法国) / 2023-08-25(美国) / 2023-12-02(中国大陆)
◎IMDb评星  ★★★★★✦☆☆☆☆
◎IMDb评分  5.3/10 from 14,302 users
◎IMDb链接  https://www.imdb.com/title/tt6906292/
◎豆瓣评星 ★★★☆☆
◎豆瓣评分 5.5/10 from 4,429 users
◎豆瓣链接 https://movie.douban.com/subject/35306221/
◎片  长 91分钟
◎导  演 尼姆罗德·安陶尔 / Nimród Antal
◎演  员 连姆·尼森 / Liam Neeson | 饰 Matt Truner
      诺玛·杜梅温尼 / Noma Dumezweni | 饰 Angela Brickmann
      莉莉·阿斯佩尔 / Lilly Aspell | 饰 Emily Turner
      杰克·尚皮永 / Jack Champion | 饰 Zach Turner
      阿里安·穆阿耶德 / Arian Moayed | 饰 Sylvain
      艾伯丝·戴维兹 / Embeth Davidtz | 饰 Heather Turner
      马修·莫迪恩 / Matthew Modine | 饰 Anders Muller
      艾米丽·库什 / Emily Kusche | 饰 Mila
      卢卡·马库斯 / Luca Márkus | 饰 Kat
      伯纳德·皮斯克 / Bernhard Piesk | 饰 Captain Dregger
      迈克尔·S·鲁施英斯基 / Michael S. Ruscheinsky | 饰 Man in the Blue Suit
◎编  剧 安德鲁·鲍德温 / Andrew Baldwin
      阿尔贝托·马里尼 / Alberto Marini
      沃德·帕里 / Ward Parry
      克里斯·萨曼普尔 / Chris Salmanpour
◎制  片  人 佐米·希尔拉 / Jaume Collet-Serra
◎简  介 
  马特是某欧洲投资基金合股人。一大早接到公司另一个合股人安德斯的电话,处置近期关于金融债权的麻烦事。马特的妻子希瑟希望他可以陪她去向置一些事务。小女儿艾米丽吃着早饭,大儿子扎克则想着怎样和自己的女朋友翘课。很快马特决议开车送两个孩子上学。路上,马特接了一个电话,对方称在车上安装了炸弹,假如不依照他的要求完成使命,他行将引爆炸弹。马特理所固然地以为这是一个恶作剧,挂掉电话。当电话再次响起,对方说出了马特的一切信息,并要求他将钱转入指定账户。马特才起头认真看待这个突如其来的电话。马特联系到同事希尔万,才惊觉他和妻子也在自家的车上也接到威胁电话。很快马特目击了希尔万在自己眼前被炸弹炸死。马特愤慨了,誓要庇护自己的孩子,抵抗到底。
  1. General
  2. Unique ID                                : 238936575125748480755773659650672361003 (0xB3C182AF1B0F24D38F8FC0D7FB4CFE2B)
  3. Complete name                            : D:\Retribution.2023.1080p.BluRay.AVC.DTS-HD.MA.5.1.x264-PANAM.mkv
  4. Format                                   : Matroska
  5. Format version                           : Version 2
  6. File size                                : 11.6 GiB
  7. Duration                                 : 1 h 31 min
  8. Overall bit rate mode                    : Variable
  9. Overall bit rate                         : 18.2 Mb/s
  10. Frame rate                               : 23.976 FPS
  11. Movie name                               : Retribution
  12. Encoded date                             : 2023-12-13 02:13:26 UTC
  13. Writing application                      : DVDFab 13 13.0.0.7
  14. Writing library                          : libebml v1.4.2 + libmatroska v1.6.3
  15. Video
  16. ID                                       : 1
  17. Format                                   : AVC
  18. Format/Info                              : Advanced Video Codec
  19. Format profile                           : High@L4.1
  20. Format settings                          : 2 Ref Frames
  21. Format settings, CABAC                   : No
  22. Format settings, Reference frames        : 2 frames
  23. Format settings, GOP                     : M=3, N=24
  24. Codec ID                                 : V_MPEG4/ISO/AVC
  25. Duration                                 : 1 h 31 min
  26. Bit rate                                 : 14.8 Mb/s
  27. Width                                    : 1 920 pixels
  28. Height                                   : 804 pixels
  29. Display aspect ratio                     : 2.39:1
  30. Frame rate mode                          : Constant
  31. Frame rate                               : 23.976 (24000/1001) FPS
  32. Color space                              : YUV
  33. Chroma subsampling                       : 4:2:0
  34. Bit depth                                : 8 bits
  35. Scan type                                : Progressive
  36. Bits/(Pixel*Frame)                       : 0.400
  37. Stream size                              : 9.29 GiB (80%)
  38. Writing library                          : x264 core 164
  39. Encoding settings                        : cabac=0 / ref=1 / deblock=1:-1:-1 / analyse=0:0 / me=dia / subme=5 / psy=0 / mixed_ref=0 / me_range=16 / chroma_me=1 / trellis=0 / 8x8dct=1 / cqm=0 / deadzone=21,11 / fast_pskip=0 / chroma_qp_offset=0 / threads=32 / lookahead_threads=6 / sliced_threads=0 / nr=0 / decimate=1 / interlaced=0 / bluray_compat=0 / constrained_intra=0 / bframes=2 / b_pyramid=0 / b_adapt=0 / b_bias=0 / direct=1 / weightb=0 / open_gop=0 / weightp=0 / keyint=24 / keyint_min=13 / scenecut=0 / intra_refresh=0 / rc_lookahead=0 / rc=2pass / mbtree=0 / bitrate=14805 / ratetol=1.0 / qcomp=0.60 / qpmin=0 / qpmax=69 / qpstep=4 / cplxblur=20.0 / qblur=0.5 / vbv_maxrate=14805 / vbv_bufsize=14805 / nal_hrd=none / filler=0 / ip_ratio=1.40 / pb_ratio=1.30 / aq=0
  40. Default                                  : Yes
  41. Forced                                   : No
  42. Color range                              : Limited
  43. Color primaries                          : BT.709
  44. Transfer characteristics                 : BT.709
  45. Matrix coefficients                      : BT.709
  46. Audio
  47. ID                                       : 2
  48. Format                                   : DTS XLL
  49. Format/Info                              : Digital Theater Systems
  50. Commercial name                          : DTS-HD Master Audio
  51. Codec ID                                 : A_DTS
  52. Duration                                 : 1 h 31 min
  53. Bit rate mode                            : Variable
  54. Bit rate                                 : 3 554 kb/s
  55. Channel(s)                               : 6 channels
  56. Channel layout                           : C L R Ls Rs LFE
  57. Sampling rate                            : 48.0 kHz
  58. Frame rate                               : 93.750 FPS (512 SPF)
  59. Bit depth                                : 24 bits
  60. Compression mode                         : Lossless
  61. Stream size                              : 2.26 GiB (20%)
  62. Language                                 : English
  63. Default                                  : Yes
  64. Forced                                   : No
  65. Text #1
  66. ID                                       : 3
  67. Format                                   : PGS
  68. Codec ID                                 : S_HDMV/PGS
  69. Codec ID/Info                            : Picture based subtitle format used on BDs/HD-DVDs
  70. Duration                                 : 1 h 27 min
  71. Bit rate                                 : 33.1 kb/s
  72. Frame rate                               : 0.529 FPS
  73. Count of elements                        : 2776
  74. Stream size                              : 20.7 MiB (0%)
  75. Language                                 : English
  76. Default                                  : No
  77. Forced                                   : No
  78. Text #2
  79. ID                                       : 4
  80. Format                                   : PGS
  81. Codec ID                                 : S_HDMV/PGS
  82. Codec ID/Info                            : Picture based subtitle format used on BDs/HD-DVDs
  83. Duration                                 : 1 h 29 min
  84. Bit rate                                 : 25.9 kb/s
  85. Frame rate                               : 0.414 FPS
  86. Count of elements                        : 2222
  87. Stream size                              : 16.6 MiB (0%)
  88. Language                                 : Spanish
  89. Default                                  : No
  90. Forced                                   : No
  91. Text #3
  92. ID                                       : 5
  93. Format                                   : PGS
  94. Codec ID                                 : S_HDMV/PGS
  95. Codec ID/Info                            : Picture based subtitle format used on BDs/HD-DVDs
  96. Duration                                 : 1 h 26 min
  97. Bit rate                                 : 24.4 kb/s
  98. Frame rate                               : 0.457 FPS
  99. Count of elements                        : 2384
  100. Stream size                              : 15.1 MiB (0%)
  101. Language                                 : French
  102. Default                                  : No
  103. Forced                                   : No
复制代码









回复

使用道具 举报

蓝光币
93
发表于 2023-12-14 16:34:23 | 显示全部楼层
楼主发贴辛苦了,谢谢楼主分享!我觉得蓝光电影网是注册对了!
回复 支持 反对

使用道具 举报

蓝光币
998
发表于 2023-12-14 20:36:29 | 显示全部楼层
谢谢店家给我们的好电影!
回复 支持 反对

使用道具 举报

蓝光币
51
发表于 2023-12-14 22:43:53 | 显示全部楼层
谢谢店家给我们的好电影!
回复 支持 反对

使用道具 举报

蓝光币
565
发表于 2023-12-14 23:55:27 | 显示全部楼层
蓝光版本的,多谢楼主的分享
回复 支持 反对

使用道具 举报

蓝光币
137
发表于 2023-12-15 11:30:17 | 显示全部楼层
楼主发贴辛苦了,谢谢楼主分享!我觉得蓝光电影网是注册对了!
回复 支持 反对

使用道具 举报

蓝光币
105
发表于 2023-12-15 13:34:06 | 显示全部楼层

楼主太厉害了!楼主,电影应该很好看我觉得蓝光电影网真是个好地方!
回复 支持 反对

使用道具 举报

蓝光币
0
发表于 2023-12-15 14:12:42 | 显示全部楼层

楼主发贴辛苦了,谢谢楼主分享!我觉得蓝光电影网是注册对了!
回复 支持 反对

使用道具 举报

蓝光币
334
发表于 2023-12-15 21:58:13 | 显示全部楼层

这个帖子不回对不起自己!我想我是一天也不能离开蓝光电影网。
回复 支持 反对

使用道具 举报

蓝光币
51
发表于 2023-12-15 23:23:17 | 显示全部楼层
蓝光版本的,多谢楼主的分享
回复 支持 反对

使用道具 举报

懒得打字嘛,点击右侧快捷回复 【右侧内容,后台自定义】
您需要登录后才可以回帖 登录 | 立即加入

本版积分规则

Copyright © 2024 Comsenz Inc. Powered by 蓝光电影网

本站内容由用户自主分享和转载自互联网,转载目的在于传递更多信息,并不代表本网赞同其观点和对其真实性负责。

如有侵权、违反国家法律政策行为,请联系我们,我们会第一时间及时清除和处理!

举报反馈邮箱:4k1080.com@gmail.com

快速回复 返回顶部 返回列表