找回密码

查看: 13297|回复: 245

[战争] 这里的黎明静悄悄 [完整版 比影院版长1小时 外挂中字].The.Dawns.Here.Are.Quiet.2015.1-4.Episodes.of.4.WEB-DL.1080p.x264-TAG 6.17GB

 火.. [复制链接]
蓝光币
1840
发表于 2023-11-8 13:16:54 | 显示全部楼层 |阅读模式
这里的拂晓静静静 [完整版 比影院版长1小时 外挂中字].The.Dawns.Here.Are.Quiet.2015.1-4.Episodes.of.4.WEB-DL.1080p.x264-TAG 6.17GB-1.jpg

◎译  名 这里的拂晓静静静 / A zori zdes tikhie... / The Dawns Here Are Quiet / The Dawns Here Are Quiet...
◎片  名 А зори здесь тихие...
◎年  代 2015
◎产  地 俄罗斯
◎类  别 剧情 / 战争
◎语  言 俄语 / 德语
◎上映日期 2015-04-30(俄罗斯) / 2015-08-25(中国大陆)
◎IMDb评星  ★★★★★★★☆☆☆
◎IMDb评分  6.8/10 from 1,528 users
◎IMDb链接  https://www.imdb.com/title/tt4629032/
◎豆瓣评星 ★★★★☆
◎豆瓣评分 7.9/10 from 24,602 users
◎豆瓣链接 https://movie.douban.com/subject/26384515/
◎片  长 115分钟(中国大陆) / 120分钟(俄罗斯) / 完整版 180分钟
◎导  演 列纳特·达夫列吉亚罗夫 / Renat Davletyarov
◎演  员 彼得·费奥多罗夫 / Pyotr Fyodorov
      阿纳斯塔西娅·米库尔钦娜 / Anastasia Mikulchina
      叶夫根尼娅·马拉霍娃 / Zhenya Malakhova
      雅戈尼娅·库兹涅佐娃 / Agniya Kuznetsova
      索菲娅·莱贝德娃 / Sofya Lebedeva
      克里斯蒂娜·阿斯姆斯 / Kristina Asmus
      叶卡婕琳娜·维尔科娃 / Ekaterina Vilkova
      阿纳托利·比利 / Anatoliy Belyy
      达里娅·莫罗兹 / Darya Moroz
      马克西姆·德罗兹德 / Maksim Drozd
      维克托·普罗斯库林 / Viktor Proskurin
      伊利娅·阿列克谢耶夫 / Ilya Alekseev
      本杰明·施皮勒 / Benjamin Spieler
      奥尔加·罗蒙诺索娃 / Olga Lomonosova
      斯蒂芬·韦尔克 / Stefan Woelk
      Natalya Batrak Natalya Batrak
      阿丽娜·巴巴克 / Alina Babak | 饰 Nadya, mladshaya sestra Komelkovoy
◎编  剧 列纳特·达夫列吉亚罗夫 / Renat Davletyarov
      尤里·科罗特科夫 / Yuriy Korotkov
      鲍里斯·瓦西里耶夫 / Boris Vasilyev
◎其  它 Artyom Vitkin Artyom Vitkin

◎标  签 战争 | 俄罗斯 | 二战 | 俄罗斯电影 | 女性 | 苏俄 | 2015 | 军事

◎简  介 

  故事发生在1942年的炎天,瓦斯柯夫准尉(皮欧特·费奥多罗夫 Pyotr Fyodorov 饰)率领着他的女机枪手们驻扎在一处偏僻的村落中,某日,班长丽达(阿纳斯塔西娅·米库齐娜 Anastasiya Mikulchina 饰)意外的撞破了两个德国兵士要攻击苏联重要军事基地的诡计,她敏捷将这一消息带回了军队中。
  瓦斯柯夫准尉率领着丽萨(索菲亚·列别杰娃 Sofya Lebedeva 饰)、迦尔卡(克里斯蒂娜·阿斯姆斯 Kristina Asmus 饰)、索妮娅(雅戈尼娅·库兹涅佐娃 Agniya Kuznetsova 饰)、冉妮娅(叶夫根尼娅·马拉霍娃 Zhenya Malakhova 饰)和丽达,这五名军队里的精锐职员前往森林当中一探讨竟,期待着姑娘们的,除了狡猾的仇敌外,还有很是卑劣的自然情况。

  1. General
  2. Unique ID : 181568978413933277097309122306836912145 (0x8898E9CABF28C99581E697FC882DD811)
  3. Complete name : E:\115下载\А зори здесь тихие... (Расширенная Версия) (1-4 серии из 4) WEB-DL (1080p)\A.zori.zdes.tihie.(01.seriya).2015.WEB-DL.(1080p).ExKinoRay.mkv
  4. Format : Matroska
  5. Format version : Version 2
  6. File size : 1.56 GiB
  7. Duration : 44 min 31 s
  8. Overall bit rate : 5 012 kb/s
  9. Encoded date : UTC 2016-05-09 14:24:29
  10. Writing application : mkvmerge v5.8.0 ('No Sleep / Pillow') built on Sep 2 2012 15:37:04
  11. Writing library : libebml v1.2.3 + libmatroska v1.3.0

  12. Video
  13. ID : 1
  14. Format : AVC
  15. Format/Info : Advanced Video Codec
  16. Format profile : [email]High@L4.1[/email]
  17. Format settings : CABAC / 4 Ref Frames
  18. Format settings, CABAC : Yes
  19. Format settings, Reference frames : 4 frames
  20. Codec ID : V_MPEG4/ISO/AVC
  21. Duration : 44 min 31 s
  22. Bit rate : 4 720 kb/s
  23. Width : 1 920 pixels
  24. Height : 1 080 pixels
  25. Display aspect ratio : 16:9
  26. Frame rate mode : Constant
  27. Frame rate : 25.000 FPS
  28. Color space : YUV
  29. Chroma subsampling : 4:2:0
  30. Bit depth : 8 bits
  31. Scan type : Progressive
  32. Bits/(Pixel*Frame) : 0.091
  33. Stream size : 1.47 GiB (94%)
  34. Language : Russian
  35. Default : Yes
  36. Forced : Yes

  37. Audio
  38. ID : 2
  39. Format : AC-3
  40. Format/Info : Audio Coding 3
  41. Commercial name : Dolby Digital
  42. Codec ID : A_AC3
  43. Duration : 44 min 31 s
  44. Bit rate mode : Constant
  45. Bit rate : 192 kb/s
  46. Channel(s) : 2 channels
  47. Channel layout : L R
  48. Sampling rate : 48.0 kHz
  49. Frame rate : 31.250 FPS (1536 SPF)
  50. Compression mode : Lossy
  51. Stream size : 61.2 MiB (4%)
  52. Language : Russian
  53. Service kind : Complete Main
  54. Default : Yes
  55. Forced : Yes
复制代码
这里的拂晓静静静 [完整版 比影院版长1小时 外挂中字].The.Dawns.Here.Are.Quiet.2015.1-4.Episodes.of.4.WEB-DL.1080p.x264-TAG 6.17GB-2.png
这里的拂晓静静静 [完整版 比影院版长1小时 外挂中字].The.Dawns.Here.Are.Quiet.2015.1-4.Episodes.of.4.WEB-DL.1080p.x264-TAG 6.17GB-3.png
这里的拂晓静静静 [完整版 比影院版长1小时 外挂中字].The.Dawns.Here.Are.Quiet.2015.1-4.Episodes.of.4.WEB-DL.1080p.x264-TAG 6.17GB-4.png
这里的拂晓静静静 [完整版 比影院版长1小时 外挂中字].The.Dawns.Here.Are.Quiet.2015.1-4.Episodes.of.4.WEB-DL.1080p.x264-TAG 6.17GB-5.png
这里的拂晓静静静 [完整版 比影院版长1小时 外挂中字].The.Dawns.Here.Are.Quiet.2015.1-4.Episodes.of.4.WEB-DL.1080p.x264-TAG 6.17GB-6.png









回复

使用道具 举报

蓝光币
99
发表于 2023-11-8 18:09:46 | 显示全部楼层

这个帖子不回对不起自己!我想我是一天也不能离开蓝光电影网。
回复

使用道具 举报

蓝光币
261
发表于 2023-11-8 20:37:42 | 显示全部楼层
楼主发贴辛苦了,谢谢楼主分享!我觉得蓝光电影网是注册对了!
回复

使用道具 举报

蓝光币
6
发表于 2023-11-8 21:11:29 | 显示全部楼层

我看不错噢 谢谢楼主!蓝光电影网越来越好!
回复

使用道具 举报

蓝光币
132
发表于 2023-11-8 22:08:23 | 显示全部楼层

这东西我收了!谢谢楼主!蓝光电影网真好!
回复

使用道具 举报

蓝光币
55
发表于 2023-11-8 22:43:16 | 显示全部楼层
这个帖子不回对不起自己!我想我是一天也不能离开蓝光电影网。
回复

使用道具 举报

蓝光币
239
发表于 2023-11-9 07:03:52 | 显示全部楼层
感谢楼主分享,感谢蓝光电影网
回复

使用道具 举报

蓝光币
1270
发表于 2023-11-9 08:35:39 | 显示全部楼层

我看不错噢 谢谢楼主!蓝光电影网越来越好!
回复

使用道具 举报

蓝光币
1463
发表于 2023-11-9 13:59:28 | 显示全部楼层
楼主发贴辛苦了,谢谢楼主分享!我觉得蓝光电影网是注册对了!
回复

使用道具 举报

蓝光币
37
发表于 2023-11-9 15:28:52 | 显示全部楼层

楼主发贴辛苦了,谢谢楼主分享!我觉得蓝光电影网是注册对了!
回复

使用道具 举报

懒得打字嘛,点击右侧快捷回复 【右侧内容,后台自定义】
您需要登录后才可以回帖 登录 | 立即加入

本版积分规则

Copyright © 2024 Comsenz Inc. Powered by 蓝光电影网

本站内容由用户自主分享和转载自互联网,转载目的在于传递更多信息,并不代表本网赞同其观点和对其真实性负责。

如有侵权、违反国家法律政策行为,请联系我们,我们会第一时间及时清除和处理!

举报反馈邮箱:4k1080.com@gmail.com

快速回复 返回顶部 返回列表