找回密码

查看: 2405|回复: 13

[恐怖] 死神来了/绝命终结站 [1-5部合集][DIY 简繁中字 前三部有国配].Final.Destination.Complete.Collection.2000-2011.BluRay.AVC.1080p.DTS-HD.5.1-TAG 114.38GB

[复制链接]
蓝光币
1984
发表于 2023-10-29 20:00:13 | 显示全部楼层 |阅读模式
死神来了/绝命终结站 [1-5部合集][DIY 简繁中字 前三部有国配].Final.Destination.Complete.Collection.2000-2011.BluRay.AVC.1080p.DTS-HD.5.1-TAG 114.38GB-1.jpg

1. Final Destination 1 2000 BluRay VC-1 DD-THD 5.1-TAG

建造要点:
1. 移除其他音軌。
2. 加入从原盘繁体转制的简体字幕。
3. 加入国配。
4. 点窜各选单加入国配、简体字幕选项。


◎译  名 死神来了/绝命终结站
◎片  名 Final Destination
◎年  代 2000
◎国  家 美国/加拿大
◎上映日期 2000-03-17(美国)/2000-06-15(香港)
◎类  别 可骇/惊悚/奥秘
◎语  言 英语
◎字  幕 中文
◎IMDB评分 6.8/10 from 153,939 users
◎IMDB链接 http://www.imdb.com/title/tt0195714/
◎片  长 98 mins 2 seconds
◎导  演 黄毅瑜 James Wong
◎主  演 戴文·萨瓦 Devon Sawa ....Alex Chance Browning
      艾丽·拉特 Ali Larter ....Clear Rivers
      西恩·威廉·斯科特 Seann William Scott ....Billy Hitchcock
      Kerr Smith ....Carter Horton
      托尼·托德 Tony Todd ....William Bludworth
      克里森·克拉克 Kristen Cloke ....Ms. Valerie Lewton
      丹尼尔·洛巴克 Daniel Roebuck ....Agent Weine
      布兰登·费尔 Brendan Fehr ....George Waggner

◎简  介 

  高中门生艾利克斯-伯朗宁正与法语课的同学们登上一架飞往巴黎的飞机。一切的乘客都已登机并扣好平安带,飞机行将腾飞。忽然,艾利克斯有了一种激烈的不祥预见,他恍如看见这架飞机腾飞未几便在空中爆炸,酿成一团火球。惊骇万状的艾利克斯大吵大闹,让一切人都分开飞机,由此激发了机舱内的一场混战。最初,包括艾利克斯在内的7名乘客被赶出了机舱。

  回到机场后的艾利克斯被其他6名乘客团团围住,其中包括他的朋友比利和托德,一个名叫克莱尔的年轻女郎,曾与艾利克斯扭打在一路的卡特和他的女朋友泰莉,以及自愿留下来照顾艾利克斯等门生的女教师卢顿。正当人们为没法成行的巴黎之旅而愤怒不已的时辰,艾利克斯的可怕预见却被悲剧性地证实了。那架飞机在半空中狠恶爆炸,机上无人幸免一死。震动之余,幸存者们都很是想晓得艾利克斯是若何预见到这场悲剧的。有人对他的特异功用很感爱好,可是大大都的人却很惧怕。 FBI捕快们也来盘问艾利克斯,而艾利克斯却感应万分惭愧和大惑不解,他很想忘记这场悲剧,回到一般的生活中去。

  可是艾利克斯看见的却是不竭到来的灭亡--幸存者们起头一个接一个地死去,死因很是希奇。艾利克斯终究大白,死神是不成能上当过的,他和朋友们必须团结在一路才有能够改变自己的命运。



代碼

  1. DISC INFO:

  2. Disc Title: Final Destination 1 OurDisc
  3. Disc Size: 23,035,563,456 bytes
  4. Protection: AACS
  5. BD-Java: No
  6. BDInfo: 0.5.8

  7. PLAYLIST REPORT:

  8. Name: 00000.MPLS
  9. Length: 1:38:02.001 (h:m:s.ms)
  10. Size: 20,546,230,272 bytes
  11. Total Bitrate: 27.94 Mbps

  12. VIDEO:

  13. Codec Bitrate Description
  14. ----- ------- -----------
  15. VC-1 Video 21298 kbps 1080p / 23.976 fps / 16:9 / Advanced Profile 3

  16. AUDIO:

  17. Codec Language Bitrate Description
  18. ----- -------- ------- -----------
  19. Dolby TrueHD Audio English 1644 kbps 5.1 / 48 kHz / 1644 kbps / 16-bit (AC3 Embedded: 5.1 / 48 kHz / 640 kbps / DN -4dB)
  20. Dolby Digital Audio English 192 kbps 2.0 / 48 kHz / 192 kbps / DN -4dB / Dolby Surround
  21. Dolby Digital Audio English 192 kbps 2.0 / 48 kHz / 192 kbps / DN -4dB / Dolby Surround
  22. Dolby Digital Audio English 640 kbps 5.1 / 48 kHz / 640 kbps / DN -4dB
  23. Dolby Digital Audio Chinese 448 kbps 5.1 / 48 kHz / 448 kbps

  24. SUBTITLES:

  25. Codec Language Bitrate Description
  26. ----- -------- ------- -----------
  27. Presentation Graphics English 27.763 kbps
  28. Presentation Graphics Arabic 14.917 kbps
  29. Presentation Graphics Czech 20.522 kbps
  30. Presentation Graphics Chinese 23.164 kbps
  31. Presentation Graphics Hebrew 19.773 kbps
  32. Presentation Graphics Hungarian 20.869 kbps
  33. Presentation Graphics Japanese 15.257 kbps
  34. Presentation Graphics Korean 17.895 kbps
  35. Presentation Graphics Polish 16.104 kbps
  36. Presentation Graphics Romany 25.542 kbps
  37. Presentation Graphics Russian 22.369 kbps
  38. Presentation Graphics Spanish 22.312 kbps
  39. Presentation Graphics Thai 25.951 kbps
  40. Presentation Graphics Turkish 25.465 kbps
  41. Presentation Graphics Japanese 0.319 kbps
  42. Presentation Graphics Chinese 46.079 kbps
  43. Presentation Graphics Japanese 39.937 kbps
  44. Presentation Graphics Chinese 49.300 kbps
  45. Presentation Graphics Japanese 37.430 kbps
  46. Presentation Graphics Chinese 22.802 kbps
  47. Presentation Graphics Japanese 18.368 kbps
  48. Presentation Graphics Chinese 23.687 kbps

  49. FILES:

  50. Name Time In Length Size Total Bitrate
  51. ---- ------- ------ ---- -------------
  52. 00000.M2TS 0:00:00.000 1:38:02.001 20,546,230,272 27,945
复制代码


死神来了/绝命终结站 [1-5部合集][DIY 简繁中字 前三部有国配].Final.Destination.Complete.Collection.2000-2011.BluRay.AVC.1080p.DTS-HD.5.1-TAG 114.38GB-2.jpg

2. Final Destination 2 2003 BluRay Re-encoded AVC DD-THD 5.1-TAG

建造要点:
1. 移除其他音軌。
2. 加入从原盘繁体转制的简体字幕。
3. 加入国配。
4. 重编码,可以用BD-25光片烧录。
5. 点窜各选单加入国配、简体字幕选项。


◎译  名 死神来了2/绝命终结站2/死神又来了
◎片  名 Final Destination 2
◎年  代 2003
◎国  家 美国/加拿大
◎上映日期 2003-01-31(美国)/2003-02-20(香港)
◎类  别 可骇/惊悚/奥秘
◎语  言 英语
◎字  幕 中文
◎IMDB评分 6.2/10 from 104,020 users
◎IMDB链接 http://www.imdb.com/title/tt0309593/
◎片  长 90 mins 11 seconds
◎导  演 大卫·R·艾里斯 David R. Ellis ....(as David Richard Ellis)
◎主  演 艾丽·拉特 Ali Larter ....Clear Rivers
      A·J·库克 A.J. Cook ....Kimberly Corman
      托尼·托德 Tony Todd ....William Bludworth
      莎拉·卡特 Sarah Carter ....Shaina
      Terrence ‘T.C.‘ Carson ....Eugene Dix (as T.C. Carson)
      Jonathan Cherry ....Rory Peters
      Keegan Connor Tracy ....Kat Jennings
      Lynda Boyd ....Nora Carpenter
      James Kirk ....Tim Carpenter
      David Paetkau ....Evan Lewis
      Justina Machado ....Isabella Hudson
      Alex Rae ....Dano
      肖恩·西珀斯 Shaun Sipos ....Frankie
      约翰·斯图尔特 John Stewart ....Paramedic at Farm
      迈克尔·兰德斯 Michael Landes ....Officer Thomas Burke
      
◎简  介 

  新任女配角金·柏莉(A.J.·科可 饰)为了与大学好友庆贺沐日的到来,预备停止一趟阳光之旅——边开车边Party来度过欢畅时光。在去往佛罗里达的高速公路上,几个年轻人在一辆飞奔着的汽车里嬉笑着,他们正在停止一次观光。忽然,路上的车变很多了起来,而且车速是越来越快。金·柏莉忽然不措辞,莫名奇妙地低沉起来,由于她预见应这条高速公路上行将发生一路很是严重的交通变乱。同伴们并没成心想到危险,还以为金·柏莉在说疯话。

  “谨慎驶得万年船”,被自己的预见吓得心有余悸的金·柏莉决议立即开离高速公路,把车停在了路边,接下来的事让一切人都闭上了嘴巴。就在公路差人上来盘问的一刻,怵目惊心的连环车祸终究发生了,灾难就像金伯利预感的那样出现。使人受惊的是,这场形成纽约历史上最严重的交通梗塞的车祸。与预见分歧的是,金·柏莉姑且改道而救下的5位好友和公路差人汤姆斯可以浩劫不死、逃诞生天。但她们还不晓得的是,盛怒的死神决不会轻易放弃对丧家之犬的追杀,一场新的悲剧很快在幸存者的四周舒展开来。

  虽然有金·柏莉的预知才能,好友们还是逃不出自己的终极命运。很快,金·柏莉也发现死神并没有忘记自己。为了能阻止灭亡连锁的继续,金·柏莉与汤姆斯走到了一路,并找到已经成功躲过第一集180号班机坠机事务的克莉儿追求帮助。克莉儿按照自己的经历提醒她多留意方圆情况的暗示,但遗憾的是这对她们的帮助并不大。虽然金·柏莉自己总能依靠预见避开大祸,可是她身旁的朋友毕竟还是一个接一个地被死神拖向天堂。

  为了打破灭亡连环,金·柏莉决然驾车冲向湖中,却又一次荣幸地被救起。从昏迷中苏醒过来的金·柏莉发现,这一次死神似乎真的被蒙蔽了,一向以来的噩梦恍如都停止了…… 可是一时的安静没法代表永久的安逸,难道金·柏莉真就能成为破例,逃过灭亡的魔爪么?



代碼

  1. DISC INFO:

  2. Disc Title: Final Destination 2 OurDisc
  3. Disc Size: 24,919,866,002 bytes
  4. Protection: AACS
  5. BD-Java: No
  6. BDInfo: 0.5.8

  7. PLAYLIST REPORT:

  8. Name: 00000.MPLS
  9. Length: 1:30:11.197 (h:m:s.ms)
  10. Size: 22,228,432,896 bytes
  11. Total Bitrate: 32.86 Mbps

  12. VIDEO:

  13. Codec Bitrate Description
  14. ----- ------- -----------
  15. MPEG-4 AVC Video 24757 kbps 1080p / 23.976 fps / 16:9 / High Profile 4.1

  16. AUDIO:

  17. Codec Language Bitrate Description
  18. ----- -------- ------- -----------
  19. Dolby TrueHD Audio English 3598 kbps 5.1 / 48 kHz / 3598 kbps / 24-bit (AC3 Embedded: 5.1 / 48 kHz / 640 kbps / DN -2dB)
  20. Dolby Digital Audio Chinese 448 kbps 5.1 / 48 kHz / 448 kbps
  21. Dolby Digital Audio English 256 kbps 2.0 / 48 kHz / 256 kbps / DN -5dB / Dolby Surround

  22. SUBTITLES:

  23. Codec Language Bitrate Description
  24. ----- -------- ------- -----------
  25. Presentation Graphics English 32.225 kbps
  26. Presentation Graphics Hebrew 22.696 kbps
  27. Presentation Graphics Arabic 17.131 kbps
  28. Presentation Graphics Chinese 26.725 kbps
  29. Presentation Graphics Czech 26.077 kbps
  30. Presentation Graphics Hungarian 24.281 kbps
  31. Presentation Graphics Korean 22.413 kbps
  32. Presentation Graphics Polish 18.671 kbps
  33. Presentation Graphics Romany 29.549 kbps
  34. Presentation Graphics Russian 28.867 kbps
  35. Presentation Graphics Spanish 28.937 kbps
  36. Presentation Graphics Thai 26.082 kbps
  37. Presentation Graphics Turkish 29.538 kbps
  38. Presentation Graphics German 32.241 kbps
  39. Presentation Graphics Chinese 58.973 kbps
  40. Presentation Graphics Chinese 27.407 kbps

  41. FILES:

  42. Name Time In Length Size Total Bitrate
  43. ---- ------- ------ ---- -------------
  44. 00000.M2TS 0:00:00.000 1:30:11.197 22,228,432,896 32,863
复制代码


死神来了/绝命终结站 [1-5部合集][DIY 简繁中字 前三部有国配].Final.Destination.Complete.Collection.2000-2011.BluRay.AVC.1080p.DTS-HD.5.1-TAG 114.38GB-3.jpg

3. Final Destination 3 2006 BluRay Re-encoded AVC DD-THD 5.1-TAG

建造要点:
1. 移除其他音軌。
2. 加入从原盘繁体转制的简体字幕。
3. 加入国配。
4. 重编码,可以用BD-25光片烧录。
5. 点窜各选单加入国配、简体字幕选项。


◎译  名 死神来了3/绝命终结站3
◎片  名 Final Destination 3
◎年  代 2006
◎国  家 德国/美国/加拿大
◎上映日期 2006-02-10(美国)/2006-02-24(台湾)/2006-03-16(香港)
◎类  别 可骇/惊悚/奥秘
◎语  言 英语
◎字  幕 中文
◎IMDB评分 5.8/10 from 86,922 users
◎IMDB链接 http://www.imdb.com/title/tt0414982/
◎片  长 92 mins 50 seconds
◎导  演 黄毅瑜 James Wong
◎主  演 玛丽·伊丽莎白·文斯蒂德 Mary Elizabeth Winstead ....Wendy Christensen
      瑞恩·莫里曼 Ryan Merriman ....Kevin Fischer
      吉娜·赫尔顿 Gina Holden ....Carrie Dreyer
      克里丝·莱切 Kris Lemche ....Ian McKinley
      亚莉克兹·约翰逊 Alexz Johnson ....Erin Ulmer
      Sam Easton ....Frankie Cheeks
      Jesse Moss ....Jason Robert Wise
      Texas Battle ....Lewis Romero
      切兰·西蒙斯 Chelan Simmons ....Ashley Freund
      Crystal Lowe ....Ashlyn Halperin
      阿曼达·克鲁 Amanda Crew ....Julie Christensen
      Agam Darshi ....Laura
      马美琪 Maggie Ma ....Perry Malowinski
      Ecstasia Sanders ....Amber
      Ecstasia Sanders ....Amber Regan
      Jody Racicot ....Bludworth
      派崔克·盖勒 Patrick Gallagher ....Colquitt
      达斯汀·米利甘 Dustin Milligan ....Marcus
      托尼·托德 Tony Todd ....Devil‘s Voice (voice)
      肖恩·埃利斯 Sean Ellis ....Subway Performer
      
◎简  介 

似乎已经溟溟中构成了老例,可骇的“死神”每三年就会在大银幕上来临一次,经过2000年和2003年的可骇洗礼,2006年伊始,那无所事事的死神就已经火烧眉毛地争先驾临了。而且,这位令我们众生所疾苦不迭地死神撒旦绝对是个天赋的剧作家,每次杀人之前城市设备具体的杀人剧本,但每当死神兴高采烈地预备履行壮观的杀人计划时,温迪·克里斯滕森(玛丽·文斯蒂德 饰)这个美丽的高中女生总会有所预见。此次,她又偷看了死神的“剧本”,晓得在未几的未来死神预备在一游乐园的云霄飞车上制造一宗大惨案,她和她的朋友都将在此次惨案中死去。

命运没法改变,最少没法完全改变。死神实施计划的那天,温迪和她的朋友避无可避地来到游乐场,这时,满身通红四十英尺高的撒旦两眼发光耸立在游乐场进口,除了温迪外其他人都见不到死神。在温迪的各式阻止下,她的朋友们都没玩云霄飞车,果然,云霄飞车惨难真的发生了温迪的预见终极酿成现实,她和朋友们逃过一劫。死神继续追杀温迪和她的朋友们。电梯上、公路上、麦当劳餐厅里、甚至牙医医院里,死神设备了无数致命圈套。为保命,温迪顿时和死党(凯文·费舍尔 饰)组成小队,朋友艾琳(艾莉克丝·约翰逊 饰)、伊恩(克里斯·林奇 饰)也随着加入他们行列,配合匹敌死神。死神步步逼近,温迪她们的“欺骗死神”小队走上了没法回头的死路……



代碼

  1. DISC INFO:

  2. Disc Title: Final Destination 3 OurDisc
  3. Disc Size: 24,995,415,798 bytes
  4. Protection: AACS
  5. BD-Java: No
  6. BDInfo: 0.5.8

  7. PLAYLIST REPORT:

  8. Name: 00000.MPLS
  9. Length: 1:32:50.690 (h:m:s.ms)
  10. Size: 21,952,260,096 bytes
  11. Total Bitrate: 31.53 Mbps

  12. VIDEO:

  13. Codec Bitrate Description
  14. ----- ------- -----------
  15. MPEG-4 AVC Video 23752 kbps 1080p / 23.976 fps / 16:9 / High Profile 4.1

  16. AUDIO:

  17. Codec Language Bitrate Description
  18. ----- -------- ------- -----------
  19. Dolby TrueHD Audio English 3523 kbps 5.1 / 48 kHz / 3523 kbps / 24-bit (AC3 Embedded: 5.1 / 48 kHz / 640 kbps / DN -4dB)
  20. Dolby Digital Audio Chinese 448 kbps 5.1 / 48 kHz / 448 kbps
  21. Dolby Digital Audio English 256 kbps 2.0 / 48 kHz / 256 kbps / DN -4dB / Dolby Surround

  22. SUBTITLES:

  23. Codec Language Bitrate Description
  24. ----- -------- ------- -----------
  25. Presentation Graphics English 35.179 kbps
  26. Presentation Graphics Arabic 16.672 kbps
  27. Presentation Graphics Chinese 25.074 kbps
  28. Presentation Graphics Czech 25.092 kbps
  29. Presentation Graphics Hebrew 21.962 kbps
  30. Presentation Graphics Hungarian 21.012 kbps
  31. Presentation Graphics Polish 20.786 kbps
  32. Presentation Graphics Portuguese 28.003 kbps
  33. Presentation Graphics Romany 20.633 kbps
  34. Presentation Graphics Russian 28.022 kbps
  35. Presentation Graphics Spanish 24.753 kbps
  36. Presentation Graphics Thai 24.495 kbps
  37. Presentation Graphics Turkish 27.924 kbps
  38. Presentation Graphics German 38.798 kbps
  39. Presentation Graphics Chinese 42.777 kbps
  40. Presentation Graphics Chinese 25.617 kbps

  41. FILES:

  42. Name Time In Length Size Total Bitrate
  43. ---- ------- ------ ---- -------------
  44. 00000.M2TS 0:00:00.000 1:32:50.690 21,952,260,096 31,525
复制代码


死神来了/绝命终结站 [1-5部合集][DIY 简繁中字 前三部有国配].Final.Destination.Complete.Collection.2000-2011.BluRay.AVC.1080p.DTS-HD.5.1-TAG 114.38GB-4.jpg

4. Final Destination 4 2009 2D+3D 1080p BluRay AVC DTS MA 5.1-TAG

建造要点:
1. 移除其他音軌字幕。
2. 自帶粵字幕,加入繁简字幕。
3. 点窜选单加入繁简字幕选项。


◎译  名 死神来了4/死神来了:灭亡之旅3D/绝命终结站4
◎片  名 The Final Destination
◎年  代 2009
◎国  家 美国
◎上映日期 2009-08-28(美国)/2009-09-17(香港)
◎类  别 惊悚/可骇
◎语  言 英语
◎字  幕 N/A
◎IMDB评分 5.1/10 63,187 votes
◎IMDB链接 http://www.imdb.com/title/tt1144884
◎片  长 82 mins
◎导  演 大卫·R·艾里斯 David R. Ellis
◎主  演 Bobby Campo 鲍比·坎波 Bobby Campo
      Shantel VanSanten 珊特尔·范圣滕 Shantel VanSanten
      Mykelti Williamson 麦凯尔泰·威廉逊 Mykelti Williamson
      Nick Zano 尼克·扎诺 Nick Zano
      Haley Webb ….Janet
      Krista Allen 克里丝塔·艾伦 Krista Allen
      Andrew Fiscella ….Mechanic
      Justin Welborn ….Racist

◎简  介

在一个原本应当很高兴的日子里,Nick O"Bannon和朋友一路去看赛车。Nick忽然有了一种很不祥的幻觉--几辆赛车将会相撞,熄灭的碎片将飞入看台杀死他的朋友,并致使上层看台坍塌,掉落的石块恰好砸在他身上……从噩梦中惊醒以后,Nick惊慌失措地劝自己的女友Lori和朋友Janet、Hunt赶紧分开。Nick的可怕幻觉竟酿成了现实,四人在危在旦夕之际侥幸逃生。他们感受自己欺骗了死神,决议顾惜生命,好好活下去。可是对Nick和Lori来说,不幸才刚刚起头。Nick对灭亡的幻觉仍不竭出现,而那次事务的幸存者一个接一个死去,死状极为可骇。Nick必须抢在死神到来之前找出最初的自救之道。

从《死神来了》中的空中飞机大爆炸,到《死神来了2》的高速公路连环撞,然后是《死神来了3》中的缓慢过山车……2000年、2003年、2006年,”死神”每三年就要在大银幕上让观众体验一把林林总总的”灭亡”刺激,从没有早退过。

现在,这套系列故事成长到第四集,影片仍然将方针锁定在了灭亡率最高的车祸上,但与《死神来了2》有所分歧的是,这一次会出现连环变乱的,是赛场上的极速赛车:一位少年忽然预见到了不远的未来将会发生的一路惨无人道的赛车连环撞,在他的死力干涉下,总算是拯救了少数几个比力荣幸的人,但是就和之前一样,”死神”是不成能放过任何一个到了死期的猎物的,即使躲过了赛车的极限碰撞和挤压,这些人仍然将会以一样或类似的方式感遭到”死神”的可骇。



代碼

  1. DISC INFO:

  2. Disc Title: FINAL_DESTINATION_4_2D_3D_OURDIS
  3. Disc Size: 24,992,401,678 bytes
  4. Protection: AACS
  5. BD-Java: No
  6. Extras: Blu-ray 3D
  7. BDInfo: 0.5.8

  8. PLAYLIST REPORT:

  9. Name: 00002.MPLS
  10. Length: 1:21:47.485 (h:m:s.ms)
  11. Size: 20,936,478,720 bytes
  12. Total Bitrate: 34.13 Mbps

  13. VIDEO:

  14. Codec Bitrate Description
  15. ----- ------- -----------
  16. MPEG-4 AVC Video 17884 kbps 1080p / 23.976 fps / 16:9 / High Profile 4.1
  17. MPEG-4 MVC Video 11911 kbps

  18. AUDIO:

  19. Codec Language Bitrate Description
  20. ----- -------- ------- -----------
  21. DTS-HD Master Audio English 2420 kbps 5.1 / 48 kHz / 2420 kbps / 16-bit (DTS Core: 5.1 / 48 kHz / 1509 kbps / 16-bit)

  22. SUBTITLES:

  23. Codec Language Bitrate Description
  24. ----- -------- ------- -----------
  25. Presentation Graphics English 28.672 kbps
  26. Presentation Graphics Chinese 16.116 kbps
  27. Presentation Graphics Chinese 22.763 kbps
  28. Presentation Graphics Chinese 22.378 kbps

  29. FILES:

  30. Name Time In Length Size Total Bitrate
  31. ---- ------- ------ ---- -------------
  32. 00001.SSIF 0:00:00.000 1:21:47.485 20,936,478,720 34,130
复制代码


由于上传图片限制,,第五部图片暂缺
5. Final Destination 5 2011 2D+3D 1080p BluRay Re-encoded AVC DTS MA 5.1-TAG
建造要点:
1. 移除其他音軌。
2. 加入从原盘繁体转制的简体字幕。
3. 点窜选单加入简体字幕选项。
4. 重编码,可以用BD-25光片烧录。


◎译  名 死神来了5/绝命终结站5
◎片  名 Final Destination 5
◎年  代 2011
◎国  家 美国
◎上映日期 2011-08-10(美国)/2011-08-18(香港)
◎类  别 可骇/悬疑/惊悚
◎语  言 英语
◎IMDB评分 5.9/10 from 71,338 users
◎IMDB链接 http://www.imdb.com/title/tt1622979/
◎片  长 91m49s      
◎导  演 史蒂文·奎里
◎主  演 尼克·达歌斯托 Nick D‘Agosto ....Sam
艾玛·贝尔 Emma Bell ....Molly
麦尔斯·费舍 Miles Fisher ....Peter Friedkin
Ellen Wroe ....Candice Hooper
杰奎琳·玛克林尼丝·伍德
Jacqueline MacInnes Wood ....Olivia Castle
P.J. Byrne ....IsaacArlen
Escarpeta ....Nathan
大卫·科恩查内David Koechner ....Dennis
考特尼·万斯 Courtney B. Vance ....Agent Block
托尼·托德 Tony Todd ....Bludworth


◎简  介 

继前四部飞机失事、连环车祸、过山车脱轨和赛车场意外后,拉开新故事序幕的将会是一场吊桥倾圮事务,一个男人的预见救了一群加入公司构造的田野拓展活动的同事,令他们遭受了悬索桥坍塌的意外灾难侥幸逃生。可是这群倒霉蛋们必定没法顺遂逃生,在与时候的可怕赛跑中,他们发了疯一样追求逃走死神的魔掌。



代碼

  1. DISC INFO:

  2. Disc Title: FINAL_DESTINATION_5_2D_3D_OURDIS
  3. Disc Size: 24,859,005,982 bytes
  4. Protection: AACS
  5. BD-Java: No
  6. Extras: Blu-ray 3D
  7. BDInfo: 0.5.8

  8. PLAYLIST REPORT:

  9. Name: 00004.MPLS
  10. Length: 1:31:49.295 (h:m:s.ms)
  11. Size: 21,367,566,336 bytes
  12. Total Bitrate: 31.03 Mbps

  13. VIDEO:

  14. Codec Bitrate Description
  15. ----- ------- -----------
  16. MPEG-4 AVC Video 13962 kbps 1080p / 23.976 fps / 16:9 / High Profile 4.1
  17. MPEG-4 MVC Video 10453 kbps

  18. AUDIO:

  19. Codec Language Bitrate Description
  20. ----- -------- ------- -----------
  21. DTS-HD Master Audio English 3683 kbps 5.1 / 48 kHz / 3683 kbps / 24-bit (DTS Core: 5.1 / 48 kHz / 1509 kbps / 24-bit)
  22. Dolby Digital Audio English 640 kbps 5.1 / 48 kHz / 640 kbps / DN -4dB

  23. SUBTITLES:

  24. Codec Language Bitrate Description
  25. ----- -------- ------- -----------
  26. Presentation Graphics English 53.549 kbps
  27. Presentation Graphics French 34.456 kbps
  28. Presentation Graphics Italian 55.191 kbps
  29. Presentation Graphics Spanish 45.468 kbps
  30. Presentation Graphics Dutch 36.240 kbps
  31. Presentation Graphics Chinese 36.625 kbps
  32. Presentation Graphics Korean 30.464 kbps
  33. Presentation Graphics Arabic 25.166 kbps
  34. Presentation Graphics Chinese 33.740 kbps
  35. Presentation Graphics Czech 36.557 kbps
  36. Presentation Graphics Polish 36.089 kbps
  37. Presentation Graphics Russian 37.899 kbps
  38. Presentation Graphics Thai 40.266 kbps
  39. Presentation Graphics French 0.816 kbps
  40. Presentation Graphics Italian 1.979 kbps
  41. Presentation Graphics Spanish 2.142 kbps
  42. Presentation Graphics Chinese 22.012 kbps

  43. FILES:

  44. Name Time In Length Size Total Bitrate
  45. ---- ------- ------ ---- -------------
  46. 00044.SSIF 0:00:00.000 1:31:49.295 21,367,566,336 31,028
复制代码









回复

使用道具 举报

蓝光币
324
发表于 2023-10-30 13:08:02 | 显示全部楼层
楼主发贴辛苦了,谢谢楼主分享!我觉得蓝光电影网是注册对了!
回复

使用道具 举报

蓝光币
324
发表于 2023-10-30 13:08:09 | 显示全部楼层
楼主发贴辛苦了,谢谢楼主分享!我觉得蓝光电影网是注册对了!
回复

使用道具 举报

蓝光币
3
发表于 2023-10-30 21:24:00 | 显示全部楼层
谢谢楼主,真是太感谢了
回复

使用道具 举报

蓝光币
192
发表于 2023-10-30 23:39:19 | 显示全部楼层
谢谢分享!!!!!!
回复

使用道具 举报

蓝光币
414
发表于 2023-10-31 02:14:23 | 显示全部楼层

楼主太厉害了!楼主,电影应该很好看我觉得蓝光电影网真是个好地方!
回复

使用道具 举报

蓝光币
1828
发表于 2023-11-1 12:03:51 | 显示全部楼层

既然你诚信诚意的推荐了,那我就勉为其难的看看吧!蓝光电影网不走平凡路。
回复

使用道具 举报

蓝光币
390
发表于 2023-11-1 23:37:50 | 显示全部楼层
感谢分享,辛苦了!
回复

使用道具 举报

蓝光币
885
发表于 2023-11-5 21:43:12 | 显示全部楼层
感谢楼主分享
回复

使用道具 举报

蓝光币
192
发表于 2023-11-12 23:25:54 | 显示全部楼层
谢谢分享!!!!!
回复

使用道具 举报

懒得打字嘛,点击右侧快捷回复 【右侧内容,后台自定义】
您需要登录后才可以回帖 登录 | 立即加入

本版积分规则

Archiver| |网站地图

Copyright © 2024 Comsenz Inc. Powered by 蓝光电影网

本站内容由用户自主分享和转载自互联网,转载目的在于传递更多信息,并不代表本网赞同其观点和对其真实性负责。

如有侵权、违反国家法律政策行为,请联系我们,我们会第一时间及时清除和处理!

举报反馈邮箱:4k1080.com@gmail.com

快速回复 返回顶部 返回列表