找回密码

查看: 1247|回复: 1

[剧情] 芭萨提的颜色/青春无敌 [DIY简/繁/中英双语字幕].Rang.De.Basanti.2006.1080p.Blu-ray.AVC.DTS-HD.MA.5.1-TAG 40.38GB

[复制链接]
蓝光币
1984
发表于 2023-10-28 10:13:18 | 显示全部楼层 |阅读模式
芭萨提的色彩/青春无敌 [DIY简/繁/中英双语字幕].Rang.De.Basanti.2006.1080p.Blu-ray.AVC.DTS-HD.MA.5.1-TAG 40.38GB-1.jpg

◎译  名 芭萨提的色彩 / 染上黄色 / 青春无敌
◎片  名 Rang De Basanti
◎年  代 2006
◎产  地 印度
◎类  别 剧情 / 笑剧 / 历史
◎语  言 乌尔都语 / 印地语 / 英语
◎上映日期 2006-01-26
◎IMDb评星  ★★★★★★★★☆☆
◎IMDb评分  8.1/10 from 121,367 users
◎IMDb链接  https://www.imdb.com/title/tt0405508/
◎豆瓣评星 ★★★★✦
◎豆瓣评分 8.5/10 from 16,438 users
◎豆瓣链接 https://movie.douban.com/subject/1889053/
◎片  长 167分钟
◎导  演 拉凯什·奥姆普拉卡西·梅赫拉 / Rakeysh Omprakash Mehra
◎演  员 阿米尔·汗 / Aamir Khan
      悉塔尔特 / Siddharth
      沙尔曼·乔希 / Sharman Joshi
      库纳尔·卡波尔 / Kunal Kapoor
      阿图尔·库尔卡尼 / Atul Kulkarni
      彭雅思 / Alice Patten
      苏哈·阿里·汗 / Soha Ali Khan
      斯蒂文·麦金托什 / Steven Mackintosh
      马达范 / R. Madhavan
      瓦希达·拉赫曼 / Waheeda Rehman
      阿努潘·凯尔 / Anupam Kher
      凯伦·凯尔 / Kiron Kher
      欧姆·普瑞 / Om Puri
      詹丹·罗伊·萨纳尔 / Chandan Roy Sanyal | 饰 Batukeshwar Dutt
◎编  剧 伦齐尔·达席尔瓦 / Renzil D'Silva
      普拉松·乔希 / Prasoon Joshi
      拉凯什·奥姆普拉卡西·梅赫拉 / Rakeysh Omprakash Mehra
      卡姆利什·潘迪 / Kamlesh Pandey
◎制  片  人 拉凯什·奥姆普拉卡西·梅赫拉 / Rakeysh Omprakash Mehra
      Ronnie Screwvala Ronnie Screwvala
◎音  乐 A·R·拉曼 / A.R. Rahman
◎摄  影 Binod Pradhan Binod Pradhan
◎美  术 Samir Chanda Samir Chanda
◎化  妆 菲·哈蒙德 / Fae Hammond
◎副  导  演 Mick Ward Mick Ward
      阿见·马瑟 / Arjun Mathur
◎视觉殊效 潘卡杰·哈德波尔 / Pankaj Khandpur
      谢丽·沃德 / Sherry Bharda

◎简  介 

  影片中的英国女电影人苏,乃由末任香港总督彭定康幼女彭雅思饰演。
  弹压过印度反动者的英国警官被反动者视死如归的气概所感动,留下了一本记录那时情况的日志。多年后,他的孙女Sue(彭雅思 Alice Patten 饰)阅读日志后深受感动,凭着一腔热血辞掉电影公司的工作,来到印度拍摄这部记录那段历史的影片。Sue到德里大学的门生当选角。一群布满生气却和芸芸公共一样对印度这个国家心如死灰的年轻人以及进入她的视野。起头的拍摄,麻醉于花天酒地的的门生,对于昔时那些为国牺牲的反动者的行为底子没法了解,致使迟迟不能进入脚色。灾难横至,国防部长的败北致使朋友们中的飞翔员Ajay(马德哈万 Madhavan 饰)遭受了空难。Ajay为了避免平民受伤而献出了自己的生命,却由于政府高层的反唇覆舌而死后名誉受损。首恶清闲法外。小伙子们恍然感遭到,自己体内的热血起头为枉死的朋友,为多难的祖国而沸腾……

◎批评:

------能拍出这样的电影,我们有什么来由不相信印度的未来会比我们好。
------我们用最矫情最自以为是的说话来讥讽社会 却历来没有实在的做过什么来改变它
------再一次再一次的力荐这部影片.我很惊奇于体制如此类似的印度,这类电影居然还会获奖,还是大牌云集建造精巧.我说什么你
们懂的...别的我最初想说 实在这电影的大旨可以用一句话概括,那些成天只会埋怨的傻粪们!加入并改变这一切吧!
------青春无敌!!!看了以后,似乎自己的小宇宙熄灭了起来。。。。。正如影片里讲的那样,很多人都在说现实很糟糕、很混
乱、社会很败北,但现实的行动不是去做而是埋怨,由于埋怨最简单,不需要支出更多。5个大门生气力很微小,可是他们为了叫醒
百姓而支出了生命,面临灭亡是那末的自在。电影能够有所夸张,可是我们更需要支出现实行动,理性的挑选,渐渐改变,暴力只
会获得暴力。。。。。。。。。。看过几部阿米尔汗主演的电影以后逐步喜好上了他的影片,都比力有内在,也许是他自己的履历
培养了电影。

  1. DISC INFO:
  2. Disc Title: Rang De Basanti 2006 1080p Blu-ray AVC DTS-HD MA 5.1-TAG
  3. Disc Size: 43,354,655,279 bytes
  4. Protection: AACS
  5. BD-Java: No
  6. BDInfo: 0.5.8
  7. PLAYLIST REPORT:
  8. Name: 00000.MPLS
  9. Length: 2:46:42.999 (h:m:s.ms)
  10. Size: 42,003,612,096 bytes
  11. Total Bitrate: 33.59 Mbps

  12. VIDEO:
  13. Codec Bitrate Description
  14. ----- ------- -----------
  15. MPEG-4 AVC Video 28326 kbps 1080p / 24 fps / 16:9 / High Profile 4.1

  16. AUDIO:
  17. Codec Language Bitrate Description
  18. ----- -------- ------- -----------
  19. DTS-HD Master Audio Hindi 2058 kbps 5.1 / 48 kHz / 2058 kbps / 16-bit (DTS Core: 5.1 / 48 kHz / 1509 kbps / 16-bit)
  20. Dolby Digital Audio Hindi 640 kbps 5.1 / 48 kHz / 640 kbps
  21. Dolby Digital Audio English 640 kbps 2.0 / 48 kHz / 640 kbps / Dolby Surround

  22. SUBTITLES:
  23. Codec Language Bitrate Description
  24. ----- -------- ------- -----------
  25. Presentation Graphics English 19.267 kbps
  26. Presentation Graphics Chinese 17.434 kbps 【简体中文】
  27. Presentation Graphics Chinese 32.079 kbps 【简英双语】
  28. Presentation Graphics Chinese 18.374 kbps 【繁体中文】
  29. Presentation Graphics Chinese 33.033 kbps 【繁英双语】

  30. FILES:
  31. Name Time In Length Size Total Bitrate
  32. ---- ------ ------ ---- -------------
  33. 00012.M2TS 0:00:00.000 0:00:07.000 6,423,552 7,298
  34. 00008.M2TS 0:00:07.000 0:00:10.000 362,496 290
  35. 00000.M2TS 0:00:17.000 1:21:29.583 20,492,435,520 33,528
  36. 00001.M2TS 1:21:46.583 1:24:55.916 21,501,773,184 33,755
  37. 00007.M2TS 2:46:42.499 0:00:00.500 2,617,344 41,878
复制代码










相关帖子

回复

使用道具 举报

蓝光币
808
发表于 2023-11-27 11:07:19 | 显示全部楼层

我看不错噢 谢谢楼主!蓝光电影网越来越好!
回复

使用道具 举报

懒得打字嘛,点击右侧快捷回复 【右侧内容,后台自定义】
您需要登录后才可以回帖 登录 | 立即加入

本版积分规则

Archiver| |网站地图

Copyright © 2024 Comsenz Inc. Powered by 蓝光电影网

本站内容由用户自主分享和转载自互联网,转载目的在于传递更多信息,并不代表本网赞同其观点和对其真实性负责。

如有侵权、违反国家法律政策行为,请联系我们,我们会第一时间及时清除和处理!

举报反馈邮箱:4k1080.com@gmail.com

快速回复 返回顶部 返回列表