找回密码

蓝光电影网

查看: 1417|回复: 32

[10bit.SDR] 胡桃夹子和四个王国/胡桃夹子 The.Nutcracker.and.the.Four.Realms.2018.2160p.BluRay.x265.10bit.SDR.DTS-HD.MA.TrueHD.7.1.Atmos-SWTYBLZ 37.86GB

[复制链接]

 成长值: 21865

发表于 2019-1-25 10:24:46 | 显示全部楼层 |阅读模式
胡桃夹子和四个王国/胡桃夹子 The.Nutcracker.and.the.Four.Realms.2018.2160p.BluRay.x265.10bit.SDR.DTS-HD.MA.TrueHD.7.1.Atmos-SWTYBLZ 37.86GB-1.jpg
◎译  名 胡桃夹子和四个王国 / 胡桃夹子(港) / 胡桃钳与奇幻四国(台) / 胡桃夹子真人版
◎片  名 胡桃夹子和四个王国 The Nutcracker And The Four Realms
◎年  代 2018
◎国  家 美国
◎类  别 奇幻 / 冒险
◎语  言 英语
◎上映日期 2018-11-02(中国大陆/美国)
◎IMDb评分  5.5/10 from 10,980 users
◎IMDb链接  http://www.imdb.com/title/tt5523010/
◎豆瓣评分 6.1/10 from 32051 users
◎豆瓣链接 https://movie.douban.com/subject/26741061/
◎片  长 99分钟
◎导  演 拉斯·霍尔斯道姆 / 乔·庄斯顿
◎主  演 麦肯吉·弗依
      摩根·弗里曼
      凯拉·奈特莉
      马修·麦克费登
      海伦·米伦
      艾丽·巴姆博
      米兰达·哈特
      欧赫尼奥·德尔维斯
      杰克·怀特霍尔
      理查德·E·格兰特
      谢尔盖·波卢宁
      欧米德·吉亚李利
      梅拉·沙尔
      尼克·穆罕默德
      杰茜·维宁
      汤姆·斯威特
      马里安·洛伦西克
      芙洛·费拉科
      丽塔-麦克唐纳丹帕
      查尔斯·斯特里特

◎简  介 

  克拉拉一直在寻找一把钥匙——这把与众不同的钥匙将可以开启已故母亲装有无价之宝的盒子。在教父德罗塞尔梅耶举办的一次节日聚会上,一根金线指引着她找到了这把梦寐以求的钥匙,却在瞬间消失进入一个陌生而神秘的平行世界。在平行世界里,克拉拉结识了士兵菲利普、一群老鼠、以及分别掌管雪花王国、鲜花王国、糖果王国的三位国王。克拉拉和菲利普必须勇敢地接受第四位国王——暴君姜母的考验,才能够找回钥匙、并将和平重新带回这个摇摇欲坠的平行世界。

◎获奖情况 

  第46届动画安妮奖 (2019)
  最佳真人电影动画角色(提名)

  第21届美国服装设计工会奖 (2019)
  科幻/奇幻题材电影最佳服装设计(提名) 珍妮·碧万

  第39届伦敦影评人协会奖 (2019)
  年度英国/爱尔兰男演员(提名) 理查德·E·格兰特


  1. Video
  2. ID                                       : 1
  3. Format                                   : HEVC
  4. Format/Info                              : High Efficiency Video Coding
  5. Format profile                           : Main [url=/cdn-cgi/l/email-protection][email protected][/url]@High
  6. Codec ID                                 : V_MPEGH/ISO/HEVC
  7. Duration                                 : 1 h 39 min
  8. Bit rate                                 : 45.1 Mb/s
  9. Width                                    : 3 840 pixels
  10. Height                                   : 2 076 pixels
  11. Display aspect ratio                     : 1.85:1
  12. Frame rate mode                          : Constant
  13. Frame rate                               : 23.976 (24000/1001) FPS
  14. Color space                              : YUV
  15. Chroma subsampling                       : 4:2:0
  16. Bit depth                                : 10 bits
  17. Bits/(Pixel*Frame)                       : 0.236
  18. Stream size                              : 31.2 GiB (83%)
  19. Title                                    : The.Nutcracker.and.the.Four.Realms.2018.2160p.BluRay.x265.10bit.SDR.DTS-HD.MA.TrueHD.7.1.Atmos-SWTYBLZ
  20. Writing library                          : x265 3.0_RC+7-0614145ecaf2:[Windows][GCC 8.2.1][64 bit] 10bit
  21. Encoding settings                        : cpuid=1111039 / frame-threads=16 / numa-pools=24,24,24,24 / wpp / no-pmode / no-pme / no-psnr / no-ssim / log-level=2 / input-csp=1 / input-res=3840x2076 / interlace=0 / total-frames=142805 / level-idc=51 / high-tier=1 / uhd-bd=0 / ref=3 / no-allow-non-conformance / repeat-headers / annexb / aud / hrd / info / hash=0 / no-temporal-layers / no-open-gop / min-keyint=1 / keyint=24 / gop-lookahead=0 / bframes=4 / b-adapt=2 / b-pyramid / bframe-bias=0 / rc-lookahead=25 / lookahead-slices=4 / scenecut=40 / radl=0 / no-splice / no-intra-refresh / ctu=64 / min-cu-size=8 / no-rect / no-amp / max-tu-size=32 / tu-inter-depth=1 / tu-intra-depth=1 / limit-tu=0 / rdoq-level=0 / dynamic-rd=0.00 / no-ssim-rd / signhide / no-tskip / nr-intra=0 / nr-inter=0 / no-constrained-intra / strong-intra-smoothing / max-merge=2 / limit-refs=3 / no-limit-modes / me=1 / subme=2 / merange=57 / temporal-mvp / weightp / no-weightb / no-analyze-src-pics / deblock=0:0 / no-sao / no-sao-non-deblock / rd=3 / no-early-skip / rskip / no-fast-intra / no-tskip-fast / no-cu-lossless / no-b-intra / no-splitrd-skip / rdpenalty=0 / psy-rd=2.00 / psy-rdoq=0.00 / no-rd-refine / no-lossless / cbqpoffs=0 / crqpoffs=0 / rc=crf / crf=16.0 / qcomp=0.60 / qpstep=4 / stats-write=0 / stats-read=0 / vbv-maxrate=160000 / vbv-bufsize=160000 / vbv-init=0.9 / crf-max=0.0 / crf-min=0.0 / ipratio=1.40 / pbratio=1.30 / aq-mode=1 / aq-strength=1.00 / cutree / zone-count=0 / no-strict-cbr / qg-size=32 / no-rc-grain / qpmax=69 / qpmin=0 / no-const-vbv / sar=1 / overscan=0 / videoformat=5 / range=0 / colorprim=2 / transfer=2 / colormatrix=2 / chromaloc=0 / display-window=0 / max-cll=0,0 / min-luma=0 / max-luma=1023 / log2-max-poc-lsb=8 / vui-timing-info / vui-hrd-info / slices=1 / opt-qp-pps / opt-ref-list-length-pps / no-multi-pass-opt-rps / scenecut-bias=0.05 / no-opt-cu-delta-qp / no-aq-motion / no-hdr / no-hdr-opt / no-dhdr10-opt / no-idr-recovery-sei / analysis-reuse-level=5 / scale-factor=0 / refine-intra=0 / refine-inter=0 / refine-mv=0 / refine-ctu-distortion=0 / no-limit-sao / ctu-info=0 / no-lowpass-dct / refine-analysis-type=0 / copy-pic=1 / max-ausize-factor=1.0 / no-dynamic-refine / no-single-sei / no-hevc-aq / qp-adaptation-range=1.00
  22. Default                                  : Yes
  23. Forced                                   : No

  24. Audio #1
  25. ID                                       : 2
  26. Format                                   : MLP FBA 16-ch
  27. Format/Info                              : Meridian Lossless Packing FBA with 16-channel presentation
  28. Commercial name                          : Dolby TrueHD with Dolby Atmos
  29. Codec ID                                 : A_TRUEHD
  30. Duration                                 : 1 h 39 min
  31. Bit rate mode                            : Variable
  32. Bit rate                                 : 4 942 kb/s
  33. Maximum bit rate                         : 7 977 kb/s
  34. Channel(s)                               : 8 channels
  35. Channel layout                           : L R C LFE Ls Rs Lb Rb
  36. Sampling rate                            : 48.0 kHz
  37. Frame rate                               : 1 200.000 FPS (40 SPF)
  38. Compression mode                         : Lossless
  39. Delay relative to video                  : 15 ms
  40. Stream size                              : 3.43 GiB (9%)
  41. Title                                    : The.Nutcracker.and.the.Four.Realms.2018.2160p.BluRay.x265.10bit.SDR.DTS-HD.MA.TrueHD.7.1.Atmos-SWTYBLZ
  42. Language                                 : English
  43. Default                                  : Yes
  44. Forced                                   : No
  45. Number of dynamic objects                : 13
  46. Bed channel count                        : 1 channel
  47. Bed channel configuration                : LFE

  48. Audio #2
  49. ID                                       : 3
  50. Format                                   : DTS XLL
  51. Format/Info                              : Digital Theater Systems
  52. Commercial name                          : DTS-HD Master Audio
  53. Codec ID                                 : A_DTS
  54. Duration                                 : 1 h 39 min
  55. Bit rate mode                            : Variable
  56. Bit rate                                 : 3 490 kb/s
  57. Channel(s)                               : 8 channels
  58. Channel layout                           : C L R LFE Lb Rb Lss Rss
  59. Sampling rate                            : 48.0 kHz
  60. Frame rate                               : 93.750 FPS (512 SPF)
  61. Bit depth                                : 24 bits
  62. Compression mode                         : Lossless
  63. Stream size                              : 2.42 GiB (6%)
  64. Title                                    : The.Nutcracker.and.the.Four.Realms.2018.2160p.BluRay.x265.10bit.SDR.DTS-HD.MA.TrueHD.7.1.Atmos-SWTYBLZ
  65. Language                                 : English
  66. Default                                  : No
  67. Forced                                   : No

  68. Audio #3
  69. ID                                       : 4
  70. Format                                   : AC-3
  71. Format/Info                              : Audio Coding 3
  72. Commercial name                          : Dolby Digital
  73. Codec ID                                 : A_AC3
  74. Duration                                 : 1 h 39 min
  75. Bit rate mode                            : Constant
  76. Bit rate                                 : 640 kb/s
  77. Channel(s)                               : 6 channels
  78. Channel layout                           : L R C LFE Ls Rs
  79. Sampling rate                            : 48.0 kHz
  80. Frame rate                               : 31.250 FPS (1536 SPF)
  81. Bit depth                                : 16 bits
  82. Compression mode                         : Lossy
  83. Delay relative to video                  : 15 ms
  84. Stream size                              : 454 MiB (1%)
  85. Title                                    : The.Nutcracker.and.the.Four.Realms.2018.2160p.BluRay.x265.10bit.SDR.DTS-HD.MA.TrueHD.7.1.Atmos-SWTYBLZ
  86. Language                                 : English
  87. Service kind                             : Complete Main
  88. Default                                  : No
  89. Forced                                   : No

  90. Text #1
  91. ID                                       : 5
  92. Format                                   : UTF-8
  93. Codec ID                                 : S_TEXT/UTF8
  94. Codec ID/Info                            : UTF-8 Plain Text
  95. Duration                                 : 1 h 27 min
  96. Bit rate                                 : 43 b/s
  97. Count of elements                        : 1098
  98. Stream size                              : 27.7 KiB (0%)
  99. Title                                    : English-SRT
  100. Language                                 : English
  101. Default                                  : Yes
  102. Forced                                   : No

  103. Text #2
  104. ID                                       : 6
  105. Format                                   : UTF-8
  106. Codec ID                                 : S_TEXT/UTF8
  107. Codec ID/Info                            : UTF-8 Plain Text
  108. Duration                                 : 1 h 36 min
  109. Bit rate                                 : 45 b/s
  110. Count of elements                        : 1340
  111. Stream size                              : 32.4 KiB (0%)
  112. Title                                    : English-SDH-SRT
  113. Language                                 : English
  114. Default                                  : No
  115. Forced                                   : No

  116. Text #3
  117. ID                                       : 7
  118. Format                                   : PGS
  119. Muxing mode                              : zlib
  120. Codec ID                                 : S_HDMV/PGS
  121. Codec ID/Info                            : Picture based subtitle format used on BDs/HD-DVDs
  122. Duration                                 : 1 h 36 min
  123. Bit rate                                 : 36.7 kb/s
  124. Count of elements                        : 2686
  125. Stream size                              : 25.4 MiB (0%)
  126. Title                                    : English-PGS
  127. Language                                 : English
  128. Default                                  : No
  129. Forced                                   : No

  130. Text #4
  131. ID                                       : 8
  132. Format                                   : PGS
  133. Muxing mode                              : zlib
  134. Codec ID                                 : S_HDMV/PGS
  135. Codec ID/Info                            : Picture based subtitle format used on BDs/HD-DVDs
  136. Duration                                 : 1 h 31 min
  137. Bit rate                                 : 32.2 kb/s
  138. Count of elements                        : 2132
  139. Stream size                              : 21.0 MiB (0%)
  140. Title                                    : French-PGS
  141. Language                                 : French
  142. Default                                  : No
  143. Forced                                   : No

  144. Text #5
  145. ID                                       : 9
  146. Format                                   : PGS
  147. Muxing mode                              : zlib
  148. Codec ID                                 : S_HDMV/PGS
  149. Codec ID/Info                            : Picture based subtitle format used on BDs/HD-DVDs
  150. Duration                                 : 1 h 31 min
  151. Bit rate                                 : 30.1 kb/s
  152. Count of elements                        : 2084
  153. Stream size                              : 19.7 MiB (0%)
  154. Title                                    : Spanish-PGS
  155. Language                                 : Spanish
  156. Default                                  : No
  157. Forced                                   : No

  158. Menu
  159. 00:00:00.000                             : :Chapter 1
  160. 00:08:39.101                             : :Chapter 2
  161. 00:16:47.256                             : :Chapter 3
  162. 00:25:37.744                             : :Chapter 4
  163. 00:34:20.892                             : :Chapter 5
  164. 00:43:28.397                             : :Chapter 6
  165. 00:48:31.992                             : :Chapter 7
  166. 00:56:07.655                             : :Chapter 8
  167. 00:59:09.546                             : :Chapter 9
  168. 01:04:57.310                             : :Chapter 10
  169. 01:11:49.722                             : :Chapter 11
  170. 01:18:10.519                             : :Chapter 12
  171. 01:22:04.002                             : :Chapter 13
  172. 01:30:06.275                             : :Chapter 14
复制代码

复制代码

胡桃夹子和四个王国/胡桃夹子 The.Nutcracker.and.the.Four.Realms.2018.2160p.BluRay.x265.10bit.SDR.DTS-HD.MA.TrueHD.7.1.Atmos-SWTYBLZ 37.86GB-2.png 胡桃夹子和四个王国/胡桃夹子 The.Nutcracker.and.the.Four.Realms.2018.2160p.BluRay.x265.10bit.SDR.DTS-HD.MA.TrueHD.7.1.Atmos-SWTYBLZ 37.86GB-3.png 胡桃夹子和四个王国/胡桃夹子 The.Nutcracker.and.the.Four.Realms.2018.2160p.BluRay.x265.10bit.SDR.DTS-HD.MA.TrueHD.7.1.Atmos-SWTYBLZ 37.86GB-4.png 胡桃夹子和四个王国/胡桃夹子 The.Nutcracker.and.the.Four.Realms.2018.2160p.BluRay.x265.10bit.SDR.DTS-HD.MA.TrueHD.7.1.Atmos-SWTYBLZ 37.86GB-5.png 胡桃夹子和四个王国/胡桃夹子 The.Nutcracker.and.the.Four.Realms.2018.2160p.BluRay.x265.10bit.SDR.DTS-HD.MA.TrueHD.7.1.Atmos-SWTYBLZ 37.86GB-6.png 胡桃夹子和四个王国/胡桃夹子 The.Nutcracker.and.the.Four.Realms.2018.2160p.BluRay.x265.10bit.SDR.DTS-HD.MA.TrueHD.7.1.Atmos-SWTYBLZ 37.86GB-7.png





开通VIP免费下载本站所有资源---点这里
新手必看:资源下载、资源播放、字幕使用、等常见问题---点这里
回复

使用道具 举报

发表于 2019-1-25 10:56:36 | 显示全部楼层
楼主发贴辛苦了,谢谢楼主分享!我觉得蓝光电影网是注册对了!沙发
开通VIP免费下载本站所有资源---点这里
新手必看:资源下载、资源播放、字幕使用、等常见问题---点这里
回复 支持 反对

使用道具 举报

发表于 2019-1-25 12:21:35 | 显示全部楼层

楼主太厉害了!楼主,电影应该很好看我觉得蓝光电影网真是个好地方!
开通VIP免费下载本站所有资源---点这里
新手必看:资源下载、资源播放、字幕使用、等常见问题---点这里
回复 支持 反对

使用道具 举报

发表于 2019-1-25 15:30:01 | 显示全部楼层
啦啦啦啦啦啦啦啦
开通VIP免费下载本站所有资源---点这里
新手必看:资源下载、资源播放、字幕使用、等常见问题---点这里
回复 支持 反对

使用道具 举报

发表于 2019-1-25 19:25:32 | 显示全部楼层

这个帖子不回对不起自己!我想我是一天也不能离开蓝光电影网
开通VIP免费下载本站所有资源---点这里
新手必看:资源下载、资源播放、字幕使用、等常见问题---点这里
回复 支持 反对

使用道具 举报

发表于 2019-1-25 20:06:26 | 显示全部楼层

楼主太厉害了!楼主,电影应该很好看我觉得蓝光电影网真是个好地方!
开通VIP免费下载本站所有资源---点这里
新手必看:资源下载、资源播放、字幕使用、等常见问题---点这里
回复 支持 反对

使用道具 举报

发表于 2019-1-26 00:15:37 | 显示全部楼层
谢谢楼主的分享
开通VIP免费下载本站所有资源---点这里
新手必看:资源下载、资源播放、字幕使用、等常见问题---点这里
回复 支持 反对

使用道具 举报

发表于 2019-1-26 19:05:47 | 显示全部楼层
看看这个。·。·。·。·。·
开通VIP免费下载本站所有资源---点这里
新手必看:资源下载、资源播放、字幕使用、等常见问题---点这里
回复 支持 反对

使用道具 举报

发表于 2019-1-26 20:09:23 | 显示全部楼层
感谢楼主分享
开通VIP免费下载本站所有资源---点这里
新手必看:资源下载、资源播放、字幕使用、等常见问题---点这里
回复 支持 反对

使用道具 举报

发表于 2019-1-27 23:21:50 | 显示全部楼层
谢谢分享,辛苦了!
开通VIP免费下载本站所有资源---点这里
新手必看:资源下载、资源播放、字幕使用、等常见问题---点这里
回复 支持 反对

使用道具 举报

懒得打字嘛,点击右侧快捷回复 【右侧内容,后台自定义】
您需要登录后才可以回帖 登录 | 立即加入

本版积分规则

现在加入蓝光电影网,注册一个账号

QQ| 手机版|小黑屋| 蓝光电影网 |网站地图

Copyright © 2015-2019 Comsenz Inc.  Template by 蓝光电影网 All Rights Reserved.

Powered by 蓝光电影网 X3.4

特别声明:本站所有资源均由网上收集而来,版权归原影音公司所有,如果侵犯了你的权益,请通知我们,我们会及时删除侵权内容.

快速回复 返回顶部 返回列表