找回密码

蓝光电影网

查看: 214|回复: 3

[剧情片] 天堂梦醒 Vendetta.1999.720p.AMZN.WEBRip.DD2.0.x264-QOQ 3.36GB

[复制链接]

 成长值: 21340

发表于 2019-1-11 10:17:55 | 显示全部楼层 |阅读模式

天堂梦醒 Vendetta.1999.720p.AMZN.WEBRip.DD2.0.x264-QOQ 3.36GB-1.jpg
◎译  名 天堂梦醒 / Vendetta (TV)
◎片  名 天堂梦醒 Vendetta
◎年  代 1999
◎国  家 美国
◎类  别 剧情
◎语  言 英语
◎上映日期 1999-07-03
◎IMDb评分  6.2/10 from 867 users
◎IMDb链接  http://www.imdb.com/title/tt0162735/
◎豆瓣评分 目前无人评价
◎豆瓣链接 https://movie.douban.com/subject/1296691/
◎片  长 117分钟
◎导  演 尼古拉斯 迈耶 (Nicholas Meyer)
◎主  演 克里斯托弗·沃肯
      卢克·艾斯丘
      克兰西·布朗
      布鲁斯·戴维森

◎简  介 

  葛瑞帕斯十五岁时,与家人来到机会之士美国。原来期待在纽奥良开僻新天地,却因白人对意大利人民的不满,无故被陷入狱,成为代罪羔羊。最后虽被判无罪,但同被逮捕的意大利乡亲,却在暴民私刑下丧生,新大陆成了葛瑞帕斯的伤心地...


  1. Video
  2. ID                                       : 1
  3. Format                                   : AVC
  4. Format/Info                              : Advanced Video Codec
  5. Format profile                           : [url=/cdn-cgi/l/email-protection][email protected][/url]
  6. Format settings                          : CABAC / 5 Ref Frames
  7. Format settings, CABAC                   : Yes
  8. Format settings, ReFrames                : 5 frames
  9. Codec ID                                 : V_MPEG4/ISO/AVC
  10. Duration                                 : 1 h 57 min
  11. Bit rate mode                            : Variable
  12. Bit rate                                 : 3 864 kb/s
  13. Maximum bit rate                         : 4 500 kb/s
  14. Width                                    : 1 280 pixels
  15. Height                                   : 720 pixels
  16. Display aspect ratio                     : 16:9
  17. Frame rate mode                          : Constant
  18. Frame rate                               : 23.976 (24000/1001) FPS
  19. Color space                              : YUV
  20. Chroma subsampling                       : 4:2:0
  21. Bit depth                                : 8 bits
  22. Scan type                                : Progressive
  23. Bits/(Pixel*Frame)                       : 0.175
  24. Stream size                              : 3.17 GiB (94%)
  25. Writing library                          : x264 core 148 r2623 d5b2374
  26. Encoding settings                        : cabac=1 / ref=5 / deblock=1:-1:-1 / analyse=0x3:0x133 / me=umh / subme=9 / psy=1 / psy_rd=1.00:0.15 / mixed_ref=1 / me_range=24 / chroma_me=1 / trellis=2 / 8x8dct=1 / cqm=0 / deadzone=21,11 / fast_pskip=1 / chroma_qp_offset=-3 / threads=22 / lookahead_threads=3 / sliced_threads=0 / nr=150 / decimate=1 / interlaced=0 / bluray_compat=0 / constrained_intra=0 / bframes=8 / b_pyramid=2 / b_adapt=2 / b_bias=0 / direct=3 / weightb=1 / open_gop=0 / weightp=2 / keyint=120 / keyint_min=61 / scenecut=0 / intra_refresh=0 / rc_lookahead=120 / rc=crf / mbtree=1 / crf=18.0 / qcomp=0.60 / qpmin=0 / qpmax=69 / qpstep=4 / vbv_maxrate=4500 / vbv_bufsize=17500 / crf_max=0.0 / nal_hrd=vbr / filler=0 / ip_ratio=1.40 / aq=3:1.00
  27. Default                                  : Yes
  28. Forced                                   : No
  29. Color range                              : Limited
  30. Color primaries                          : BT.709
  31. Transfer characteristics                 : BT.709
  32. Matrix coefficients                      : BT.709

  33. Audio
  34. ID                                       : 2
  35. Format                                   : E-AC-3
  36. Format/Info                              : Enhanced AC-3
  37. Commercial name                          : Dolby Digital Plus
  38. Codec ID                                 : A_EAC3
  39. Duration                                 : 1 h 57 min
  40. Bit rate mode                            : Constant
  41. Bit rate                                 : 224 kb/s
  42. Channel(s)                               : 2 channels
  43. Channel layout                           : L R
  44. Sampling rate                            : 48.0 kHz
  45. Frame rate                               : 31.250 FPS (1536 SPF)
  46. Compression mode                         : Lossy
  47. Stream size                              : 188 MiB (5%)
  48. Language                                 : English
  49. Service kind                             : Complete Main
  50. Default                                  : Yes
  51. Forced                                   : No

  52. Text
  53. ID                                       : 3
  54. Format                                   : UTF-8
  55. Codec ID                                 : S_TEXT/UTF8
  56. Codec ID/Info                            : UTF-8 Plain Text
  57. Duration                                 : 1 h 53 min
  58. Bit rate                                 : 48 b/s
  59. Count of elements                        : 1475
  60. Stream size                              : 40.0 KiB (0%)
  61. Title                                    : English [CC]
  62. Language                                 : English
  63. Default                                  : No
  64. Forced                                   : No
复制代码

复制代码

天堂梦醒 Vendetta.1999.720p.AMZN.WEBRip.DD2.0.x264-QOQ 3.36GB-2.png 天堂梦醒 Vendetta.1999.720p.AMZN.WEBRip.DD2.0.x264-QOQ 3.36GB-3.png 天堂梦醒 Vendetta.1999.720p.AMZN.WEBRip.DD2.0.x264-QOQ 3.36GB-4.png





开通VIP免费下载本站所有资源---点这里
新手必看:资源下载、资源播放、字幕使用、等常见问题---点这里
回复

使用道具 举报

 成长值: 2965

发表于 2019-1-11 18:23:53 | 显示全部楼层
感谢。。。。。。感谢你的分享。。。。。。。赞。。。。。。。
开通VIP免费下载本站所有资源---点这里
新手必看:资源下载、资源播放、字幕使用、等常见问题---点这里
回复 支持 反对

使用道具 举报

发表于 2019-1-11 21:08:42 | 显示全部楼层
那个 年代

那种 遭遇  
开通VIP免费下载本站所有资源---点这里
新手必看:资源下载、资源播放、字幕使用、等常见问题---点这里
回复 支持 反对

使用道具 举报

发表于 2019-1-11 21:36:11 | 显示全部楼层

楼主太厉害了!楼主,电影应该很好看我觉得蓝光电影网真是个好地方!
开通VIP免费下载本站所有资源---点这里
新手必看:资源下载、资源播放、字幕使用、等常见问题---点这里
回复 支持 反对

使用道具 举报

懒得打字嘛,点击右侧快捷回复 【右侧内容,后台自定义】
您需要登录后才可以回帖 登录 | 立即加入

本版积分规则

现在加入蓝光电影网,注册一个账号

QQ| 手机版|小黑屋| 蓝光电影网 |网站地图

Copyright © 2015-2019 Comsenz Inc.  Template by 蓝光电影网 All Rights Reserved.

Powered by 蓝光电影网 X3.4

特别声明:本站所有资源均由网上收集而来,版权归原影音公司所有,如果侵犯了你的权益,请通知我们,我们会及时删除侵权内容.

快速回复 返回顶部 返回列表