找回密码

蓝光电影网

查看: 34|回复: 3

[剧情片] 天堂梦醒 Vendetta.1999.720p.AMZN.WEBRip.DD2.0.x264-QOQ 3.36GB

[复制链接]
  • TA的每日心情
    开心
    6 小时前
  • 签到天数: 61 天

    [LV.6]常住居民II

     成长值: 18685

    发表于 2019-1-11 10:17:55 | 显示全部楼层 |阅读模式

    马上注册,获取最新影视资讯,享用更多功能,让你轻松玩转蓝光电影网。

    您需要 登录 才可以下载或查看,没有帐号?立即加入

    x

    天堂梦醒 Vendetta.1999.720p.AMZN.WEBRip.DD2.0.x264-QOQ 3.36GB-1.jpg
    ◎译  名 天堂梦醒 / Vendetta (TV)
    ◎片  名 天堂梦醒 Vendetta
    ◎年  代 1999
    ◎国  家 美国
    ◎类  别 剧情
    ◎语  言 英语
    ◎上映日期 1999-07-03
    ◎IMDb评分  6.2/10 from 867 users
    ◎IMDb链接  http://www.imdb.com/title/tt0162735/
    ◎豆瓣评分 目前无人评价
    ◎豆瓣链接 https://movie.douban.com/subject/1296691/
    ◎片  长 117分钟
    ◎导  演 尼古拉斯 迈耶 (Nicholas Meyer)
    ◎主  演 克里斯托弗·沃肯
          卢克·艾斯丘
          克兰西·布朗
          布鲁斯·戴维森

    ◎简  介 

      葛瑞帕斯十五岁时,与家人来到机会之士美国。原来期待在纽奥良开僻新天地,却因白人对意大利人民的不满,无故被陷入狱,成为代罪羔羊。最后虽被判无罪,但同被逮捕的意大利乡亲,却在暴民私刑下丧生,新大陆成了葛瑞帕斯的伤心地...

    • Video
    • ID                                       : 1
    • Format                                   : AVC
    • Format/Info                              : Advanced Video Codec
    • Format profile                           : [email protected]
    • Format settings                          : CABAC / 5 Ref Frames
    • Format settings, CABAC                   : Yes
    • Format settings, ReFrames                : 5 frames
    • Codec ID                                 : V_MPEG4/ISO/AVC
    • Duration                                 : 1 h 57 min
    • Bit rate mode                            : Variable
    • Bit rate                                 : 3 864 kb/s
    • Maximum bit rate                         : 4 500 kb/s
    • Width                                    : 1 280 pixels
    • Height                                   : 720 pixels
    • Display aspect ratio                     : 16:9
    • Frame rate mode                          : Constant
    • Frame rate                               : 23.976 (24000/1001) FPS
    • Color space                              : YUV
    • Chroma subsampling                       : 4:2:0
    • Bit depth                                : 8 bits
    • Scan type                                : Progressive
    • Bits/(Pixel*Frame)                       : 0.175
    • Stream size                              : 3.17 GiB (94%)
    • Writing library                          : x264 core 148 r2623 d5b2374
    • Encoding settings                        : cabac=1 / ref=5 / deblock=1:-1:-1 / analyse=0x3:0x133 / me=umh / subme=9 / psy=1 / psy_rd=1.00:0.15 / mixed_ref=1 / me_range=24 / chroma_me=1 / trellis=2 / 8x8dct=1 / cqm=0 / deadzone=21,11 / fast_pskip=1 / chroma_qp_offset=-3 / threads=22 / lookahead_threads=3 / sliced_threads=0 / nr=150 / decimate=1 / interlaced=0 / bluray_compat=0 / constrained_intra=0 / bframes=8 / b_pyramid=2 / b_adapt=2 / b_bias=0 / direct=3 / weightb=1 / open_gop=0 / weightp=2 / keyint=120 / keyint_min=61 / scenecut=0 / intra_refresh=0 / rc_lookahead=120 / rc=crf / mbtree=1 / crf=18.0 / qcomp=0.60 / qpmin=0 / qpmax=69 / qpstep=4 / vbv_maxrate=4500 / vbv_bufsize=17500 / crf_max=0.0 / nal_hrd=vbr / filler=0 / ip_ratio=1.40 / aq=3:1.00
    • Default                                  : Yes
    • Forced                                   : No
    • Color range                              : Limited
    • Color primaries                          : BT.709
    • Transfer characteristics                 : BT.709
    • Matrix coefficients                      : BT.709
    • Audio
    • ID                                       : 2
    • Format                                   : E-AC-3
    • Format/Info                              : Enhanced AC-3
    • Commercial name                          : Dolby Digital Plus
    • Codec ID                                 : A_EAC3
    • Duration                                 : 1 h 57 min
    • Bit rate mode                            : Constant
    • Bit rate                                 : 224 kb/s
    • Channel(s)                               : 2 channels
    • Channel layout                           : L R
    • Sampling rate                            : 48.0 kHz
    • Frame rate                               : 31.250 FPS (1536 SPF)
    • Compression mode                         : Lossy
    • Stream size                              : 188 MiB (5%)
    • Language                                 : English
    • Service kind                             : Complete Main
    • Default                                  : Yes
    • Forced                                   : No
    • Text
    • ID                                       : 3
    • Format                                   : UTF-8
    • Codec ID                                 : S_TEXT/UTF8
    • Codec ID/Info                            : UTF-8 Plain Text
    • Duration                                 : 1 h 53 min
    • Bit rate                                 : 48 b/s
    • Count of elements                        : 1475
    • Stream size                              : 40.0 KiB (0%)
    • Title                                    : English [CC]
    • Language                                 : English
    • Default                                  : No
    • Forced                                   : No

    复制代码

    天堂梦醒 Vendetta.1999.720p.AMZN.WEBRip.DD2.0.x264-QOQ 3.36GB-2.png 天堂梦醒 Vendetta.1999.720p.AMZN.WEBRip.DD2.0.x264-QOQ 3.36GB-3.png 天堂梦醒 Vendetta.1999.720p.AMZN.WEBRip.DD2.0.x264-QOQ 3.36GB-4.png





    Vendetta.1999.720p.AMZN.WEBRip.DD2.0.x264-QOQ.torrent (67.7 KB, 下载次数: 0)
    开通VIP免费下载本站所有资源---点这里
    新手必看:资源下载、资源播放、字幕使用、等常见问题---点这里
    回复

    使用道具 举报

  • TA的每日心情
    擦汗
    4 小时前
  • 签到天数: 39 天

    [LV.5]常住居民I

     成长值: 715

    发表于 2019-1-11 18:23:53 | 显示全部楼层
    感谢。。。。。。感谢你的分享。。。。。。。赞。。。。。。。
    开通VIP免费下载本站所有资源---点这里
    新手必看:资源下载、资源播放、字幕使用、等常见问题---点这里
    回复 支持 反对

    使用道具 举报

  • TA的每日心情
    慵懒
    昨天 20:01
  • 签到天数: 61 天

    [LV.6]常住居民II

    发表于 2019-1-11 21:08:42 | 显示全部楼层
    那个 年代

    那种 遭遇  
    [发帖际遇]: 66854 乐于助人,奖励 1 蓝光币. 幸运榜 / 衰神榜
    开通VIP免费下载本站所有资源---点这里
    新手必看:资源下载、资源播放、字幕使用、等常见问题---点这里
    回复 支持 反对

    使用道具 举报

  • TA的每日心情
    开心
    前天 18:05
  • 签到天数: 50 天

    [LV.5]常住居民I

    发表于 2019-1-11 21:36:11 | 显示全部楼层

    楼主太厉害了!楼主,电影应该很好看我觉得蓝光电影网真是个好地方!
    开通VIP免费下载本站所有资源---点这里
    新手必看:资源下载、资源播放、字幕使用、等常见问题---点这里
    回复 支持 反对

    使用道具 举报

    懒得打字嘛,点击右侧快捷回复 【右侧内容,后台自定义】
    您需要登录后才可以回帖 登录 | 立即加入

    本版积分规则

    现在加入蓝光电影网,注册一个账号

    QQ| 手机版|小黑屋| 蓝光电影网 |网站地图

    Copyright © 20013-2018 Comsenz Inc.  Template by 蓝光电影论坛 All Rights Reserved.

    Powered by 高清电影网 X3.4
    特别声明:本站所有资源均由网上收集而来,版权归原影音公司所有,如果侵犯了你的权益,请通知我们,我们会及时删除侵权内容.

    快速回复 返回顶部 返回列表