找回密码

蓝光电影网

查看: 6141|回复: 126

毒液:致命守护者/毒魔 Venom.2018.2160p.UHD.BluRay.X265.10bit.HDR.TrueHD.7.1.Atmos-TERMiNAL 12.02GB

  [复制链接]
  • TA的每日心情
    开心
    12 小时前
  • 签到天数: 204 天

    [LV.7]常住居民III

     成长值: 20905

    发表于 2018-12-12 09:34:39 | 显示全部楼层 |阅读模式

    马上注册,获取最新影视资讯,享用更多功能,让你轻松玩转蓝光电影网。

    您需要 登录 才可以下载或查看,没有帐号?立即加入

    x

    毒液:致命守护者/毒魔 Venom.2018.2160p.UHD.BluRay.X265.10bit.HDR.TrueHD.7.1.Atmos-TERMiNAL 12.02GB-1.jpg
    ◎译  名 毒液:致命守护者 / 毒魔(港) / 猛毒(台) / 毒液
    ◎片  名 毒液:致命守护者 Venom
    ◎年  代 2018
    ◎国  家 美国 / 中国大陆
    ◎类  别 动作 / 科幻 / 惊悚
    ◎语  言 英语 / 汉语普通话
    ◎上映日期 2018-11-09(中国大陆) / 2018-10-05(美国)
    ◎IMDb评分  6.9/10 from 162,982 users
    ◎IMDb链接  http://www.imdb.com/title/tt1270797/
    ◎豆瓣评分 7.3/10 from 313503 users
    ◎豆瓣链接 https://movie.douban.com/subject/3168101/
    ◎片  长 112分钟 / 107分钟(中国大陆)
    ◎导  演 鲁本·弗雷斯彻
    ◎主  演 汤姆·哈迪
          米歇尔·威廉姆斯
          里兹·阿迈德
          斯科特·黑兹
           瑞德·斯科特
          珍妮·斯蕾特
          梅罗拉·沃特斯
          伍迪·哈里森
          佩吉·陆
          马尔科姆·C·默里
          索佩·阿卢科
          韦恩·佩雷
          米歇尔·李
          库尔特·岳
          克里斯·奥哈拉
          埃米里奥·瑞弗拉
          阿里亚当娜·约瑟夫
          袁之正
          朴云龙
          麦克·勃兰特
          尼克·图恩
          山姆·麦地那
          迪塞尔·马德金斯
          简·麦克尼尔
          维克托·麦凯
          马丁·巴特斯·布拉德福德
          布兰顿·莫拉莱斯
          马修·康威尔
          斯坦·李
          韦德·威廉姆斯
          约瑟夫·阿梅
          威廉·W·巴伯
          玛塞拉·布拉吉奥
          卡特·伯奇
          克里斯蒂安·康佛瑞
          詹姆斯·富尔特斯
          丹妮拉·加斯基
          约翰·盖蒂尔
          艾米丽塔·T·冈萨雷斯
          杰克·汉森
          安东尼·B·哈里斯
          卡茜·亨德利
          罗恩·彼得·琼斯
          霍梅洛·洛佩兹
          万恩·姆约维奇

    ◎简  介 

      艾迪(汤姆·哈迪 Tom Hardy 饰)是一位深受观众喜爱的新闻记者,和女友安妮(米歇尔·威廉姆斯 Michelle Williams 饰)相恋多年,彼此之间感情十分要好。安妮是一名律师,接手了生命基金会的案件,在女友的邮箱里,艾迪发现了基金会老板德雷克(里兹·阿迈德 Riz Ahmed 饰)不为人知的秘密。为此,艾迪不仅丢了工作,女友也离他而去。
      之后,生命基金会的朵拉博士(珍妮·斯蕾特 Jenny Slate 饰)找到了艾迪,希望艾迪能够帮助她阻止德雷克疯狂的罪行。在生命基金会的实验室里,艾迪发现了德雷克进行人体实验的证据,并且在误打误撞之中被外星生命体毒液附身。回到家后,艾迪和毒液之间形成了共生关系,他们要应对的是德雷克派出的一波又一波杀手。

    • Video
    • ID                                       : 1
    • Format                                   : HEVC
    • Format/Info                              : High Efficiency Video Coding
    • Commercial name                          : HDR10
    • Format profile                           : Main [email protected]@High
    • Codec ID                                 : V_MPEGH/ISO/HEVC
    • Duration                                 : 1 h 52 min
    • Bit rate                                 : 11.2 Mb/s
    • Width                                    : 3 840 pixels
    • Height                                   : 1 600 pixels
    • Display aspect ratio                     : 2.40:1
    • Frame rate mode                          : Constant
    • Frame rate                               : 23.976 (24000/1001) FPS
    • Color space                              : YUV
    • Chroma subsampling                       : 4:2:0 (Type 2)
    • Bit depth                                : 10 bits
    • Bits/(Pixel*Frame)                       : 0.076
    • Stream size                              : 8.74 GiB (74%)
    • Writing library                          : x265 2.8+10-703eade86b53:[Windows][MSVC 1914][64 bit] 10bit
    • Encoding settings                        : cpuid=1111039 / frame-threads=5 / numa-pools=36 / wpp / no-pmode / no-pme / no-psnr / no-ssim / log-level=2 / input-csp=1 / input-res=3840x1600 / interlace=0 / total-frames=161328 / level-idc=51 / high-tier=1 / uhd-bd=0 / ref=4 / no-allow-non-conformance / repeat-headers / annexb / aud / hrd / info / hash=0 / no-temporal-layers / no-open-gop / min-keyint=1 / keyint=24 / gop-lookahead=0 / bframes=4 / b-adapt=2 / b-pyramid / bframe-bias=0 / rc-lookahead=25 / lookahead-slices=4 / scenecut=40 / radl=0 / no-intra-refresh / ctu=64 / min-cu-size=8 / rect / no-amp / max-tu-size=32 / tu-inter-depth=1 / tu-intra-depth=1 / limit-tu=0 / rdoq-level=2 / dynamic-rd=0.00 / no-ssim-rd / signhide / no-tskip / nr-intra=0 / nr-inter=0 / no-constrained-intra / no-strong-intra-smoothing / max-merge=3 / limit-refs=3 / limit-modes / me=3 / subme=3 / merange=57 / temporal-mvp / weightp / no-weightb / no-analyze-src-pics / deblock=-3:-3 / no-sao / no-sao-non-deblock / rd=4 / no-early-skip / rskip / no-fast-intra / no-tskip-fast / no-cu-lossless / no-b-intra / no-splitrd-skip / rdpenalty=0 / psy-rd=2.00 / psy-rdoq=1.00 / no-rd-refine / no-lossless / cbqpoffs=0 / crqpoffs=0 / rc=crf / crf=17.0 / qcomp=0.60 / qpstep=4 / stats-write=0 / stats-read=0 / vbv-maxrate=160000 / vbv-bufsize=160000 / vbv-init=0.9 / crf-max=0.0 / crf-min=0.0 / ipratio=1.40 / pbratio=1.30 / aq-mode=1 / aq-strength=1.00 / cutree / zone-count=0 / no-strict-cbr / qg-size=32 / no-rc-grain / qpmax=69 / qpmin=0 / no-const-vbv / sar=1 / overscan=0 / videoformat=5 / range=0 / colorprim=9 / transfer=16 / colormatrix=9 / chromaloc=1 / chromaloc-top=2 / chromaloc-bottom=2 / display-window=0 / master-display=G(13250,34500)B(7500,3000)R(34000,16000)WP(15635,16450)L(40000000,50) / max-cll=3903,1076 / min-luma=0 / max-luma=1023 / log2-max-poc-lsb=8 / vui-timing-info / vui-hrd-info / slices=1 / no-opt-qp-pps / no-opt-ref-list-length-pps / no-multi-pass-opt-rps / scenecut-bias=0.05 / no-opt-cu-delta-qp / no-aq-motion / hdr / hdr-opt / no-dhdr10-opt / no-idr-recovery-sei / analysis-reuse-level=5 / scale-factor=0 / refine-intra=0 / refine-inter=0 / refine-mv=0 / no-limit-sao / ctu-info=0 / no-lowpass-dct / refine-mv-type=0 / copy-pic=1 / max-ausize-factor=1.0 / no-dynamic-refine / no-single-sei
    • Default                                  : Yes
    • Forced                                   : No
    • Color range                              : Limited
    • Color primaries                          : BT.2020
    • Transfer characteristics                 : PQ
    • Matrix coefficients                      : BT.2020 non-constant
    • Mastering display color primaries        : Display P3
    • Mastering display luminance              : min: 0.0050 cd/m2, max: 4000 cd/m2
    • Maximum Content Light Level              : 3903 cd/m2
    • Maximum Frame-Average Light Level        : 1076 cd/m2
    • Audio #1
    • ID                                       : 2
    • Format                                   : MLP FBA 16-ch
    • Format/Info                              : Meridian Lossless Packing FBA with 16-channel presentation
    • Commercial name                          : Dolby TrueHD with Dolby Atmos
    • Codec ID                                 : A_TRUEHD
    • Duration                                 : 1 h 52 min
    • Bit rate mode                            : Variable
    • Bit rate                                 : 3 212 kb/s
    • Maximum bit rate                         : 5 394 kb/s
    • Channel(s)                               : 8 channels
    • Channel layout                           : L R C LFE Ls Rs Lb Rb
    • Sampling rate                            : 48.0 kHz
    • Frame rate                               : 1 200.000 FPS (40 SPF)
    • Compression mode                         : Lossless
    • Stream size                              : 2.52 GiB (21%)
    • Language                                 : English
    • Default                                  : Yes
    • Forced                                   : No
    • Number of dynamic objects                : 11
    • Bed channel count                        : 1 channel
    • Bed channel configuration                : LFE
    • Audio #2
    • ID                                       : 3
    • Format                                   : AC-3
    • Format/Info                              : Audio Coding 3
    • Commercial name                          : Dolby Digital
    • Codec ID                                 : A_AC3
    • Duration                                 : 1 h 52 min
    • Bit rate mode                            : Constant
    • Bit rate                                 : 640 kb/s
    • Channel(s)                               : 6 channels
    • Channel layout                           : L R C LFE Ls Rs
    • Sampling rate                            : 48.0 kHz
    • Frame rate                               : 31.250 FPS (1536 SPF)
    • Bit depth                                : 16 bits
    • Compression mode                         : Lossy
    • Stream size                              : 513 MiB (4%)
    • Language                                 : English
    • Service kind                             : Complete Main
    • Default                                  : No
    • Forced                                   : No
    • Text #1
    • ID                                       : 4
    • Format                                   : PGS
    • Muxing mode                              : zlib
    • Codec ID                                 : S_HDMV/PGS
    • Codec ID/Info                            : Picture based subtitle format used on BDs/HD-DVDs
    • Duration                                 : 1 h 49 min
    • Bit rate                                 : 44.8 kb/s
    • Count of elements                        : 3661
    • Stream size                              : 35.0 MiB (0%)
    • Language                                 : English
    • Default                                  : No
    • Forced                                   : No
    • Text #2
    • ID                                       : 5
    • Format                                   : PGS
    • Muxing mode                              : zlib
    • Codec ID                                 : S_HDMV/PGS
    • Codec ID/Info                            : Picture based subtitle format used on BDs/HD-DVDs
    • Duration                                 : 1 h 49 min
    • Bit rate                                 : 32.6 kb/s
    • Count of elements                        : 2702
    • Stream size                              : 25.5 MiB (0%)
    • Language                                 : English
    • Default                                  : No
    • Forced                                   : No
    • Text #3
    • ID                                       : 6
    • Format                                   : PGS
    • Muxing mode                              : zlib
    • Codec ID                                 : S_HDMV/PGS
    • Codec ID/Info                            : Picture based subtitle format used on BDs/HD-DVDs
    • Duration                                 : 1 h 50 min
    • Bit rate                                 : 27.6 kb/s
    • Count of elements                        : 2370
    • Stream size                              : 21.8 MiB (0%)
    • Language                                 : Spanish
    • Default                                  : No
    • Forced                                   : No
    • Text #4
    • ID                                       : 7
    • Format                                   : PGS
    • Muxing mode                              : zlib
    • Codec ID                                 : S_HDMV/PGS
    • Codec ID/Info                            : Picture based subtitle format used on BDs/HD-DVDs
    • Duration                                 : 1 h 50 min
    • Bit rate                                 : 26.1 kb/s
    • Count of elements                        : 2394
    • Stream size                              : 20.6 MiB (0%)
    • Language                                 : French
    • Default                                  : No
    • Forced                                   : No
    • Text #5
    • ID                                       : 8
    • Format                                   : PGS
    • Muxing mode                              : zlib
    • Codec ID                                 : S_HDMV/PGS
    • Codec ID/Info                            : Picture based subtitle format used on BDs/HD-DVDs
    • Duration                                 : 1 h 49 min
    • Bit rate                                 : 114 b/s
    • Count of elements                        : 10
    • Stream size                              : 92.3 KiB (0%)
    • Language                                 : French
    • Default                                  : No
    • Forced                                   : No
    • Menu
    • 00:00:00.000                             : en:Chapter 01
    • 00:04:43.200                             : en:Chapter 02
    • 00:10:58.074                             : en:Chapter 03
    • 00:17:34.929                             : en:Chapter 04
    • 00:24:05.486                             : en:Chapter 05
    • 00:32:18.812                             : en:Chapter 06
    • 00:40:07.447                             : en:Chapter 07
    • 00:46:51.976                             : en:Chapter 08
    • 00:53:26.203                             : en:Chapter 09
    • 01:00:57.070                             : en:Chapter 10
    • 01:04:01.796                             : en:Chapter 11
    • 01:08:36.446                             : en:Chapter 12
    • 01:11:12.852                             : en:Chapter 13
    • 01:14:15.743                             : en:Chapter 14
    • 01:21:18.749                             : en:Chapter 15
    • 01:27:15.021                             : en:Chapter 16

    复制代码

    毒液:致命守护者/毒魔 Venom.2018.2160p.UHD.BluRay.X265.10bit.HDR.TrueHD.7.1.Atmos-TERMiNAL 12.02GB-2.png 毒液:致命守护者/毒魔 Venom.2018.2160p.UHD.BluRay.X265.10bit.HDR.TrueHD.7.1.Atmos-TERMiNAL 12.02GB-3.png 毒液:致命守护者/毒魔 Venom.2018.2160p.UHD.BluRay.X265.10bit.HDR.TrueHD.7.1.Atmos-TERMiNAL 12.02GB-4.png





    Venom.2018.2160p.UHD.BluRay.X265.10bit.HDR.TrueHD.7.1.Atmos-TERMiNAL.torrent (60.71 KB, 下载次数: 257)
    开通VIP免费下载本站所有资源---点这里
    新手必看:资源下载、资源播放、字幕使用、等常见问题---点这里
    回复

    使用道具 举报

  • TA的每日心情
    奋斗
    13 小时前
  • 签到天数: 137 天

    [LV.7]常住居民III

    发表于 2018-12-12 09:57:24 | 显示全部楼层
    楼主发贴辛苦了,谢谢楼主分享!我觉得蓝光电影网是注册对了!
    [发帖际遇]: 一个袋子砸在了 快乐阳光 头上,快乐阳光 赚了 2 蓝光币. 幸运榜 / 衰神榜
    开通VIP免费下载本站所有资源---点这里
    新手必看:资源下载、资源播放、字幕使用、等常见问题---点这里
    回复 支持 反对

    使用道具 举报

  • TA的每日心情
    开心
    2019-6-6 08:47
  • 签到天数: 96 天

    [LV.6]常住居民II

    发表于 2018-12-12 10:08:07 | 显示全部楼层
    多谢楼主发片
    开通VIP免费下载本站所有资源---点这里
    新手必看:资源下载、资源播放、字幕使用、等常见问题---点这里
    回复 支持 反对

    使用道具 举报

    该用户从未签到

    发表于 2018-12-12 10:10:00 | 显示全部楼层

    多谢楼主发片
    开通VIP免费下载本站所有资源---点这里
    新手必看:资源下载、资源播放、字幕使用、等常见问题---点这里
    回复 支持 反对

    使用道具 举报

  • TA的每日心情
    奋斗
    13 小时前
  • 签到天数: 128 天

    [LV.7]常住居民III

    发表于 2018-12-12 10:30:47 | 显示全部楼层
    多谢楼主发片
    开通VIP免费下载本站所有资源---点这里
    新手必看:资源下载、资源播放、字幕使用、等常见问题---点这里
    回复 支持 反对

    使用道具 举报

  • TA的每日心情
    开心
    16 小时前
  • 签到天数: 162 天

    [LV.7]常住居民III

    发表于 2018-12-12 11:31:21 | 显示全部楼层
    楼主发贴辛苦了,谢谢楼主分享!我觉得蓝光电影网是注册对了!
    开通VIP免费下载本站所有资源---点这里
    新手必看:资源下载、资源播放、字幕使用、等常见问题---点这里
    回复 支持 反对

    使用道具 举报

  • TA的每日心情
    奋斗
    13 小时前
  • 签到天数: 156 天

    [LV.7]常住居民III

    发表于 2018-12-12 12:19:46 | 显示全部楼层
    楼主发贴辛苦了,谢谢楼主分享!我觉得蓝光电影网是注册对了!
    开通VIP免费下载本站所有资源---点这里
    新手必看:资源下载、资源播放、字幕使用、等常见问题---点这里
    回复 支持 反对

    使用道具 举报

    该用户从未签到

    已抛锚 成长值: 310

    发表于 2018-12-12 14:06:55 | 显示全部楼层
    感谢楼主~~~
    开通VIP免费下载本站所有资源---点这里
    新手必看:资源下载、资源播放、字幕使用、等常见问题---点这里
    回复

    使用道具 举报

  • TA的每日心情
    开心
    2019-3-6 08:42
  • 签到天数: 51 天

    [LV.5]常住居民I

    发表于 2018-12-12 15:11:19 | 显示全部楼层
    谢谢楼主分享!我觉得蓝光电影网是注册对了!
    开通VIP免费下载本站所有资源---点这里
    新手必看:资源下载、资源播放、字幕使用、等常见问题---点这里
    回复 支持 反对

    使用道具 举报

  • TA的每日心情
    开心
    13 小时前
  • 签到天数: 188 天

    [LV.7]常住居民III

    发表于 2018-12-12 15:25:59 | 显示全部楼层
    楼主发贴辛苦了
    开通VIP免费下载本站所有资源---点这里
    新手必看:资源下载、资源播放、字幕使用、等常见问题---点这里
    回复 支持 反对

    使用道具 举报

    *滑动验证:
    懒得打字嘛,点击右侧快捷回复 【右侧内容,后台自定义】
    您需要登录后才可以回帖 登录 | 立即加入

    本版积分规则

    现在加入蓝光电影网,注册一个账号

    QQ| 手机版|小黑屋| 蓝光电影网 |网站地图

    Copyright © 20013-2018 Comsenz Inc.  Template by 蓝光电影论坛 All Rights Reserved.

    Powered by 高清电影网 X3.4
    特别声明:本站所有资源均由网上收集而来,版权归原影音公司所有,如果侵犯了你的权益,请通知我们,我们会及时删除侵权内容.

    快速回复 返回顶部 返回列表