找回密码

蓝光电影网

查看: 33|回复: 2

[喜剧片] 一路闯关过圣诞 Ill.Be.Home.For.Christmas.1998.1080p.BluRay.REMUX.AVC.DTS-HD.MA.5.1-FGT 18.11GB

[复制链接]
  • TA的每日心情
    开心
    14 小时前
  • 签到天数: 26 天

    [LV.4]偶尔看看III

     成长值: 18160

    发表于 2018-12-6 21:38:39 | 显示全部楼层 |阅读模式

    马上注册,获取最新影视资讯,享用更多功能,让你轻松玩转蓝光电影网。

    您需要 登录 才可以下载或查看,没有帐号?立即加入

    x

    一路闯关过圣诞 Ill.Be.Home.For.Christmas.1998.1080p.BluRay.REMUX.AVC.DTS-HD.MA.5.1-FGT 18.11GB-1.jpg
    一路闯关过圣诞 Ill.Be.Home.For.Christmas.1998.1080p.BluRay.REMUX.AVC.DTS-HD.MA.5.1-FGT 18.11GB-2.jpg

    ◎译  名 一路闯关过圣诞
    ◎片  名 I'll Be Home for Christmas
    ◎年  代 1998
    ◎产  地 美国
    ◎类  别 喜剧 / 家庭
    ◎语  言 英语
    ◎上映日期 1998-11-13
    ◎IMDb评分 5.4/10 from 7892 users
    ◎IMDb链接 http://www.imdb.com/title/tt0155753
    ◎豆瓣评分 7.6/10 from 189 users
    ◎豆瓣链接 https://movie.douban.com/subject/1297123/
    ◎片  长 86 分钟
    ◎导  演 Arlene Sanford
    ◎编  剧 Harris Goldberg / Tom Nursall
    ◎主  演 Jonathan Taylor Thomas
          Jessica Biel
          Gary Cole


    ◎标  签 喜剧 | 圣诞 | 美国 | 家庭 | 童年回忆 | 美国电影 | 一路闯关过圣诞 | 生活

    ◎简  介  

      在加州就学的杰科从未想要回纽约与家人共渡圣诞,然而在父亲以保时捷车利诱下,他打消出国渡假的计划,准备偕同女友赶在圣诞夜回家,但由于一场恶作剧杰科被同学穿上附有超强黏胶的圣诞老人服装,丢在不见人烟的荒郊野外,身无分文的杰科眼看与父亲约定的时间所剩无几,若无法及时回家保时捷跑车就将泡汤,情急之下,各种能让自己早日回家的方法纷纷出笼,演出一场跋涉三千英哩的冒险情节,在这段回家路上,杰科所面临的挑战远远超出他的想像,包括搭便车遇到的疯狂司机,罗嗦的老太太……

    • Video
    • ID                                       : 1
    • Format                                   : AVC
    • Format/Info                              : Advanced Video Codec
    • Format profile                           : [email protected]
    • Format settings                          : CABAC / 4 Ref Frames
    • Format settings, CABAC                   : Yes
    • Format settings, ReFrames                : 4 frames
    • Codec ID                                 : V_MPEG4/ISO/AVC
    • Duration                                 : 1 h 26 min
    • Bit rate mode                            : Variable
    • Bit rate                                 : 24.7 Mb/s
    • Maximum bit rate                         : 32.0 Mb/s
    • Width                                    : 1 920 pixels
    • Height                                   : 1 080 pixels
    • Display aspect ratio                     : 16:9
    • Frame rate mode                          : Constant
    • Frame rate                               : 23.976 (24000/1001) FPS
    • Color space                              : YUV
    • Chroma subsampling                       : 4:2:0
    • Bit depth                                : 8 bits
    • Scan type                                : Progressive
    • Bits/(Pixel*Frame)                       : 0.498
    • Stream size                              : 14.9 GiB (82%)
    • Title                                    : Ill.Be.Home.For.Christmas.1998.1080p.BluRay.REMUX.AVC.DTS-HD.MA.5.1-FGT
    • Language                                 : English
    • Default                                  : No
    • Forced                                   : No
    • Audio #1
    • ID                                       : 2
    • Format                                   : DTS XLL
    • Format/Info                              : Digital Theater Systems
    • Commercial name                          : DTS-HD Master Audio
    • Codec ID                                 : A_DTS
    • Duration                                 : 1 h 26 min
    • Bit rate mode                            : Variable
    • Bit rate                                 : 3 800 kb/s
    • Channel(s)                               : 6 channels
    • Channel layout                           : C L R Ls Rs LFE
    • Sampling rate                            : 48.0 kHz
    • Frame rate                               : 93.750 FPS (512 SPF)
    • Bit depth                                : 24 bits
    • Compression mode                         : Lossless
    • Stream size                              : 2.29 GiB (13%)
    • Title                                    : Ill.Be.Home.For.Christmas.1998.1080p.BluRay.REMUX.AVC.DTS-HD.MA.5.1-FGT
    • Language                                 : English
    • Default                                  : Yes
    • Forced                                   : No
    • Audio #2
    • ID                                       : 3
    • Format                                   : DTS
    • Format/Info                              : Digital Theater Systems
    • Codec ID                                 : A_DTS
    • Duration                                 : 1 h 26 min
    • Bit rate mode                            : Constant
    • Bit rate                                 : 1 509 kb/s
    • Channel(s)                               : 6 channels
    • Channel layout                           : C L R Ls Rs LFE
    • Sampling rate                            : 48.0 kHz
    • Frame rate                               : 93.750 FPS (512 SPF)
    • Bit depth                                : 24 bits
    • Compression mode                         : Lossy
    • Stream size                              : 931 MiB (5%)
    • Title                                    : Ill.Be.Home.For.Christmas.1998.1080p.BluRay.REMUX.AVC.DTS-HD.MA.5.1-FGT
    • Language                                 : English
    • Default                                  : No
    • Forced                                   : No
    • Text
    • ID                                       : 4
    • Format                                   : PGS
    • Muxing mode                              : zlib
    • Codec ID                                 : S_HDMV/PGS
    • Codec ID/Info                            : Picture based subtitle format used on BDs/HD-DVDs
    • Duration                                 : 1 h 25 min
    • Bit rate                                 : 90.6 kb/s
    • Count of elements                        : 2858
    • Stream size                              : 55.7 MiB (0%)
    • Title                                    : English-PGS
    • Language                                 : English
    • Default                                  : Yes
    • Forced                                   : No
    • Menu
    • 00:00:00.000                             : en:Chapter 01
    • 00:04:32.647                             : en:Chapter 02
    • 00:08:46.651                             : en:Chapter 03
    • 00:13:49.703                             : en:Chapter 04
    • 00:18:26.105                             : en:Chapter 05
    • 00:24:51.740                             : en:Chapter 06
    • 00:32:05.715                             : en:Chapter 07
    • 00:38:53.247                             : en:Chapter 08
    • 00:48:27.696                             : en:Chapter 09
    • 00:52:02.410                             : en:Chapter 10
    • 01:01:02.867                             : en:Chapter 11
    • 01:08:40.616                             : en:Chapter 12
    • 01:10:38.776                             : en:Chapter 13
    • 01:12:13.912                             : en:Chapter 14
    • 01:15:09.421                             : en:Chapter 15
    • 01:20:20.816                             : en:Chapter 16
    • 01:21:43.690                             : en:Chapter 17

    复制代码

    一路闯关过圣诞 Ill.Be.Home.For.Christmas.1998.1080p.BluRay.REMUX.AVC.DTS-HD.MA.5.1-FGT 18.11GB-3.png 一路闯关过圣诞 Ill.Be.Home.For.Christmas.1998.1080p.BluRay.REMUX.AVC.DTS-HD.MA.5.1-FGT 18.11GB-4.png 一路闯关过圣诞 Ill.Be.Home.For.Christmas.1998.1080p.BluRay.REMUX.AVC.DTS-HD.MA.5.1-FGT 18.11GB-5.png





    Ill.Be.Home.For.Christmas.1998.1080p.BluRay.REMUX.AVC.DTS-HD.MA.5.1-FGT.torrent (91.13 KB, 下载次数: 0)
    开通VIP免费下载本站所有资源---点这里
    新手必看:资源下载、资源播放、字幕使用、等常见问题---点这里
    回复

    使用道具 举报

  • TA的每日心情
    开心
    2 小时前
  • 签到天数: 29 天

    [LV.4]偶尔看看III

    发表于 2018-12-7 21:06:07 | 显示全部楼层
    楼主太厉害了
    开通VIP免费下载本站所有资源---点这里
    新手必看:资源下载、资源播放、字幕使用、等常见问题---点这里
    回复 支持 反对

    使用道具 举报

  • TA的每日心情
    开心
    2018-12-8 05:43
  • 签到天数: 8 天

    [LV.3]偶尔看看II

     成长值: 220

    发表于 2018-12-8 05:47:41 | 显示全部楼层
    楼主发贴辛苦了,谢谢楼主分享!我觉得蓝光电影网是注册对了!
    开通VIP免费下载本站所有资源---点这里
    新手必看:资源下载、资源播放、字幕使用、等常见问题---点这里
    回复 支持 反对

    使用道具 举报

    懒得打字嘛,点击右侧快捷回复 【右侧内容,后台自定义】
    您需要登录后才可以回帖 登录 | 立即加入

    本版积分规则

    现在加入蓝光电影网,注册一个账号

    QQ| 手机版|小黑屋| 蓝光电影网 |网站地图

    Copyright © 20013-2018 Comsenz Inc.  Template by 蓝光电影论坛 All Rights Reserved.

    Powered by 高清电影网 X3.4
    特别声明:本站所有资源均由网上收集而来,版权归原影音公司所有,如果侵犯了你的权益,请通知我们,我们会及时删除侵权内容.

    快速回复 返回顶部 返回列表