找回密码

蓝光电影网

查看: 302|回复: 20

狮子王/狮子王3D The.Lion.King.1994.2160p.BluRay.x264.8bit.SDR.DTS-HD.MA.TrueHD.7.1.Atmos-SWTYBLZ 18.78GB

[复制链接]
  • TA的每日心情
    开心
    14 小时前
  • 签到天数: 26 天

    [LV.4]偶尔看看III

     成长值: 18160

    发表于 2018-12-3 09:55:25 | 显示全部楼层 |阅读模式

    马上注册,获取最新影视资讯,享用更多功能,让你轻松玩转蓝光电影网。

    您需要 登录 才可以下载或查看,没有帐号?立即加入

    x

    狮子王/狮子王3D The.Lion.King.1994.2160p.BluRay.x264.8bit.SDR.DTS-HD.MA.TrueHD.7.1.Atmos-SWTYBLZ 18.78GB-1.jpg
    ◎译  名 狮子王 / 狮子王3D
    ◎片  名 狮子王 The Lion King
    ◎年  代 1994
    ◎国  家 美国
    ◎类  别 剧情 / 动画 / 歌舞 / 家庭 / 冒险
    ◎语  言 英语 / 斯瓦希里语 / 科萨语 / 祖鲁语
    ◎上映日期 1995-07-15(中国大陆) / 1994-06-15(美国) / 2011-09-16(美国)
    ◎IMDb评分  8.5/10 from 798,369 users
    ◎IMDb链接  http://www.imdb.com/title/tt0110357/
    ◎豆瓣评分 8.9/10 from 354536 users
    ◎豆瓣链接 https://movie.douban.com/subject/1301753/
    ◎片  长 89 分钟
    ◎导  演 罗杰·阿勒斯 / 罗伯·明可夫
    ◎主  演 乔纳森·泰勒·托马斯
          马修·布罗德里克
          杰瑞米·艾恩斯
          詹姆斯·厄尔·琼斯
          莫伊拉·凯利
          内森·连恩
          尼基塔·卡兰姆
          厄尼·萨贝拉
          乌比·戈德堡
          罗温·艾金森

    ◎简  介 

      辛巴是狮子王国的小王子,他的父亲穆法沙是一个威严的国王。然而叔叔刀疤却对穆法沙的王位觊觎已久。
      要想坐上王位宝座,刀疤必须除去小王子。于是,刀疤利用种种借口让辛巴外出,然后伺机大开杀戒,无奈被穆法沙即时来救。在反复的算计下,穆法沙惨死在刀疤手下,刀疤别有用心的劝辛巴离开,一方面派人将他赶尽杀绝。
      辛巴逃亡中遇到了机智的丁满和善良的彭彭,他们抚养辛巴长成雄壮的大狮子,鼓励他回去森林复国。在接下来一场复国救民的斗争中,辛巴真正长成一个坚强的男子汉,领会了责任的真谛。

    ◎获奖情况 

      第67届奥斯卡金像奖 (1995)
      最佳原创配乐 汉斯·季默
      最佳原创歌曲 埃尔顿·约翰 /  蒂姆·赖斯
      最佳原创歌曲(提名) 埃尔顿·约翰 /  蒂姆·赖斯

      第48届英国电影学院奖 (1995)
      电影奖 最佳原创音乐(提名) 汉斯·季默
      电影奖 最佳音效(提名) David Hudson /  Doc Kane /  Mel Metcalfe /  特里·波特

      第22届动画安妮奖 (1994)
      最佳动画长片
      最佳编剧 布兰达?查普曼
      最佳配音 杰瑞米·艾恩斯
      最佳艺术指导(提名) Andy Gaskill /  马克·亨 /  Scott F. Johnston

    • Video
    • ID                                       : 1
    • Format                                   : AVC
    • Format/Info                              : Advanced Video Codec
    • Format profile                           : [email protected]
    • Format settings                          : CABAC / 5 Ref Frames
    • Format settings, CABAC                   : Yes
    • Format settings, RefFrames               : 5 frames
    • Codec ID                                 : V_MPEG4/ISO/AVC
    • Duration                                 : 1 h 28 min
    • Bit rate                                 : 16.3 Mb/s
    • Width                                    : 3 840 pixels
    • Height                                   : 2 160 pixels
    • Display aspect ratio                     : 16:9
    • Frame rate mode                          : Constant
    • Frame rate                               : 23.976 (24000/1001) FPS
    • Color space                              : YUV
    • Chroma subsampling                       : 4:2:0
    • Bit depth                                : 8 bits
    • Scan type                                : Progressive
    • Bits/(Pixel*Frame)                       : 0.082
    • Stream size                              : 10.1 GiB (54%)
    • Title                                    : The.Lion.King.1994.2160p.BluRay.x264.8bit.SDR.DTS-HD.MA.TrueHD.7.1.Atmos-SWTYBLZ
    • Writing library                          : x264 core 157 r2935 545de2f
    • Encoding settings                        : cabac=1 / ref=5 / deblock=1:1:1 / analyse=0x3:0x113 / me=umh / subme=10 / psy=1 / psy_rd=0.40:0.00 / mixed_ref=1 / me_range=48 / chroma_me=1 / trellis=2 / 8x8dct=1 / cqm=0 / deadzone=21,11 / fast_pskip=1 / chroma_qp_offset=-2 / threads=48 / lookahead_threads=5 / sliced_threads=0 / nr=0 / decimate=0 / interlaced=0 / bluray_compat=0 / constrained_intra=0 / bframes=5 / b_pyramid=2 / b_adapt=2 / b_bias=0 / direct=3 / weightb=1 / open_gop=0 / weightp=2 / keyint=250 / keyint_min=23 / scenecut=40 / intra_refresh=0 / rc_lookahead=50 / rc=crf / mbtree=1 / crf=16.0 / qcomp=0.60 / qpmin=0 / qpmax=69 / qpstep=4 / ip_ratio=1.40 / aq=1:0.60
    • Default                                  : Yes
    • Forced                                   : No
    • Audio #1
    • ID                                       : 2
    • Format                                   : MLP FBA 16-ch
    • Format/Info                              : Meridian Lossless Packing FBA with 16-channel presentation
    • Commercial name                          : Dolby TrueHD with Dolby Atmos
    • Codec ID                                 : A_TRUEHD
    • Duration                                 : 1 h 28 min
    • Bit rate mode                            : Variable
    • Bit rate                                 : 8 910 kb/s
    • Maximum bit rate                         : 11.8 Mb/s
    • Channel(s)                               : 8 channels
    • Channel layout                           : L R C LFE Ls Rs Lb Rb
    • Sampling rate                            : 48.0 kHz
    • Frame rate                               : 1 200.000 FPS (40 SPF)
    • Compression mode                         : Lossless
    • Stream size                              : 5.50 GiB (29%)
    • Title                                    : The.Lion.King.1994.2160p.BluRay.x264.8bit.SDR.DTS-HD.MA.TrueHD.7.1.Atmos-SWTYBLZ
    • Language                                 : English
    • Default                                  : Yes
    • Forced                                   : No
    • Number of dynamic objects                : 13
    • Bed channel count                        : 1 channel
    • Bed channel configuration                : LFE
    • Audio #2
    • ID                                       : 3
    • Format                                   : DTS XLL
    • Format/Info                              : Digital Theater Systems
    • Commercial name                          : DTS-HD Master Audio
    • Codec ID                                 : A_DTS
    • Duration                                 : 1 h 28 min
    • Bit rate mode                            : Variable
    • Bit rate                                 : 4 283 kb/s
    • Channel(s)                               : 8 channels
    • Channel layout                           : C L R LFE Lb Rb Lss Rss
    • Sampling rate                            : 48.0 kHz
    • Frame rate                               : 93.750 FPS (512 SPF)
    • Bit depth                                : 24 bits
    • Compression mode                         : Lossless
    • Stream size                              : 2.64 GiB (14%)
    • Title                                    : The.Lion.King.1994.2160p.BluRay.x264.8bit.SDR.DTS-HD.MA.TrueHD.7.1.Atmos-SWTYBLZ
    • Language                                 : English
    • Default                                  : No
    • Forced                                   : No
    • Audio #3
    • ID                                       : 4
    • Format                                   : AC-3
    • Format/Info                              : Audio Coding 3
    • Commercial name                          : Dolby Digital
    • Codec ID                                 : A_AC3
    • Duration                                 : 1 h 28 min
    • Bit rate mode                            : Constant
    • Bit rate                                 : 640 kb/s
    • Channel(s)                               : 6 channels
    • Channel layout                           : L R C LFE Ls Rs
    • Sampling rate                            : 48.0 kHz
    • Frame rate                               : 31.250 FPS (1536 SPF)
    • Bit depth                                : 16 bits
    • Compression mode                         : Lossy
    • Stream size                              : 405 MiB (2%)
    • Title                                    : The.Lion.King.1994.2160p.BluRay.x264.8bit.SDR.DTS-HD.MA.TrueHD.7.1.Atmos-SWTYBLZ
    • Language                                 : English
    • Service kind                             : Complete Main
    • Default                                  : No
    • Forced                                   : No
    • Text #1
    • ID                                       : 5
    • Format                                   : UTF-8
    • Codec ID                                 : S_TEXT/UTF8
    • Codec ID/Info                            : UTF-8 Plain Text
    • Duration                                 : 1 h 27 min
    • Bit rate                                 : 56 b/s
    • Count of elements                        : 1256
    • Stream size                              : 35.8 KiB (0%)
    • Title                                    : English-SRT
    • Language                                 : English
    • Default                                  : Yes
    • Forced                                   : No
    • Text #2
    • ID                                       : 6
    • Format                                   : PGS
    • Muxing mode                              : zlib
    • Codec ID                                 : S_HDMV/PGS
    • Codec ID/Info                            : Picture based subtitle format used on BDs/HD-DVDs
    • Duration                                 : 1 h 27 min
    • Bit rate                                 : 38.1 kb/s
    • Count of elements                        : 2660
    • Stream size                              : 23.8 MiB (0%)
    • Title                                    : English-PGS
    • Language                                 : English
    • Default                                  : No
    • Forced                                   : No
    • Text #3
    • ID                                       : 7
    • Format                                   : PGS
    • Muxing mode                              : zlib
    • Codec ID                                 : S_HDMV/PGS
    • Codec ID/Info                            : Picture based subtitle format used on BDs/HD-DVDs
    • Duration                                 : 1 h 26 min
    • Bit rate                                 : 32.4 kb/s
    • Count of elements                        : 2244
    • Stream size                              : 20.1 MiB (0%)
    • Title                                    : French-PGS
    • Language                                 : French
    • Default                                  : No
    • Forced                                   : No
    • Text #4
    • ID                                       : 8
    • Format                                   : PGS
    • Muxing mode                              : zlib
    • Codec ID                                 : S_HDMV/PGS
    • Codec ID/Info                            : Picture based subtitle format used on BDs/HD-DVDs
    • Duration                                 : 1 h 26 min
    • Bit rate                                 : 30.5 kb/s
    • Count of elements                        : 2238
    • Stream size                              : 18.9 MiB (0%)
    • Title                                    : Spanish-PGS
    • Language                                 : Spanish
    • Default                                  : No
    • Forced                                   : No
    • Text #5
    • ID                                       : 9
    • Format                                   : PGS
    • Muxing mode                              : zlib
    • Codec ID                                 : S_HDMV/PGS
    • Codec ID/Info                            : Picture based subtitle format used on BDs/HD-DVDs
    • Duration                                 : 1 h 21 min
    • Bit rate                                 : 40.7 kb/s
    • Count of elements                        : 2312
    • Stream size                              : 23.8 MiB (0%)
    • Title                                    : German-PGS
    • Language                                 : German
    • Default                                  : No
    • Forced                                   : No
    • Text #6
    • ID                                       : 10
    • Format                                   : PGS
    • Muxing mode                              : zlib
    • Codec ID                                 : S_HDMV/PGS
    • Codec ID/Info                            : Picture based subtitle format used on BDs/HD-DVDs
    • Duration                                 : 1 h 20 min
    • Bit rate                                 : 27.1 kb/s
    • Count of elements                        : 1996
    • Stream size                              : 15.7 MiB (0%)
    • Title                                    : Japanese-PGS
    • Language                                 : Japanese
    • Default                                  : No
    • Forced                                   : No
    • Text #7
    • ID                                       : 11
    • Format                                   : PGS
    • Muxing mode                              : zlib
    • Codec ID                                 : S_HDMV/PGS
    • Codec ID/Info                            : Picture based subtitle format used on BDs/HD-DVDs
    • Duration                                 : 1 h 26 min
    • Bit rate                                 : 18.2 kb/s
    • Count of elements                        : 2270
    • Stream size                              : 11.3 MiB (0%)
    • Title                                    : Korean-PGS
    • Language                                 : Korean
    • Default                                  : No
    • Forced                                   : No
    • Text #8
    • ID                                       : 12
    • Format                                   : PGS
    • Muxing mode                              : zlib
    • Codec ID                                 : S_HDMV/PGS
    • Codec ID/Info                            : Picture based subtitle format used on BDs/HD-DVDs
    • Duration                                 : 1 h 26 min
    • Bit rate                                 : 24.0 kb/s
    • Count of elements                        : 2288
    • Stream size                              : 14.8 MiB (0%)
    • Title                                    : Chinese-PGS
    • Language                                 : Chinese
    • Default                                  : No
    • Forced                                   : No
    • Text #9
    • ID                                       : 13
    • Format                                   : PGS
    • Muxing mode                              : zlib
    • Codec ID                                 : S_HDMV/PGS
    • Codec ID/Info                            : Picture based subtitle format used on BDs/HD-DVDs
    • Duration                                 : 1 h 26 min
    • Bit rate                                 : 25.5 kb/s
    • Count of elements                        : 1988
    • Stream size                              : 15.8 MiB (0%)
    • Title                                    : Chinese-PGS
    • Language                                 : Chinese
    • Default                                  : No
    • Forced                                   : No
    • Menu
    • 00:00:00.000                             : :Chapter 1
    • 00:04:40.071                             : :Chapter 2
    • 00:08:10.406                             : :Chapter 3
    • 00:11:28.979                             : :Chapter 4
    • 00:14:09.557                             : :Chapter 5
    • 00:17:51.028                             : :Chapter 6
    • 00:22:54.748                             : :Chapter 7
    • 00:25:36.117                             : :Chapter 8
    • 00:30:24.197                             : :Chapter 9
    • 00:35:52.150                             : :Chapter 10
    • 00:40:14.078                             : :Chapter 11
    • 00:41:14.430                             : :Chapter 12
    • 00:44:16.945                             : :Chapter 13
    • 00:48:20.564                             : :Chapter 14
    • 00:50:07.212                             : :Chapter 15
    • 00:53:14.774                             : :Chapter 16
    • 00:57:50.842                             : :Chapter 17
    • 01:00:56.569                             : :Chapter 18
    • 01:02:32.331                             : :Chapter 19
    • 01:08:49.625                             : :Chapter 20
    • 01:12:41.023                             : :Chapter 21
    • 01:16:42.306                             : :Chapter 22
    • 01:20:45.131                             : :Chapter 23
    • 01:23:23.873                             : :Chapter 24

    复制代码

    狮子王/狮子王3D The.Lion.King.1994.2160p.BluRay.x264.8bit.SDR.DTS-HD.MA.TrueHD.7.1.Atmos-SWTYBLZ 18.78GB-2.png 狮子王/狮子王3D The.Lion.King.1994.2160p.BluRay.x264.8bit.SDR.DTS-HD.MA.TrueHD.7.1.Atmos-SWTYBLZ 18.78GB-3.png 狮子王/狮子王3D The.Lion.King.1994.2160p.BluRay.x264.8bit.SDR.DTS-HD.MA.TrueHD.7.1.Atmos-SWTYBLZ 18.78GB-4.png 狮子王/狮子王3D The.Lion.King.1994.2160p.BluRay.x264.8bit.SDR.DTS-HD.MA.TrueHD.7.1.Atmos-SWTYBLZ 18.78GB-5.png 狮子王/狮子王3D The.Lion.King.1994.2160p.BluRay.x264.8bit.SDR.DTS-HD.MA.TrueHD.7.1.Atmos-SWTYBLZ 18.78GB-6.png 狮子王/狮子王3D The.Lion.King.1994.2160p.BluRay.x264.8bit.SDR.DTS-HD.MA.TrueHD.7.1.Atmos-SWTYBLZ 18.78GB-7.png





    The.Lion.King.1994.2160p.BluRay.x264.8bit.SDR.DTS-HD.MA.TrueHD.7.1.Atmos-SWTYBLZ.torrent (94.54 KB, 下载次数: 13)
    开通VIP免费下载本站所有资源---点这里
    新手必看:资源下载、资源播放、字幕使用、等常见问题---点这里
    回复

    使用道具 举报

  • TA的每日心情
    开心
    2 小时前
  • 签到天数: 29 天

    [LV.4]偶尔看看III

    发表于 2018-12-3 12:21:36 | 显示全部楼层
    楼主太厉害了
    开通VIP免费下载本站所有资源---点这里
    新手必看:资源下载、资源播放、字幕使用、等常见问题---点这里
    回复 支持 反对

    使用道具 举报

  • TA的每日心情
    开心
    昨天 20:52
  • 签到天数: 10 天

    [LV.3]偶尔看看II

     成长值: 4045

    发表于 2018-12-3 13:13:01 | 显示全部楼层
    楼主太厉害了
    开通VIP免费下载本站所有资源---点这里
    新手必看:资源下载、资源播放、字幕使用、等常见问题---点这里
    回复 支持 反对

    使用道具 举报

  • TA的每日心情
    慵懒
    昨天 20:06
  • 签到天数: 18 天

    [LV.4]偶尔看看III

    发表于 2018-12-3 16:04:27 | 显示全部楼层

    楼主太厉害了!楼主,电影应该很好看我觉得蓝光电影网真是个好地方!
    开通VIP免费下载本站所有资源---点这里
    新手必看:资源下载、资源播放、字幕使用、等常见问题---点这里
    回复 支持 反对

    使用道具 举报

  • TA的每日心情
    开心
    2 小时前
  • 签到天数: 29 天

    [LV.4]偶尔看看III

    发表于 2018-12-3 16:10:38 | 显示全部楼层
    楼主太厉害了
    [发帖际遇]: chuchan 乐于助人,奖励 1 蓝光币. 幸运榜 / 衰神榜
    开通VIP免费下载本站所有资源---点这里
    新手必看:资源下载、资源播放、字幕使用、等常见问题---点这里
    回复 支持 反对

    使用道具 举报

  • TA的每日心情
    开心
    5 天前
  • 签到天数: 7 天

    [LV.3]偶尔看看II

    发表于 2018-12-3 21:01:58 | 显示全部楼层
    谢谢分享,欣赏欣赏
    开通VIP免费下载本站所有资源---点这里
    新手必看:资源下载、资源播放、字幕使用、等常见问题---点这里
    回复 支持 反对

    使用道具 举报

  • TA的每日心情

    昨天 08:53
  • 签到天数: 27 天

    [LV.4]偶尔看看III

    发表于 2018-12-4 06:49:03 | 显示全部楼层

    这个帖子不回对不起自己!我想我是一天也不能离开蓝光电影网
    开通VIP免费下载本站所有资源---点这里
    新手必看:资源下载、资源播放、字幕使用、等常见问题---点这里
    回复 支持 反对

    使用道具 举报

  • TA的每日心情
    无聊
    5 小时前
  • 签到天数: 27 天

    [LV.4]偶尔看看III

    发表于 2018-12-4 07:22:15 | 显示全部楼层
    好好好好好好好好好好好好好好好好好好好
    [发帖际遇]: qq_古雅情韵_z8Y 乐于助人,奖励 2 蓝光币. 幸运榜 / 衰神榜
    开通VIP免费下载本站所有资源---点这里
    新手必看:资源下载、资源播放、字幕使用、等常见问题---点这里
    回复 支持 反对

    使用道具 举报

  • TA的每日心情
    开心
    2 小时前
  • 签到天数: 29 天

    [LV.4]偶尔看看III

    发表于 2018-12-4 09:00:15 | 显示全部楼层

    这个帖子不回对不起自己!我想我是一天也不能离开蓝光电影网
    开通VIP免费下载本站所有资源---点这里
    新手必看:资源下载、资源播放、字幕使用、等常见问题---点这里
    回复 支持 反对

    使用道具 举报

  • TA的每日心情
    奋斗
    5 小时前
  • 签到天数: 29 天

    [LV.4]偶尔看看III

    发表于 2018-12-5 08:46:45 | 显示全部楼层
    谢谢楼主分享!
    [发帖际遇]: zc0130007 乐于助人,奖励 1 蓝光币. 幸运榜 / 衰神榜
    开通VIP免费下载本站所有资源---点这里
    新手必看:资源下载、资源播放、字幕使用、等常见问题---点这里
    回复 支持 反对

    使用道具 举报

    懒得打字嘛,点击右侧快捷回复 【右侧内容,后台自定义】
    您需要登录后才可以回帖 登录 | 立即加入

    本版积分规则

    现在加入蓝光电影网,注册一个账号

    QQ| 手机版|小黑屋| 蓝光电影网 |网站地图

    Copyright © 20013-2018 Comsenz Inc.  Template by 蓝光电影论坛 All Rights Reserved.

    Powered by 高清电影网 X3.4
    特别声明:本站所有资源均由网上收集而来,版权归原影音公司所有,如果侵犯了你的权益,请通知我们,我们会及时删除侵权内容.

    快速回复 返回顶部 返回列表