找回密码

蓝光电影网

查看: 2577|回复: 112

[8bit.SDR] 费城故事/费城 Philadelphia.1993.2160p.BluRay.x264.8bit.SDR.DTS-HD.MA.TrueHD.7.1.Atmos-SWTYBLZ 48.15GB

  [复制链接]

 成长值: 21430

发表于 2018-11-27 09:29:19 | 显示全部楼层 |阅读模式
费城故事/费城 Philadelphia.1993.2160p.BluRay.x264.8bit.SDR.DTS-HD.MA.TrueHD.7.1.Atmos-SWTYBLZ 48.15GB-1.jpg
◎译  名 费城故事 / 费城
◎片  名 费城故事 Philadelphia
◎年  代 1993
◎国  家 美国
◎类  别 剧情 / 同性
◎语  言 英语
◎上映日期 1993-12-22(美国)
◎IMDb评分  7.7/10 from 201,438 users
◎IMDb链接  http://www.imdb.com/title/tt0107818/
◎豆瓣评分 8.6/10 from 64762 users
◎豆瓣链接 https://movie.douban.com/subject/1293145/
◎片  长 125分钟
◎导  演 乔纳森·戴米
◎主  演 汤姆·汉克斯
      丹泽尔·华盛顿
      安东尼奥·班德拉斯
      乔安娜·伍德沃德
      罗伯塔·马克斯韦尔
      玛丽·斯汀伯根
      安·唐德
      莉萨·萨默乌
      查尔斯·纳佩尔
      杰森·罗巴兹
      巴兹·基尔曼
      卡伦·芬利
      罗伯特·雷吉利
      布莱德利·惠特福德
      罗恩·沃特
      安娜·迪佛·史密斯
      崔西·沃特
      朱利叶斯·欧文
      爱德华·伦德尔
      钱德拉·威尔森
      大卫·德雷克
      罗杰·科曼
      罗伯特·W·卡斯尔

◎简  介 

  安德鲁(汤姆?汉克斯 Tom Hanks 饰)和米勒(丹泽尔?华盛顿 Denzel Washington 饰)认识于法庭上,两人都是年轻有为的律师,各为其主。然而,年轻的安德鲁不久后因为同性恋和身染艾滋病被老板发现,以莫须有理由解雇了。
  遭解雇后的安德鲁四处寻找律师为他讨回公道。当安德鲁找到米勒时,米勒一开始拒绝了他。因为米勒像普通人一样憎恨同性恋和惧怕艾滋病,但当他看到安德鲁在图书馆搜索“艾滋病歧视”时遭到管理员的白眼,听着妻子缓慢而平静地说出他们的姨妈、朋友有很多也是同性恋时,他决定受理安德鲁的案件。
  在最后的法庭上,病危的安德鲁毅然出庭……

◎获奖情况 

  第66届奥斯卡金像奖 (1994)
  最佳男主角 汤姆·汉克斯
  最佳原创剧本(提名) 罗恩·内斯万尼尔
  最佳化妆(提名) Carl Fullerton /  Alan D'Angerio
  最佳原创歌曲 布鲁斯·斯普林斯汀
  最佳原创歌曲(提名) 尼尔·杨

  第44届柏林国际电影节 (1994)
  金熊奖 最佳影片(提名) 乔纳森·戴米
  银熊奖 最佳男演员 汤姆·汉克斯

  第48届英国电影学院奖 (1995)
  电影奖 最佳原创剧本(提名) 罗恩·内斯万尼尔


  1. Video
  2. ID                                       : 1
  3. Format                                   : AVC
  4. Format/Info                              : Advanced Video Codec
  5. Format profile                           : [url=/cdn-cgi/l/email-protection][email protected][/url]
  6. Format settings                          : CABAC / 5 Ref Frames
  7. Format settings, CABAC                   : Yes
  8. Format settings, RefFrames               : 5 frames
  9. Codec ID                                 : V_MPEG4/ISO/AVC
  10. Duration                                 : 2 h 5 min
  11. Bit rate                                 : 46.1 Mb/s
  12. Width                                    : 3 840 pixels
  13. Height                                   : 2 076 pixels
  14. Display aspect ratio                     : 1.85:1
  15. Frame rate mode                          : Constant
  16. Frame rate                               : 23.976 (24000/1001) FPS
  17. Color space                              : YUV
  18. Chroma subsampling                       : 4:2:0
  19. Bit depth                                : 8 bits
  20. Scan type                                : Progressive
  21. Bits/(Pixel*Frame)                       : 0.241
  22. Stream size                              : 40.4 GiB (84%)
  23. Title                                    : Philadelphia.1993.2160p.BluRay.x264.8bit.SDR.DTS-HD.MA.TrueHD.7.1.Atmos-SWTYBLZ
  24. Writing library                          : x264 core 157 r2935 545de2f
  25. Encoding settings                        : cabac=1 / ref=5 / deblock=1:-1:-1 / analyse=0x3:0x113 / me=umh / subme=10 / psy=1 / psy_rd=1.00:0.15 / mixed_ref=1 / me_range=48 / chroma_me=1 / trellis=2 / 8x8dct=1 / cqm=0 / deadzone=21,11 / fast_pskip=1 / chroma_qp_offset=-3 / threads=65 / lookahead_threads=5 / sliced_threads=0 / nr=0 / decimate=0 / interlaced=0 / bluray_compat=0 / constrained_intra=0 / bframes=3 / b_pyramid=2 / b_adapt=2 / b_bias=0 / direct=3 / weightb=1 / open_gop=0 / weightp=2 / keyint=250 / keyint_min=23 / scenecut=40 / intra_refresh=0 / rc_lookahead=50 / rc=crf / mbtree=1 / crf=22.0 / qcomp=0.60 / qpmin=0 / qpmax=69 / qpstep=4 / ip_ratio=1.40 / aq=1:1.00
  26. Default                                  : Yes
  27. Forced                                   : No

  28. Audio #1
  29. ID                                       : 2
  30. Format                                   : MLP FBA 16-ch
  31. Format/Info                              : Meridian Lossless Packing FBA with 16-channel presentation
  32. Commercial name                          : Dolby TrueHD with Dolby Atmos
  33. Codec ID                                 : A_TRUEHD
  34. Duration                                 : 2 h 5 min
  35. Bit rate mode                            : Variable
  36. Bit rate                                 : 3 826 kb/s
  37. Maximum bit rate                         : 6 003 kb/s
  38. Channel(s)                               : 8 channels
  39. Channel layout                           : L R C LFE Ls Rs Lb Rb
  40. Sampling rate                            : 48.0 kHz
  41. Frame rate                               : 1 200.000 FPS (40 SPF)
  42. Compression mode                         : Lossless
  43. Stream size                              : 3.35 GiB (7%)
  44. Title                                    : Philadelphia.1993.2160p.BluRay.x264.8bit.SDR.DTS-HD.MA.TrueHD.7.1.Atmos-SWTYBLZ
  45. Language                                 : English
  46. Default                                  : Yes
  47. Forced                                   : No
  48. Number of dynamic objects                : 11
  49. Bed channel count                        : 1 channel
  50. Bed channel configuration                : LFE

  51. Audio #2
  52. ID                                       : 3
  53. Format                                   : DTS XLL
  54. Format/Info                              : Digital Theater Systems
  55. Commercial name                          : DTS-HD Master Audio
  56. Codec ID                                 : A_DTS
  57. Duration                                 : 2 h 5 min
  58. Bit rate mode                            : Variable
  59. Bit rate                                 : 3 706 kb/s
  60. Channel(s)                               : 8 channels
  61. Channel layout                           : C L R LFE Lb Rb Lss Rss
  62. Sampling rate                            : 48.0 kHz
  63. Frame rate                               : 93.750 FPS (512 SPF)
  64. Bit depth                                : 24 bits
  65. Compression mode                         : Lossless
  66. Stream size                              : 3.25 GiB (7%)
  67. Title                                    : Philadelphia.1993.2160p.BluRay.x264.8bit.SDR.DTS-HD.MA.TrueHD.7.1.Atmos-SWTYBLZ
  68. Language                                 : English
  69. Default                                  : No
  70. Forced                                   : No

  71. Audio #3
  72. ID                                       : 4
  73. Format                                   : AC-3
  74. Format/Info                              : Audio Coding 3
  75. Commercial name                          : Dolby Digital
  76. Codec ID                                 : A_AC3
  77. Duration                                 : 2 h 5 min
  78. Bit rate mode                            : Constant
  79. Bit rate                                 : 640 kb/s
  80. Channel(s)                               : 5 channels
  81. Channel layout                           : L R C Ls Rs
  82. Sampling rate                            : 48.0 kHz
  83. Frame rate                               : 31.250 FPS (1536 SPF)
  84. Bit depth                                : 16 bits
  85. Compression mode                         : Lossy
  86. Stream size                              : 574 MiB (1%)
  87. Title                                    : Philadelphia.1993.2160p.BluRay.x264.8bit.SDR.DTS-HD.MA.TrueHD.7.1.Atmos-SWTYBLZ
  88. Language                                 : English
  89. Service kind                             : Complete Main
  90. Default                                  : No
  91. Forced                                   : No

  92. Text #1
  93. ID                                       : 5
  94. Format                                   : UTF-8
  95. Codec ID                                 : S_TEXT/UTF8
  96. Codec ID/Info                            : UTF-8 Plain Text
  97. Duration                                 : 1 h 58 min
  98. Bit rate                                 : 67 b/s
  99. Count of elements                        : 1482
  100. Stream size                              : 59.0 KiB (0%)
  101. Title                                    : English-SRT
  102. Language                                 : English
  103. Default                                  : Yes
  104. Forced                                   : No

  105. Text #2
  106. ID                                       : 6
  107. Format                                   : UTF-8
  108. Codec ID                                 : S_TEXT/UTF8
  109. Codec ID/Info                            : UTF-8 Plain Text
  110. Duration                                 : 1 h 59 min
  111. Bit rate                                 : 71 b/s
  112. Count of elements                        : 1595
  113. Stream size                              : 62.1 KiB (0%)
  114. Title                                    : English-SDH-SRT
  115. Language                                 : English
  116. Default                                  : No
  117. Forced                                   : No

  118. Text #3
  119. ID                                       : 7
  120. Format                                   : PGS
  121. Muxing mode                              : zlib
  122. Codec ID                                 : S_HDMV/PGS
  123. Codec ID/Info                            : Picture based subtitle format used on BDs/HD-DVDs
  124. Duration                                 : 1 h 55 min
  125. Bit rate                                 : 32.4 kb/s
  126. Count of elements                        : 2377
  127. Stream size                              : 26.8 MiB (0%)
  128. Title                                    : English-PGS
  129. Language                                 : English
  130. Default                                  : No
  131. Forced                                   : No

  132. Text #4
  133. ID                                       : 8
  134. Format                                   : PGS
  135. Muxing mode                              : zlib
  136. Codec ID                                 : S_HDMV/PGS
  137. Codec ID/Info                            : Picture based subtitle format used on BDs/HD-DVDs
  138. Duration                                 : 1 h 59 min
  139. Bit rate                                 : 41.9 kb/s
  140. Count of elements                        : 3200
  141. Stream size                              : 35.8 MiB (0%)
  142. Title                                    : English-SDH-PGS
  143. Language                                 : English
  144. Default                                  : No
  145. Forced                                   : No

  146. Text #5
  147. ID                                       : 9
  148. Format                                   : PGS
  149. Muxing mode                              : zlib
  150. Codec ID                                 : S_HDMV/PGS
  151. Codec ID/Info                            : Picture based subtitle format used on BDs/HD-DVDs
  152. Duration                                 : 1 h 55 min
  153. Bit rate                                 : 32.5 kb/s
  154. Count of elements                        : 2378
  155. Stream size                              : 26.8 MiB (0%)
  156. Title                                    : English-PGS
  157. Language                                 : English
  158. Default                                  : No
  159. Forced                                   : No

  160. Text #6
  161. ID                                       : 10
  162. Format                                   : PGS
  163. Muxing mode                              : zlib
  164. Codec ID                                 : S_HDMV/PGS
  165. Codec ID/Info                            : Picture based subtitle format used on BDs/HD-DVDs
  166. Duration                                 : 1 h 59 min
  167. Bit rate                                 : 42.0 kb/s
  168. Count of elements                        : 3200
  169. Stream size                              : 35.9 MiB (0%)
  170. Title                                    : English-SDH-PGS
  171. Language                                 : English
  172. Default                                  : No
  173. Forced                                   : No

  174. Text #7
  175. ID                                       : 11
  176. Format                                   : PGS
  177. Muxing mode                              : zlib
  178. Codec ID                                 : S_HDMV/PGS
  179. Codec ID/Info                            : Picture based subtitle format used on BDs/HD-DVDs
  180. Duration                                 : 1 h 55 min
  181. Bit rate                                 : 17.5 kb/s
  182. Count of elements                        : 2334
  183. Stream size                              : 14.4 MiB (0%)
  184. Title                                    : Arabic-PGS
  185. Language                                 : Arabic
  186. Default                                  : No
  187. Forced                                   : No

  188. Text #8
  189. ID                                       : 12
  190. Format                                   : PGS
  191. Muxing mode                              : zlib
  192. Codec ID                                 : S_HDMV/PGS
  193. Codec ID/Info                            : Picture based subtitle format used on BDs/HD-DVDs
  194. Duration                                 : 1 h 55 min
  195. Bit rate                                 : 25.1 kb/s
  196. Count of elements                        : 2394
  197. Stream size                              : 20.7 MiB (0%)
  198. Title                                    : Chinese-PGS
  199. Language                                 : Chinese
  200. Default                                  : No
  201. Forced                                   : No

  202. Text #9
  203. ID                                       : 13
  204. Format                                   : PGS
  205. Muxing mode                              : zlib
  206. Codec ID                                 : S_HDMV/PGS
  207. Codec ID/Info                            : Picture based subtitle format used on BDs/HD-DVDs
  208. Duration                                 : 1 h 55 min
  209. Bit rate                                 : 24.5 kb/s
  210. Count of elements                        : 2394
  211. Stream size                              : 20.2 MiB (0%)
  212. Title                                    : Chinese-PGS
  213. Language                                 : Chinese
  214. Default                                  : No
  215. Forced                                   : No

  216. Text #10
  217. ID                                       : 14
  218. Format                                   : PGS
  219. Muxing mode                              : zlib
  220. Codec ID                                 : S_HDMV/PGS
  221. Codec ID/Info                            : Picture based subtitle format used on BDs/HD-DVDs
  222. Duration                                 : 1 h 55 min
  223. Bit rate                                 : 27.0 kb/s
  224. Count of elements                        : 2332
  225. Stream size                              : 22.2 MiB (0%)
  226. Title                                    : Czech-PGS
  227. Language                                 : Czech
  228. Default                                  : No
  229. Forced                                   : No

  230. Text #11
  231. ID                                       : 15
  232. Format                                   : PGS
  233. Muxing mode                              : zlib
  234. Codec ID                                 : S_HDMV/PGS
  235. Codec ID/Info                            : Picture based subtitle format used on BDs/HD-DVDs
  236. Duration                                 : 1 h 52 min
  237. Bit rate                                 : 26.1 kb/s
  238. Count of elements                        : 1849
  239. Stream size                              : 20.9 MiB (0%)
  240. Title                                    : Danish-PGS
  241. Language                                 : Danish
  242. Default                                  : No
  243. Forced                                   : No

  244. Text #12
  245. ID                                       : 16
  246. Format                                   : PGS
  247. Muxing mode                              : zlib
  248. Codec ID                                 : S_HDMV/PGS
  249. Codec ID/Info                            : Picture based subtitle format used on BDs/HD-DVDs
  250. Duration                                 : 2 h 1 min
  251. Bit rate                                 : 30.6 kb/s
  252. Count of elements                        : 2256
  253. Stream size                              : 26.7 MiB (0%)
  254. Title                                    : Dutch-PGS
  255. Language                                 : Dutch
  256. Default                                  : No
  257. Forced                                   : No

  258. Text #13
  259. ID                                       : 17
  260. Format                                   : PGS
  261. Muxing mode                              : zlib
  262. Codec ID                                 : S_HDMV/PGS
  263. Codec ID/Info                            : Picture based subtitle format used on BDs/HD-DVDs
  264. Duration                                 : 1 h 52 min
  265. Bit rate                                 : 26.3 kb/s
  266. Count of elements                        : 2016
  267. Stream size                              : 21.1 MiB (0%)
  268. Title                                    : Finnish-PGS
  269. Language                                 : Finnish
  270. Default                                  : No
  271. Forced                                   : No

  272. Text #14
  273. ID                                       : 18
  274. Format                                   : PGS
  275. Muxing mode                              : zlib
  276. Codec ID                                 : S_HDMV/PGS
  277. Codec ID/Info                            : Picture based subtitle format used on BDs/HD-DVDs
  278. Duration                                 : 2 h 1 min
  279. Bit rate                                 : 29.0 kb/s
  280. Count of elements                        : 2394
  281. Stream size                              : 25.3 MiB (0%)
  282. Title                                    : French-PGS
  283. Language                                 : French
  284. Default                                  : No
  285. Forced                                   : No

  286. Text #15
  287. ID                                       : 19
  288. Format                                   : PGS
  289. Muxing mode                              : zlib
  290. Codec ID                                 : S_HDMV/PGS
  291. Codec ID/Info                            : Picture based subtitle format used on BDs/HD-DVDs
  292. Duration                                 : 1 h 55 min
  293. Bit rate                                 : 35.9 kb/s
  294. Count of elements                        : 2338
  295. Stream size                              : 29.6 MiB (0%)
  296. Title                                    : German-PGS
  297. Language                                 : German
  298. Default                                  : No
  299. Forced                                   : No

  300. Text #16
  301. ID                                       : 20
  302. Format                                   : PGS
  303. Muxing mode                              : zlib
  304. Codec ID                                 : S_HDMV/PGS
  305. Codec ID/Info                            : Picture based subtitle format used on BDs/HD-DVDs
  306. Duration                                 : 1 h 56 min
  307. Bit rate                                 : 28.1 kb/s
  308. Count of elements                        : 2136
  309. Stream size                              : 23.3 MiB (0%)
  310. Title                                    : Greek-PGS
  311. Language                                 : Greek
  312. Default                                  : No
  313. Forced                                   : No

  314. Text #17
  315. ID                                       : 21
  316. Format                                   : PGS
  317. Muxing mode                              : zlib
  318. Codec ID                                 : S_HDMV/PGS
  319. Codec ID/Info                            : Picture based subtitle format used on BDs/HD-DVDs
  320. Duration                                 : 1 h 55 min
  321. Bit rate                                 : 30.9 kb/s
  322. Count of elements                        : 2338
  323. Stream size                              : 25.5 MiB (0%)
  324. Title                                    : Hungarian-PGS
  325. Language                                 : Hungarian
  326. Default                                  : No
  327. Forced                                   : No

  328. Text #18
  329. ID                                       : 22
  330. Format                                   : PGS
  331. Muxing mode                              : zlib
  332. Codec ID                                 : S_HDMV/PGS
  333. Codec ID/Info                            : Picture based subtitle format used on BDs/HD-DVDs
  334. Duration                                 : 1 h 55 min
  335. Bit rate                                 : 32.0 kb/s
  336. Count of elements                        : 2354
  337. Stream size                              : 26.4 MiB (0%)
  338. Title                                    : Italian-PGS
  339. Language                                 : Italian
  340. Default                                  : No
  341. Forced                                   : No

  342. Text #19
  343. ID                                       : 23
  344. Format                                   : PGS
  345. Muxing mode                              : zlib
  346. Codec ID                                 : S_HDMV/PGS
  347. Codec ID/Info                            : Picture based subtitle format used on BDs/HD-DVDs
  348. Duration                                 : 1 h 55 min
  349. Bit rate                                 : 26.3 kb/s
  350. Count of elements                        : 2750
  351. Stream size                              : 21.8 MiB (0%)
  352. Title                                    : Japanese-PGS
  353. Language                                 : Japanese
  354. Default                                  : No
  355. Forced                                   : No

  356. Text #20
  357. ID                                       : 24
  358. Format                                   : PGS
  359. Muxing mode                              : zlib
  360. Codec ID                                 : S_HDMV/PGS
  361. Codec ID/Info                            : Picture based subtitle format used on BDs/HD-DVDs
  362. Duration                                 : 2 h 4 min
  363. Bit rate                                 : 25.6 kb/s
  364. Count of elements                        : 2577
  365. Stream size                              : 22.8 MiB (0%)
  366. Title                                    : Korean-PGS
  367. Language                                 : Korean
  368. Default                                  : No
  369. Forced                                   : No

  370. Text #21
  371. ID                                       : 25
  372. Format                                   : PGS
  373. Muxing mode                              : zlib
  374. Codec ID                                 : S_HDMV/PGS
  375. Codec ID/Info                            : Picture based subtitle format used on BDs/HD-DVDs
  376. Duration                                 : 2 h 1 min
  377. Bit rate                                 : 24.2 kb/s
  378. Count of elements                        : 2017
  379. Stream size                              : 21.1 MiB (0%)
  380. Title                                    : Norwegian-PGS
  381. Language                                 : Norwegian
  382. Default                                  : No
  383. Forced                                   : No

  384. Text #22
  385. ID                                       : 26
  386. Format                                   : PGS
  387. Muxing mode                              : zlib
  388. Codec ID                                 : S_HDMV/PGS
  389. Codec ID/Info                            : Picture based subtitle format used on BDs/HD-DVDs
  390. Duration                                 : 2 h 1 min
  391. Bit rate                                 : 28.3 kb/s
  392. Count of elements                        : 2340
  393. Stream size                              : 24.7 MiB (0%)
  394. Title                                    : Polish-PGS
  395. Language                                 : Polish
  396. Default                                  : No
  397. Forced                                   : No

  398. Text #23
  399. ID                                       : 27
  400. Format                                   : PGS
  401. Muxing mode                              : zlib
  402. Codec ID                                 : S_HDMV/PGS
  403. Codec ID/Info                            : Picture based subtitle format used on BDs/HD-DVDs
  404. Duration                                 : 1 h 58 min
  405. Bit rate                                 : 31.5 kb/s
  406. Count of elements                        : 2354
  407. Stream size                              : 26.6 MiB (0%)
  408. Title                                    : Portuguese-pGS
  409. Language                                 : Portuguese
  410. Default                                  : No
  411. Forced                                   : No

  412. Text #24
  413. ID                                       : 28
  414. Format                                   : PGS
  415. Muxing mode                              : zlib
  416. Codec ID                                 : S_HDMV/PGS
  417. Codec ID/Info                            : Picture based subtitle format used on BDs/HD-DVDs
  418. Duration                                 : 2 h 1 min
  419. Bit rate                                 : 29.7 kb/s
  420. Count of elements                        : 2397
  421. Stream size                              : 25.9 MiB (0%)
  422. Title                                    : Romanian-PGS
  423. Language                                 : Romanian
  424. Default                                  : No
  425. Forced                                   : No

  426. Text #25
  427. ID                                       : 29
  428. Format                                   : PGS
  429. Muxing mode                              : zlib
  430. Codec ID                                 : S_HDMV/PGS
  431. Codec ID/Info                            : Picture based subtitle format used on BDs/HD-DVDs
  432. Duration                                 : 1 h 58 min
  433. Bit rate                                 : 27.3 kb/s
  434. Count of elements                        : 2029
  435. Stream size                              : 23.1 MiB (0%)
  436. Title                                    : Russian-PGS
  437. Language                                 : Russian
  438. Default                                  : No
  439. Forced                                   : No

  440. Text #26
  441. ID                                       : 30
  442. Format                                   : PGS
  443. Muxing mode                              : zlib
  444. Codec ID                                 : S_HDMV/PGS
  445. Codec ID/Info                            : Picture based subtitle format used on BDs/HD-DVDs
  446. Duration                                 : 1 h 55 min
  447. Bit rate                                 : 31.9 kb/s
  448. Count of elements                        : 2336
  449. Stream size                              : 26.3 MiB (0%)
  450. Title                                    : Spanish-PGS
  451. Language                                 : Spanish
  452. Default                                  : No
  453. Forced                                   : No

  454. Text #27
  455. ID                                       : 31
  456. Format                                   : PGS
  457. Muxing mode                              : zlib
  458. Codec ID                                 : S_HDMV/PGS
  459. Codec ID/Info                            : Picture based subtitle format used on BDs/HD-DVDs
  460. Duration                                 : 1 h 58 min
  461. Bit rate                                 : 31.9 kb/s
  462. Count of elements                        : 2873
  463. Stream size                              : 26.9 MiB (0%)
  464. Title                                    : Spanish-PGS
  465. Language                                 : Spanish
  466. Default                                  : No
  467. Forced                                   : No

  468. Text #28
  469. ID                                       : 32
  470. Format                                   : PGS
  471. Muxing mode                              : zlib
  472. Codec ID                                 : S_HDMV/PGS
  473. Codec ID/Info                            : Picture based subtitle format used on BDs/HD-DVDs
  474. Duration                                 : 2 h 1 min
  475. Bit rate                                 : 25.0 kb/s
  476. Count of elements                        : 2001
  477. Stream size                              : 21.8 MiB (0%)
  478. Title                                    : Swedish-PGS
  479. Language                                 : Swedish
  480. Default                                  : No
  481. Forced                                   : No

  482. Text #29
  483. ID                                       : 33
  484. Format                                   : PGS
  485. Muxing mode                              : zlib
  486. Codec ID                                 : S_HDMV/PGS
  487. Codec ID/Info                            : Picture based subtitle format used on BDs/HD-DVDs
  488. Duration                                 : 1 h 55 min
  489. Bit rate                                 : 31.8 kb/s
  490. Count of elements                        : 2394
  491. Stream size                              : 26.2 MiB (0%)
  492. Title                                    : Thai-PGS
  493. Language                                 : Thai
  494. Default                                  : No
  495. Forced                                   : No

  496. Text #30
  497. ID                                       : 34
  498. Format                                   : PGS
  499. Muxing mode                              : zlib
  500. Codec ID                                 : S_HDMV/PGS
  501. Codec ID/Info                            : Picture based subtitle format used on BDs/HD-DVDs
  502. Duration                                 : 1 h 55 min
  503. Bit rate                                 : 32.5 kb/s
  504. Count of elements                        : 2402
  505. Stream size                              : 26.8 MiB (0%)
  506. Title                                    : Turkish-pGS
  507. Language                                 : Turkish
  508. Default                                  : No
  509. Forced                                   : No

  510. Menu
  511. 00:00:00.000                             : :Chapter 1
  512. 00:05:42.091                             : :Chapter 2
  513. 00:13:43.280                             : :Chapter 3
  514. 00:24:50.989                             : :Chapter 4
  515. 00:32:43.169                             : :Chapter 5
  516. 00:39:50.846                             : :Chapter 6
  517. 00:46:06.346                             : :Chapter 7
  518. 00:55:22.569                             : :Chapter 8
  519. 01:01:07.580                             : :Chapter 9
  520. 01:07:20.953                             : :Chapter 10
  521. 01:16:01.139                             : :Chapter 11
  522. 01:26:39.527                             : :Chapter 12
  523. 01:36:53.682                             : :Chapter 13
  524. 01:44:12.371                             : :Chapter 14
  525. 01:47:53.592                             : :Chapter 15
  526. 01:55:40.558                             : :Chapter 16
复制代码

复制代码

费城故事/费城 Philadelphia.1993.2160p.BluRay.x264.8bit.SDR.DTS-HD.MA.TrueHD.7.1.Atmos-SWTYBLZ 48.15GB-2.png 费城故事/费城 Philadelphia.1993.2160p.BluRay.x264.8bit.SDR.DTS-HD.MA.TrueHD.7.1.Atmos-SWTYBLZ 48.15GB-3.png 费城故事/费城 Philadelphia.1993.2160p.BluRay.x264.8bit.SDR.DTS-HD.MA.TrueHD.7.1.Atmos-SWTYBLZ 48.15GB-4.png 费城故事/费城 Philadelphia.1993.2160p.BluRay.x264.8bit.SDR.DTS-HD.MA.TrueHD.7.1.Atmos-SWTYBLZ 48.15GB-5.png 费城故事/费城 Philadelphia.1993.2160p.BluRay.x264.8bit.SDR.DTS-HD.MA.TrueHD.7.1.Atmos-SWTYBLZ 48.15GB-6.png 费城故事/费城 Philadelphia.1993.2160p.BluRay.x264.8bit.SDR.DTS-HD.MA.TrueHD.7.1.Atmos-SWTYBLZ 48.15GB-7.png 费城故事/费城 Philadelphia.1993.2160p.BluRay.x264.8bit.SDR.DTS-HD.MA.TrueHD.7.1.Atmos-SWTYBLZ 48.15GB-8.png





开通VIP免费下载本站所有资源---点这里
新手必看:资源下载、资源播放、字幕使用、等常见问题---点这里
回复

使用道具 举报

发表于 2018-11-27 09:48:07 | 显示全部楼层
强烈支持楼主ing……
开通VIP免费下载本站所有资源---点这里
新手必看:资源下载、资源播放、字幕使用、等常见问题---点这里
回复 支持 反对

使用道具 举报

发表于 2018-11-27 09:59:54 | 显示全部楼层
我只是路过打酱油的。
开通VIP免费下载本站所有资源---点这里
新手必看:资源下载、资源播放、字幕使用、等常见问题---点这里
回复 支持 反对

使用道具 举报

发表于 2018-11-27 10:33:09 | 显示全部楼层
dddddddddddd
开通VIP免费下载本站所有资源---点这里
新手必看:资源下载、资源播放、字幕使用、等常见问题---点这里
回复 支持 反对

使用道具 举报

发表于 2018-11-27 11:05:09 | 显示全部楼层

强烈支持楼主
开通VIP免费下载本站所有资源---点这里
新手必看:资源下载、资源播放、字幕使用、等常见问题---点这里
回复 支持 反对

使用道具 举报

发表于 2018-11-27 12:45:18 | 显示全部楼层
我只是路过打酱油的。
开通VIP免费下载本站所有资源---点这里
新手必看:资源下载、资源播放、字幕使用、等常见问题---点这里
回复 支持 反对

使用道具 举报

发表于 2018-11-27 13:24:03 | 显示全部楼层
我只是路过打酱油的。
开通VIP免费下载本站所有资源---点这里
新手必看:资源下载、资源播放、字幕使用、等常见问题---点这里
回复 支持 反对

使用道具 举报

发表于 2018-11-27 13:50:39 | 显示全部楼层
两大影帝唯一的一次合作,经典重温,感谢楼主
开通VIP免费下载本站所有资源---点这里
新手必看:资源下载、资源播放、字幕使用、等常见问题---点这里
回复 支持 反对

使用道具 举报

发表于 2018-11-27 16:02:48 | 显示全部楼层
强烈支持楼主ing……
开通VIP免费下载本站所有资源---点这里
新手必看:资源下载、资源播放、字幕使用、等常见问题---点这里
回复 支持 反对

使用道具 举报

发表于 2018-11-27 17:17:48 | 显示全部楼层
激动人心,无法言表!
开通VIP免费下载本站所有资源---点这里
新手必看:资源下载、资源播放、字幕使用、等常见问题---点这里
回复 支持 反对

使用道具 举报

懒得打字嘛,点击右侧快捷回复 【右侧内容,后台自定义】
您需要登录后才可以回帖 登录 | 立即加入

本版积分规则

现在加入蓝光电影网,注册一个账号

QQ| 手机版|小黑屋| 蓝光电影网 |网站地图

Copyright © 2015-2019 Comsenz Inc.  Template by 蓝光电影网 All Rights Reserved.

Powered by 蓝光电影网 X3.4

特别声明:本站所有资源均由网上收集而来,版权归原影音公司所有,如果侵犯了你的权益,请通知我们,我们会及时删除侵权内容.

快速回复 返回顶部 返回列表