找回密码

蓝光电影网

查看: 1862|回复: 112

费城故事/费城 Philadelphia.1993.2160p.BluRay.x264.8bit.SDR.DTS-HD.MA.TrueHD.7.1.Atmos-SWTYBLZ 48.15GB

  [复制链接]
  • TA的每日心情
    开心
    9 小时前
  • 签到天数: 123 天

    [LV.7]常住居民III

     成长值: 19660

    发表于 2018-11-27 09:29:19 | 显示全部楼层 |阅读模式

    马上注册,获取最新影视资讯,享用更多功能,让你轻松玩转蓝光电影网。

    您需要 登录 才可以下载或查看,没有帐号?立即加入

    x

    费城故事/费城 Philadelphia.1993.2160p.BluRay.x264.8bit.SDR.DTS-HD.MA.TrueHD.7.1.Atmos-SWTYBLZ 48.15GB-1.jpg
    ◎译  名 费城故事 / 费城
    ◎片  名 费城故事 Philadelphia
    ◎年  代 1993
    ◎国  家 美国
    ◎类  别 剧情 / 同性
    ◎语  言 英语
    ◎上映日期 1993-12-22(美国)
    ◎IMDb评分  7.7/10 from 201,438 users
    ◎IMDb链接  http://www.imdb.com/title/tt0107818/
    ◎豆瓣评分 8.6/10 from 64762 users
    ◎豆瓣链接 https://movie.douban.com/subject/1293145/
    ◎片  长 125分钟
    ◎导  演 乔纳森·戴米
    ◎主  演 汤姆·汉克斯
          丹泽尔·华盛顿
          安东尼奥·班德拉斯
          乔安娜·伍德沃德
          罗伯塔·马克斯韦尔
          玛丽·斯汀伯根
          安·唐德
          莉萨·萨默乌
          查尔斯·纳佩尔
          杰森·罗巴兹
          巴兹·基尔曼
          卡伦·芬利
          罗伯特·雷吉利
          布莱德利·惠特福德
          罗恩·沃特
          安娜·迪佛·史密斯
          崔西·沃特
          朱利叶斯·欧文
          爱德华·伦德尔
          钱德拉·威尔森
          大卫·德雷克
          罗杰·科曼
          罗伯特·W·卡斯尔

    ◎简  介 

      安德鲁(汤姆?汉克斯 Tom Hanks 饰)和米勒(丹泽尔?华盛顿 Denzel Washington 饰)认识于法庭上,两人都是年轻有为的律师,各为其主。然而,年轻的安德鲁不久后因为同性恋和身染艾滋病被老板发现,以莫须有理由解雇了。
      遭解雇后的安德鲁四处寻找律师为他讨回公道。当安德鲁找到米勒时,米勒一开始拒绝了他。因为米勒像普通人一样憎恨同性恋和惧怕艾滋病,但当他看到安德鲁在图书馆搜索“艾滋病歧视”时遭到管理员的白眼,听着妻子缓慢而平静地说出他们的姨妈、朋友有很多也是同性恋时,他决定受理安德鲁的案件。
      在最后的法庭上,病危的安德鲁毅然出庭……

    ◎获奖情况 

      第66届奥斯卡金像奖 (1994)
      最佳男主角 汤姆·汉克斯
      最佳原创剧本(提名) 罗恩·内斯万尼尔
      最佳化妆(提名) Carl Fullerton /  Alan D'Angerio
      最佳原创歌曲 布鲁斯·斯普林斯汀
      最佳原创歌曲(提名) 尼尔·杨

      第44届柏林国际电影节 (1994)
      金熊奖 最佳影片(提名) 乔纳森·戴米
      银熊奖 最佳男演员 汤姆·汉克斯

      第48届英国电影学院奖 (1995)
      电影奖 最佳原创剧本(提名) 罗恩·内斯万尼尔

    • Video
    • ID                                       : 1
    • Format                                   : AVC
    • Format/Info                              : Advanced Video Codec
    • Format profile                           : [email protected]
    • Format settings                          : CABAC / 5 Ref Frames
    • Format settings, CABAC                   : Yes
    • Format settings, RefFrames               : 5 frames
    • Codec ID                                 : V_MPEG4/ISO/AVC
    • Duration                                 : 2 h 5 min
    • Bit rate                                 : 46.1 Mb/s
    • Width                                    : 3 840 pixels
    • Height                                   : 2 076 pixels
    • Display aspect ratio                     : 1.85:1
    • Frame rate mode                          : Constant
    • Frame rate                               : 23.976 (24000/1001) FPS
    • Color space                              : YUV
    • Chroma subsampling                       : 4:2:0
    • Bit depth                                : 8 bits
    • Scan type                                : Progressive
    • Bits/(Pixel*Frame)                       : 0.241
    • Stream size                              : 40.4 GiB (84%)
    • Title                                    : Philadelphia.1993.2160p.BluRay.x264.8bit.SDR.DTS-HD.MA.TrueHD.7.1.Atmos-SWTYBLZ
    • Writing library                          : x264 core 157 r2935 545de2f
    • Encoding settings                        : cabac=1 / ref=5 / deblock=1:-1:-1 / analyse=0x3:0x113 / me=umh / subme=10 / psy=1 / psy_rd=1.00:0.15 / mixed_ref=1 / me_range=48 / chroma_me=1 / trellis=2 / 8x8dct=1 / cqm=0 / deadzone=21,11 / fast_pskip=1 / chroma_qp_offset=-3 / threads=65 / lookahead_threads=5 / sliced_threads=0 / nr=0 / decimate=0 / interlaced=0 / bluray_compat=0 / constrained_intra=0 / bframes=3 / b_pyramid=2 / b_adapt=2 / b_bias=0 / direct=3 / weightb=1 / open_gop=0 / weightp=2 / keyint=250 / keyint_min=23 / scenecut=40 / intra_refresh=0 / rc_lookahead=50 / rc=crf / mbtree=1 / crf=22.0 / qcomp=0.60 / qpmin=0 / qpmax=69 / qpstep=4 / ip_ratio=1.40 / aq=1:1.00
    • Default                                  : Yes
    • Forced                                   : No
    • Audio #1
    • ID                                       : 2
    • Format                                   : MLP FBA 16-ch
    • Format/Info                              : Meridian Lossless Packing FBA with 16-channel presentation
    • Commercial name                          : Dolby TrueHD with Dolby Atmos
    • Codec ID                                 : A_TRUEHD
    • Duration                                 : 2 h 5 min
    • Bit rate mode                            : Variable
    • Bit rate                                 : 3 826 kb/s
    • Maximum bit rate                         : 6 003 kb/s
    • Channel(s)                               : 8 channels
    • Channel layout                           : L R C LFE Ls Rs Lb Rb
    • Sampling rate                            : 48.0 kHz
    • Frame rate                               : 1 200.000 FPS (40 SPF)
    • Compression mode                         : Lossless
    • Stream size                              : 3.35 GiB (7%)
    • Title                                    : Philadelphia.1993.2160p.BluRay.x264.8bit.SDR.DTS-HD.MA.TrueHD.7.1.Atmos-SWTYBLZ
    • Language                                 : English
    • Default                                  : Yes
    • Forced                                   : No
    • Number of dynamic objects                : 11
    • Bed channel count                        : 1 channel
    • Bed channel configuration                : LFE
    • Audio #2
    • ID                                       : 3
    • Format                                   : DTS XLL
    • Format/Info                              : Digital Theater Systems
    • Commercial name                          : DTS-HD Master Audio
    • Codec ID                                 : A_DTS
    • Duration                                 : 2 h 5 min
    • Bit rate mode                            : Variable
    • Bit rate                                 : 3 706 kb/s
    • Channel(s)                               : 8 channels
    • Channel layout                           : C L R LFE Lb Rb Lss Rss
    • Sampling rate                            : 48.0 kHz
    • Frame rate                               : 93.750 FPS (512 SPF)
    • Bit depth                                : 24 bits
    • Compression mode                         : Lossless
    • Stream size                              : 3.25 GiB (7%)
    • Title                                    : Philadelphia.1993.2160p.BluRay.x264.8bit.SDR.DTS-HD.MA.TrueHD.7.1.Atmos-SWTYBLZ
    • Language                                 : English
    • Default                                  : No
    • Forced                                   : No
    • Audio #3
    • ID                                       : 4
    • Format                                   : AC-3
    • Format/Info                              : Audio Coding 3
    • Commercial name                          : Dolby Digital
    • Codec ID                                 : A_AC3
    • Duration                                 : 2 h 5 min
    • Bit rate mode                            : Constant
    • Bit rate                                 : 640 kb/s
    • Channel(s)                               : 5 channels
    • Channel layout                           : L R C Ls Rs
    • Sampling rate                            : 48.0 kHz
    • Frame rate                               : 31.250 FPS (1536 SPF)
    • Bit depth                                : 16 bits
    • Compression mode                         : Lossy
    • Stream size                              : 574 MiB (1%)
    • Title                                    : Philadelphia.1993.2160p.BluRay.x264.8bit.SDR.DTS-HD.MA.TrueHD.7.1.Atmos-SWTYBLZ
    • Language                                 : English
    • Service kind                             : Complete Main
    • Default                                  : No
    • Forced                                   : No
    • Text #1
    • ID                                       : 5
    • Format                                   : UTF-8
    • Codec ID                                 : S_TEXT/UTF8
    • Codec ID/Info                            : UTF-8 Plain Text
    • Duration                                 : 1 h 58 min
    • Bit rate                                 : 67 b/s
    • Count of elements                        : 1482
    • Stream size                              : 59.0 KiB (0%)
    • Title                                    : English-SRT
    • Language                                 : English
    • Default                                  : Yes
    • Forced                                   : No
    • Text #2
    • ID                                       : 6
    • Format                                   : UTF-8
    • Codec ID                                 : S_TEXT/UTF8
    • Codec ID/Info                            : UTF-8 Plain Text
    • Duration                                 : 1 h 59 min
    • Bit rate                                 : 71 b/s
    • Count of elements                        : 1595
    • Stream size                              : 62.1 KiB (0%)
    • Title                                    : English-SDH-SRT
    • Language                                 : English
    • Default                                  : No
    • Forced                                   : No
    • Text #3
    • ID                                       : 7
    • Format                                   : PGS
    • Muxing mode                              : zlib
    • Codec ID                                 : S_HDMV/PGS
    • Codec ID/Info                            : Picture based subtitle format used on BDs/HD-DVDs
    • Duration                                 : 1 h 55 min
    • Bit rate                                 : 32.4 kb/s
    • Count of elements                        : 2377
    • Stream size                              : 26.8 MiB (0%)
    • Title                                    : English-PGS
    • Language                                 : English
    • Default                                  : No
    • Forced                                   : No
    • Text #4
    • ID                                       : 8
    • Format                                   : PGS
    • Muxing mode                              : zlib
    • Codec ID                                 : S_HDMV/PGS
    • Codec ID/Info                            : Picture based subtitle format used on BDs/HD-DVDs
    • Duration                                 : 1 h 59 min
    • Bit rate                                 : 41.9 kb/s
    • Count of elements                        : 3200
    • Stream size                              : 35.8 MiB (0%)
    • Title                                    : English-SDH-PGS
    • Language                                 : English
    • Default                                  : No
    • Forced                                   : No
    • Text #5
    • ID                                       : 9
    • Format                                   : PGS
    • Muxing mode                              : zlib
    • Codec ID                                 : S_HDMV/PGS
    • Codec ID/Info                            : Picture based subtitle format used on BDs/HD-DVDs
    • Duration                                 : 1 h 55 min
    • Bit rate                                 : 32.5 kb/s
    • Count of elements                        : 2378
    • Stream size                              : 26.8 MiB (0%)
    • Title                                    : English-PGS
    • Language                                 : English
    • Default                                  : No
    • Forced                                   : No
    • Text #6
    • ID                                       : 10
    • Format                                   : PGS
    • Muxing mode                              : zlib
    • Codec ID                                 : S_HDMV/PGS
    • Codec ID/Info                            : Picture based subtitle format used on BDs/HD-DVDs
    • Duration                                 : 1 h 59 min
    • Bit rate                                 : 42.0 kb/s
    • Count of elements                        : 3200
    • Stream size                              : 35.9 MiB (0%)
    • Title                                    : English-SDH-PGS
    • Language                                 : English
    • Default                                  : No
    • Forced                                   : No
    • Text #7
    • ID                                       : 11
    • Format                                   : PGS
    • Muxing mode                              : zlib
    • Codec ID                                 : S_HDMV/PGS
    • Codec ID/Info                            : Picture based subtitle format used on BDs/HD-DVDs
    • Duration                                 : 1 h 55 min
    • Bit rate                                 : 17.5 kb/s
    • Count of elements                        : 2334
    • Stream size                              : 14.4 MiB (0%)
    • Title                                    : Arabic-PGS
    • Language                                 : Arabic
    • Default                                  : No
    • Forced                                   : No
    • Text #8
    • ID                                       : 12
    • Format                                   : PGS
    • Muxing mode                              : zlib
    • Codec ID                                 : S_HDMV/PGS
    • Codec ID/Info                            : Picture based subtitle format used on BDs/HD-DVDs
    • Duration                                 : 1 h 55 min
    • Bit rate                                 : 25.1 kb/s
    • Count of elements                        : 2394
    • Stream size                              : 20.7 MiB (0%)
    • Title                                    : Chinese-PGS
    • Language                                 : Chinese
    • Default                                  : No
    • Forced                                   : No
    • Text #9
    • ID                                       : 13
    • Format                                   : PGS
    • Muxing mode                              : zlib
    • Codec ID                                 : S_HDMV/PGS
    • Codec ID/Info                            : Picture based subtitle format used on BDs/HD-DVDs
    • Duration                                 : 1 h 55 min
    • Bit rate                                 : 24.5 kb/s
    • Count of elements                        : 2394
    • Stream size                              : 20.2 MiB (0%)
    • Title                                    : Chinese-PGS
    • Language                                 : Chinese
    • Default                                  : No
    • Forced                                   : No
    • Text #10
    • ID                                       : 14
    • Format                                   : PGS
    • Muxing mode                              : zlib
    • Codec ID                                 : S_HDMV/PGS
    • Codec ID/Info                            : Picture based subtitle format used on BDs/HD-DVDs
    • Duration                                 : 1 h 55 min
    • Bit rate                                 : 27.0 kb/s
    • Count of elements                        : 2332
    • Stream size                              : 22.2 MiB (0%)
    • Title                                    : Czech-PGS
    • Language                                 : Czech
    • Default                                  : No
    • Forced                                   : No
    • Text #11
    • ID                                       : 15
    • Format                                   : PGS
    • Muxing mode                              : zlib
    • Codec ID                                 : S_HDMV/PGS
    • Codec ID/Info                            : Picture based subtitle format used on BDs/HD-DVDs
    • Duration                                 : 1 h 52 min
    • Bit rate                                 : 26.1 kb/s
    • Count of elements                        : 1849
    • Stream size                              : 20.9 MiB (0%)
    • Title                                    : Danish-PGS
    • Language                                 : Danish
    • Default                                  : No
    • Forced                                   : No
    • Text #12
    • ID                                       : 16
    • Format                                   : PGS
    • Muxing mode                              : zlib
    • Codec ID                                 : S_HDMV/PGS
    • Codec ID/Info                            : Picture based subtitle format used on BDs/HD-DVDs
    • Duration                                 : 2 h 1 min
    • Bit rate                                 : 30.6 kb/s
    • Count of elements                        : 2256
    • Stream size                              : 26.7 MiB (0%)
    • Title                                    : Dutch-PGS
    • Language                                 : Dutch
    • Default                                  : No
    • Forced                                   : No
    • Text #13
    • ID                                       : 17
    • Format                                   : PGS
    • Muxing mode                              : zlib
    • Codec ID                                 : S_HDMV/PGS
    • Codec ID/Info                            : Picture based subtitle format used on BDs/HD-DVDs
    • Duration                                 : 1 h 52 min
    • Bit rate                                 : 26.3 kb/s
    • Count of elements                        : 2016
    • Stream size                              : 21.1 MiB (0%)
    • Title                                    : Finnish-PGS
    • Language                                 : Finnish
    • Default                                  : No
    • Forced                                   : No
    • Text #14
    • ID                                       : 18
    • Format                                   : PGS
    • Muxing mode                              : zlib
    • Codec ID                                 : S_HDMV/PGS
    • Codec ID/Info                            : Picture based subtitle format used on BDs/HD-DVDs
    • Duration                                 : 2 h 1 min
    • Bit rate                                 : 29.0 kb/s
    • Count of elements                        : 2394
    • Stream size                              : 25.3 MiB (0%)
    • Title                                    : French-PGS
    • Language                                 : French
    • Default                                  : No
    • Forced                                   : No
    • Text #15
    • ID                                       : 19
    • Format                                   : PGS
    • Muxing mode                              : zlib
    • Codec ID                                 : S_HDMV/PGS
    • Codec ID/Info                            : Picture based subtitle format used on BDs/HD-DVDs
    • Duration                                 : 1 h 55 min
    • Bit rate                                 : 35.9 kb/s
    • Count of elements                        : 2338
    • Stream size                              : 29.6 MiB (0%)
    • Title                                    : German-PGS
    • Language                                 : German
    • Default                                  : No
    • Forced                                   : No
    • Text #16
    • ID                                       : 20
    • Format                                   : PGS
    • Muxing mode                              : zlib
    • Codec ID                                 : S_HDMV/PGS
    • Codec ID/Info                            : Picture based subtitle format used on BDs/HD-DVDs
    • Duration                                 : 1 h 56 min
    • Bit rate                                 : 28.1 kb/s
    • Count of elements                        : 2136
    • Stream size                              : 23.3 MiB (0%)
    • Title                                    : Greek-PGS
    • Language                                 : Greek
    • Default                                  : No
    • Forced                                   : No
    • Text #17
    • ID                                       : 21
    • Format                                   : PGS
    • Muxing mode                              : zlib
    • Codec ID                                 : S_HDMV/PGS
    • Codec ID/Info                            : Picture based subtitle format used on BDs/HD-DVDs
    • Duration                                 : 1 h 55 min
    • Bit rate                                 : 30.9 kb/s
    • Count of elements                        : 2338
    • Stream size                              : 25.5 MiB (0%)
    • Title                                    : Hungarian-PGS
    • Language                                 : Hungarian
    • Default                                  : No
    • Forced                                   : No
    • Text #18
    • ID                                       : 22
    • Format                                   : PGS
    • Muxing mode                              : zlib
    • Codec ID                                 : S_HDMV/PGS
    • Codec ID/Info                            : Picture based subtitle format used on BDs/HD-DVDs
    • Duration                                 : 1 h 55 min
    • Bit rate                                 : 32.0 kb/s
    • Count of elements                        : 2354
    • Stream size                              : 26.4 MiB (0%)
    • Title                                    : Italian-PGS
    • Language                                 : Italian
    • Default                                  : No
    • Forced                                   : No
    • Text #19
    • ID                                       : 23
    • Format                                   : PGS
    • Muxing mode                              : zlib
    • Codec ID                                 : S_HDMV/PGS
    • Codec ID/Info                            : Picture based subtitle format used on BDs/HD-DVDs
    • Duration                                 : 1 h 55 min
    • Bit rate                                 : 26.3 kb/s
    • Count of elements                        : 2750
    • Stream size                              : 21.8 MiB (0%)
    • Title                                    : Japanese-PGS
    • Language                                 : Japanese
    • Default                                  : No
    • Forced                                   : No
    • Text #20
    • ID                                       : 24
    • Format                                   : PGS
    • Muxing mode                              : zlib
    • Codec ID                                 : S_HDMV/PGS
    • Codec ID/Info                            : Picture based subtitle format used on BDs/HD-DVDs
    • Duration                                 : 2 h 4 min
    • Bit rate                                 : 25.6 kb/s
    • Count of elements                        : 2577
    • Stream size                              : 22.8 MiB (0%)
    • Title                                    : Korean-PGS
    • Language                                 : Korean
    • Default                                  : No
    • Forced                                   : No
    • Text #21
    • ID                                       : 25
    • Format                                   : PGS
    • Muxing mode                              : zlib
    • Codec ID                                 : S_HDMV/PGS
    • Codec ID/Info                            : Picture based subtitle format used on BDs/HD-DVDs
    • Duration                                 : 2 h 1 min
    • Bit rate                                 : 24.2 kb/s
    • Count of elements                        : 2017
    • Stream size                              : 21.1 MiB (0%)
    • Title                                    : Norwegian-PGS
    • Language                                 : Norwegian
    • Default                                  : No
    • Forced                                   : No
    • Text #22
    • ID                                       : 26
    • Format                                   : PGS
    • Muxing mode                              : zlib
    • Codec ID                                 : S_HDMV/PGS
    • Codec ID/Info                            : Picture based subtitle format used on BDs/HD-DVDs
    • Duration                                 : 2 h 1 min
    • Bit rate                                 : 28.3 kb/s
    • Count of elements                        : 2340
    • Stream size                              : 24.7 MiB (0%)
    • Title                                    : Polish-PGS
    • Language                                 : Polish
    • Default                                  : No
    • Forced                                   : No
    • Text #23
    • ID                                       : 27
    • Format                                   : PGS
    • Muxing mode                              : zlib
    • Codec ID                                 : S_HDMV/PGS
    • Codec ID/Info                            : Picture based subtitle format used on BDs/HD-DVDs
    • Duration                                 : 1 h 58 min
    • Bit rate                                 : 31.5 kb/s
    • Count of elements                        : 2354
    • Stream size                              : 26.6 MiB (0%)
    • Title                                    : Portuguese-pGS
    • Language                                 : Portuguese
    • Default                                  : No
    • Forced                                   : No
    • Text #24
    • ID                                       : 28
    • Format                                   : PGS
    • Muxing mode                              : zlib
    • Codec ID                                 : S_HDMV/PGS
    • Codec ID/Info                            : Picture based subtitle format used on BDs/HD-DVDs
    • Duration                                 : 2 h 1 min
    • Bit rate                                 : 29.7 kb/s
    • Count of elements                        : 2397
    • Stream size                              : 25.9 MiB (0%)
    • Title                                    : Romanian-PGS
    • Language                                 : Romanian
    • Default                                  : No
    • Forced                                   : No
    • Text #25
    • ID                                       : 29
    • Format                                   : PGS
    • Muxing mode                              : zlib
    • Codec ID                                 : S_HDMV/PGS
    • Codec ID/Info                            : Picture based subtitle format used on BDs/HD-DVDs
    • Duration                                 : 1 h 58 min
    • Bit rate                                 : 27.3 kb/s
    • Count of elements                        : 2029
    • Stream size                              : 23.1 MiB (0%)
    • Title                                    : Russian-PGS
    • Language                                 : Russian
    • Default                                  : No
    • Forced                                   : No
    • Text #26
    • ID                                       : 30
    • Format                                   : PGS
    • Muxing mode                              : zlib
    • Codec ID                                 : S_HDMV/PGS
    • Codec ID/Info                            : Picture based subtitle format used on BDs/HD-DVDs
    • Duration                                 : 1 h 55 min
    • Bit rate                                 : 31.9 kb/s
    • Count of elements                        : 2336
    • Stream size                              : 26.3 MiB (0%)
    • Title                                    : Spanish-PGS
    • Language                                 : Spanish
    • Default                                  : No
    • Forced                                   : No
    • Text #27
    • ID                                       : 31
    • Format                                   : PGS
    • Muxing mode                              : zlib
    • Codec ID                                 : S_HDMV/PGS
    • Codec ID/Info                            : Picture based subtitle format used on BDs/HD-DVDs
    • Duration                                 : 1 h 58 min
    • Bit rate                                 : 31.9 kb/s
    • Count of elements                        : 2873
    • Stream size                              : 26.9 MiB (0%)
    • Title                                    : Spanish-PGS
    • Language                                 : Spanish
    • Default                                  : No
    • Forced                                   : No
    • Text #28
    • ID                                       : 32
    • Format                                   : PGS
    • Muxing mode                              : zlib
    • Codec ID                                 : S_HDMV/PGS
    • Codec ID/Info                            : Picture based subtitle format used on BDs/HD-DVDs
    • Duration                                 : 2 h 1 min
    • Bit rate                                 : 25.0 kb/s
    • Count of elements                        : 2001
    • Stream size                              : 21.8 MiB (0%)
    • Title                                    : Swedish-PGS
    • Language                                 : Swedish
    • Default                                  : No
    • Forced                                   : No
    • Text #29
    • ID                                       : 33
    • Format                                   : PGS
    • Muxing mode                              : zlib
    • Codec ID                                 : S_HDMV/PGS
    • Codec ID/Info                            : Picture based subtitle format used on BDs/HD-DVDs
    • Duration                                 : 1 h 55 min
    • Bit rate                                 : 31.8 kb/s
    • Count of elements                        : 2394
    • Stream size                              : 26.2 MiB (0%)
    • Title                                    : Thai-PGS
    • Language                                 : Thai
    • Default                                  : No
    • Forced                                   : No
    • Text #30
    • ID                                       : 34
    • Format                                   : PGS
    • Muxing mode                              : zlib
    • Codec ID                                 : S_HDMV/PGS
    • Codec ID/Info                            : Picture based subtitle format used on BDs/HD-DVDs
    • Duration                                 : 1 h 55 min
    • Bit rate                                 : 32.5 kb/s
    • Count of elements                        : 2402
    • Stream size                              : 26.8 MiB (0%)
    • Title                                    : Turkish-pGS
    • Language                                 : Turkish
    • Default                                  : No
    • Forced                                   : No
    • Menu
    • 00:00:00.000                             : :Chapter 1
    • 00:05:42.091                             : :Chapter 2
    • 00:13:43.280                             : :Chapter 3
    • 00:24:50.989                             : :Chapter 4
    • 00:32:43.169                             : :Chapter 5
    • 00:39:50.846                             : :Chapter 6
    • 00:46:06.346                             : :Chapter 7
    • 00:55:22.569                             : :Chapter 8
    • 01:01:07.580                             : :Chapter 9
    • 01:07:20.953                             : :Chapter 10
    • 01:16:01.139                             : :Chapter 11
    • 01:26:39.527                             : :Chapter 12
    • 01:36:53.682                             : :Chapter 13
    • 01:44:12.371                             : :Chapter 14
    • 01:47:53.592                             : :Chapter 15
    • 01:55:40.558                             : :Chapter 16

    复制代码

    费城故事/费城 Philadelphia.1993.2160p.BluRay.x264.8bit.SDR.DTS-HD.MA.TrueHD.7.1.Atmos-SWTYBLZ 48.15GB-2.png 费城故事/费城 Philadelphia.1993.2160p.BluRay.x264.8bit.SDR.DTS-HD.MA.TrueHD.7.1.Atmos-SWTYBLZ 48.15GB-3.png 费城故事/费城 Philadelphia.1993.2160p.BluRay.x264.8bit.SDR.DTS-HD.MA.TrueHD.7.1.Atmos-SWTYBLZ 48.15GB-4.png 费城故事/费城 Philadelphia.1993.2160p.BluRay.x264.8bit.SDR.DTS-HD.MA.TrueHD.7.1.Atmos-SWTYBLZ 48.15GB-5.png 费城故事/费城 Philadelphia.1993.2160p.BluRay.x264.8bit.SDR.DTS-HD.MA.TrueHD.7.1.Atmos-SWTYBLZ 48.15GB-6.png 费城故事/费城 Philadelphia.1993.2160p.BluRay.x264.8bit.SDR.DTS-HD.MA.TrueHD.7.1.Atmos-SWTYBLZ 48.15GB-7.png 费城故事/费城 Philadelphia.1993.2160p.BluRay.x264.8bit.SDR.DTS-HD.MA.TrueHD.7.1.Atmos-SWTYBLZ 48.15GB-8.png





    Philadelphia.1993.2160p.BluRay.x264.8bit.SDR.DTS-HD.MA.TrueHD.7.1.Atmos-SWTYBLZ.torrent (121.02 KB, 下载次数: 85)
    开通VIP免费下载本站所有资源---点这里
    新手必看:资源下载、资源播放、字幕使用、等常见问题---点这里
    回复

    使用道具 举报

    该用户从未签到

    发表于 2018-11-27 09:48:07 | 显示全部楼层
    强烈支持楼主ing……
    开通VIP免费下载本站所有资源---点这里
    新手必看:资源下载、资源播放、字幕使用、等常见问题---点这里
    回复 支持 反对

    使用道具 举报

  • TA的每日心情
    开心
    2 小时前
  • 签到天数: 119 天

    [LV.6]常住居民II

    发表于 2018-11-27 09:59:54 | 显示全部楼层
    我只是路过打酱油的。
    [发帖际遇]: 一个袋子砸在了 chuchan 头上,chuchan 赚了 1 蓝光币. 幸运榜 / 衰神榜
    开通VIP免费下载本站所有资源---点这里
    新手必看:资源下载、资源播放、字幕使用、等常见问题---点这里
    回复 支持 反对

    使用道具 举报

    该用户从未签到

    发表于 2018-11-27 10:33:09 | 显示全部楼层
    dddddddddddd
    开通VIP免费下载本站所有资源---点这里
    新手必看:资源下载、资源播放、字幕使用、等常见问题---点这里
    回复 支持 反对

    使用道具 举报

    该用户从未签到

    发表于 2018-11-27 11:05:09 | 显示全部楼层

    强烈支持楼主
    开通VIP免费下载本站所有资源---点这里
    新手必看:资源下载、资源播放、字幕使用、等常见问题---点这里
    回复 支持 反对

    使用道具 举报

  • TA的每日心情
    无聊
    2019-2-24 00:41
  • 签到天数: 33 天

    [LV.5]常住居民I

    发表于 2018-11-27 12:45:18 | 显示全部楼层
    我只是路过打酱油的。
    开通VIP免费下载本站所有资源---点这里
    新手必看:资源下载、资源播放、字幕使用、等常见问题---点这里
    回复 支持 反对

    使用道具 举报

  • TA的每日心情
    开心
    2 小时前
  • 签到天数: 119 天

    [LV.6]常住居民II

    发表于 2018-11-27 13:24:03 | 显示全部楼层
    我只是路过打酱油的。
    开通VIP免费下载本站所有资源---点这里
    新手必看:资源下载、资源播放、字幕使用、等常见问题---点这里
    回复 支持 反对

    使用道具 举报

  • TA的每日心情
    开心
    半小时前
  • 签到天数: 109 天

    [LV.6]常住居民II

    发表于 2018-11-27 13:50:39 | 显示全部楼层
    两大影帝唯一的一次合作,经典重温,感谢楼主
    开通VIP免费下载本站所有资源---点这里
    新手必看:资源下载、资源播放、字幕使用、等常见问题---点这里
    回复 支持 反对

    使用道具 举报

  • TA的每日心情
    无聊
    昨天 08:37
  • 签到天数: 111 天

    [LV.6]常住居民II

    发表于 2018-11-27 16:02:48 | 显示全部楼层
    强烈支持楼主ing……
    开通VIP免费下载本站所有资源---点这里
    新手必看:资源下载、资源播放、字幕使用、等常见问题---点这里
    回复 支持 反对

    使用道具 举报

  • TA的每日心情
    奋斗
    2018-12-10 06:49
  • 签到天数: 17 天

    [LV.4]偶尔看看III

    发表于 2018-11-27 17:17:48 | 显示全部楼层
    激动人心,无法言表!
    [发帖际遇]: 原罪沉沦 乐于助人,奖励 1 蓝光币. 幸运榜 / 衰神榜
    开通VIP免费下载本站所有资源---点这里
    新手必看:资源下载、资源播放、字幕使用、等常见问题---点这里
    回复 支持 反对

    使用道具 举报

    *滑动验证:
    懒得打字嘛,点击右侧快捷回复 【右侧内容,后台自定义】
    您需要登录后才可以回帖 登录 | 立即加入

    本版积分规则

    现在加入蓝光电影网,注册一个账号

    QQ| 手机版|小黑屋| 蓝光电影网 |网站地图

    Copyright © 20013-2018 Comsenz Inc.  Template by 蓝光电影论坛 All Rights Reserved.

    Powered by 高清电影网 X3.4
    特别声明:本站所有资源均由网上收集而来,版权归原影音公司所有,如果侵犯了你的权益,请通知我们,我们会及时删除侵权内容.

    快速回复 返回顶部 返回列表