找回密码

蓝光电影网

查看: 3843|回复: 111

北极故事/极地熊宝贝——拿努的历险 Arctic.Tale.2007.LiMiTED.1080p.Bluray.x264-FSiHD 6.56GB

  [复制链接]

 成长值: 21925

发表于 2018-10-26 09:30:39 | 显示全部楼层 |阅读模式

北极故事/极地熊宝贝——拿努的历险 Arctic.Tale.2007.LiMiTED.1080p.Bluray.x264-FSiHD 6.56GB-1.jpg
◎译  名 北极故事 / 极地熊宝贝——拿努的历险(台) / 小雪熊流浪记(港)
◎片  名 北极故事 Arctic Tale
◎年  代 2007
◎国  家 美国
◎类  别 纪录片 / 家庭
◎语  言 英语
◎上映日期 2007-08-17
◎IMDb评分  7.0/10 from 1,692 users
◎IMDb链接  http://www.imdb.com/title/tt0488508/
◎豆瓣评分 9.1/10 from 4838 users
◎豆瓣链接 https://movie.douban.com/subject/2111619/
◎片  长 96 分钟
◎导  演 Adam Ravetch / Sarah Robertson
◎主  演 奎恩·拉提法
      Katrina Agate
      Zain Ali

◎简  介 

  影片展现了在寒冷的北极,冰雪世界中的生命奇迹。
  小北极熊Nanu在妈妈的带领下,学习求生的技能,逃避天敌的骚扰,同时也要摸索着应对全新环境的挑战;小海象Seela是族群繁衍中来之不易的结晶,有妈妈和姨妈的双重保护,但是猝不及防的环境变化,让整个海象族群面临巨大的威胁。
  北极圈动物的后代和祖辈一样生息繁衍,但是,她们将面临一个截然不同的未来,如果,我们人类再不做点什么的话。


  1. Video
  2. ID                                       : 1
  3. Format                                   : AVC
  4. Format/Info                              : Advanced Video Codec
  5. Format profile                           : [url=/cdn-cgi/l/email-protection][email protected][/url]
  6. Format settings                          : CABAC / 4 Ref Frames
  7. Format settings, CABAC                   : Yes
  8. Format settings, ReFrames                : 4 frames
  9. Format settings, GOP                     : N=1
  10. Codec ID                                 : V_MPEG4/ISO/AVC
  11. Duration                                 : 1 h 26 min
  12. Bit rate                                 : 10.3 Mb/s
  13. Width                                    : 1 920 pixels
  14. Height                                   : 1 080 pixels
  15. Display aspect ratio                     : 16:9
  16. Frame rate mode                          : Constant
  17. Frame rate                               : 23.976 FPS
  18. Color space                              : YUV
  19. Chroma subsampling                       : 4:2:0
  20. Bit depth                                : 8 bits
  21. Scan type                                : Progressive
  22. Bits/(Pixel*Frame)                       : 0.206
  23. Stream size                              : 6.04 GiB (92%)
  24. Writing library                          : x264 core 67 r1169M ab85c9b
  25. Encoding settings                        : cabac=1 / ref=4 / deblock=1:0:0 / analyse=0x3:0x133 / me=umh / subme=9 / psy_rd=1.0:0.0 / mixed_ref=1 / me_range=16 / chroma_me=1 / trellis=2 / 8x8dct=1 / cqm=0 / deadzone=21,11 / chroma_qp_offset=-2 / threads=6 / nr=0 / decimate=1 / mbaff=0 / bframes=3 / b_pyramid=1 / b_adapt=1 / b_bias=0 / direct=1 / wpredb=1 / keyint=250 / keyint_min=25 / scenecut=40 / rc=2pass / bitrate=10261 / ratetol=1.0 / qcomp=0.60 / qpmin=10 / qpmax=51 / qpstep=4 / cplxblur=20.0 / qblur=0.5 / ip_ratio=1.40 / pb_ratio=1.30 / aq=1:1.00
  26. Language                                 : English
  27. Default                                  : Yes
  28. Forced                                   : No

  29. Audio
  30. ID                                       : 2
  31. Format                                   : AC-3
  32. Format/Info                              : Audio Coding 3
  33. Commercial name                          : Dolby Digital
  34. Codec ID                                 : A_AC3
  35. Duration                                 : 1 h 26 min
  36. Bit rate mode                            : Constant
  37. Bit rate                                 : 640 kb/s
  38. Channel(s)                               : 6 channels
  39. Channel layout                           : L R C LFE Ls Rs
  40. Sampling rate                            : 48.0 kHz
  41. Frame rate                               : 31.250 FPS (1536 SPF)
  42. Bit depth                                : 16 bits
  43. Compression mode                         : Lossy
  44. Stream size                              : 394 MiB (6%)
  45. Service kind                             : Complete Main
  46. Default                                  : Yes
  47. Forced                                   : No

  48. Text #1
  49. ID                                       : 3
  50. Format                                   : UTF-8
  51. Codec ID                                 : S_TEXT/UTF8
  52. Codec ID/Info                            : UTF-8 Plain Text
  53. Title                                    : eng
  54. Language                                 : English
  55. Default                                  : Yes
  56. Forced                                   : No

  57. Text #2
  58. ID                                       : 4
  59. Format                                   : UTF-8
  60. Codec ID                                 : S_TEXT/UTF8
  61. Codec ID/Info                            : UTF-8 Plain Text
  62. Title                                    : engSDH
  63. Language                                 : English
  64. Default                                  : No
  65. Forced                                   : No
复制代码

复制代码

北极故事/极地熊宝贝——拿努的历险 Arctic.Tale.2007.LiMiTED.1080p.Bluray.x264-FSiHD 6.56GB-2.png 北极故事/极地熊宝贝——拿努的历险 Arctic.Tale.2007.LiMiTED.1080p.Bluray.x264-FSiHD 6.56GB-3.png 北极故事/极地熊宝贝——拿努的历险 Arctic.Tale.2007.LiMiTED.1080p.Bluray.x264-FSiHD 6.56GB-4.png




开通VIP免费下载本站所有资源---点这里
新手必看:资源下载、资源播放、字幕使用、等常见问题---点这里
回复

使用道具 举报

 成长值: 3640

发表于 2018-10-26 10:55:06 | 显示全部楼层
谢谢楼主分享啊!希望能有源啊!
开通VIP免费下载本站所有资源---点这里
新手必看:资源下载、资源播放、字幕使用、等常见问题---点这里
回复 支持 反对

使用道具 举报

发表于 2018-10-26 20:37:31 | 显示全部楼层
96分钟一般8G才能算适合PC的高清
开通VIP免费下载本站所有资源---点这里
新手必看:资源下载、资源播放、字幕使用、等常见问题---点这里
回复 支持 反对

使用道具 举报

发表于 2018-10-26 20:45:53 | 显示全部楼层
激动人心,无法言表!
开通VIP免费下载本站所有资源---点这里
新手必看:资源下载、资源播放、字幕使用、等常见问题---点这里
回复 支持 反对

使用道具 举报

发表于 2018-10-26 20:48:14 | 显示全部楼层
强烈支持楼主ing……
开通VIP免费下载本站所有资源---点这里
新手必看:资源下载、资源播放、字幕使用、等常见问题---点这里
回复 支持 反对

使用道具 举报

发表于 2018-10-27 13:43:44 | 显示全部楼层
向往遥远的北极,尽管我们去不了,但有这部影片足矣.
开通VIP免费下载本站所有资源---点这里
新手必看:资源下载、资源播放、字幕使用、等常见问题---点这里
回复 支持 反对

使用道具 举报

发表于 2018-10-27 15:35:56 | 显示全部楼层
真是难得给力的帖子啊。
开通VIP免费下载本站所有资源---点这里
新手必看:资源下载、资源播放、字幕使用、等常见问题---点这里
回复 支持 反对

使用道具 举报

发表于 2018-10-28 07:43:12 | 显示全部楼层
顶!!!!!!!!!!!!!!!!!!!!
开通VIP免费下载本站所有资源---点这里
新手必看:资源下载、资源播放、字幕使用、等常见问题---点这里
回复

使用道具 举报

发表于 2018-10-28 08:48:03 | 显示全部楼层
顶!!!!!!!!!!!!!!!
开通VIP免费下载本站所有资源---点这里
新手必看:资源下载、资源播放、字幕使用、等常见问题---点这里
回复

使用道具 举报

发表于 2018-10-31 16:23:49 | 显示全部楼层
辛苦了谢谢分享
开通VIP免费下载本站所有资源---点这里
新手必看:资源下载、资源播放、字幕使用、等常见问题---点这里
回复 支持 反对

使用道具 举报

懒得打字嘛,点击右侧快捷回复 【右侧内容,后台自定义】
您需要登录后才可以回帖 登录 | 立即加入

本版积分规则

现在加入蓝光电影网,注册一个账号

QQ| 手机版|小黑屋| 蓝光电影网 |网站地图

Copyright © 2015-2019 Comsenz Inc.  Template by 蓝光电影网 All Rights Reserved.

Powered by 蓝光电影网 X3.4

特别声明:本站所有资源均由网上收集而来,版权归原影音公司所有,如果侵犯了你的权益,请通知我们,我们会及时删除侵权内容.

快速回复 返回顶部 返回列表