找回密码

蓝光电影网

查看: 662|回复: 22

[REMUX.HEVC] 权力的游戏第一季/冰与火之歌:权力的游戏第一季 Game.of.Thrones.S03.2160p.BluRay.REMUX.HEVC.DTS-HD.MA.TrueHD.7.1.Atmos-FGT 290.75GB

[复制链接]

 成长值: 28810

发表于 2020-11-9 22:27:00 | 显示全部楼层 |阅读模式
权力的游戏第一季/冰与火之歌:权力的游戏第一季 Game.of.Thrones.S03.2160p.BluRay.REMUX.HEVC.DTS-HD.MA.TrueHD.7.1.Atmos-FGT 290.75GB-1.jpg

◎译  名 权力的游戏 第一季 / A Song of Ice and Fire: Game of Thrones Season 1 / 冰与火之歌:权力的游戏 第一季 / 王座游戏 第一季
◎片  名 Game of Thrones Season 1
◎年  代 2011
◎产  地 美国 / 英国
◎类  别 剧情 / 奇幻 / 冒险
◎语  言 英语 / 多斯拉克语
◎上映日期 2011-04-17(美国)
◎IMDb评分  9.3/10 from 1673593 users
◎IMDb链接  https://www.imdb.com/title/tt0944947
◎豆瓣评分 9.4/10 from 297007 users
◎豆瓣链接 https://movie.douban.com/subject/3016187/
◎集  数 10
◎片  长 60分钟
◎导  演 蒂莫西·范·帕腾 Timothy Van Patten / 布莱恩·柯克 Brian Kirk / 丹尼尔·米纳汉 Daniel Minahan / 阿兰·泰勒 Alan Taylor
◎编  剧 戴维·贝尼奥夫 David Benioff / D·B·威斯 D.B. Weiss / George R.R. Martin (novel)
◎主  演 伊萨克·亨普斯特德-怀特 Isaac Hempstead-Wright
       查里斯·丹斯 Charles Dance
       John C. Bradley
       罗恩·多纳基 Ron Donachie
       伊恩·麦克尔希尼 Ian McElhinney
       肖恩·宾 Sean Bean
       米歇尔·费尔利 Michelle Fairley
       艾米莉亚·克拉克 Emilia Clarke
       伊恩·格雷 Iain Glen
       基特·哈灵顿 Kit Harington
       尼可拉·科斯特-瓦尔道 Nikolaj Coster-Waldau


◎标  签 美剧 | 史诗 | HBO | 奇幻 | 魔幻 | 美国 | 电视剧 | 2011

◎简  介  

  《权力的游戏》是一部中世纪史诗奇幻题材的电视连续剧,该剧以美国作家乔治·R·R·马丁的奇幻巨作《冰与火之歌》七部曲为基础改编创作。
  故事背景中虚构的世界,分为两片大陆:位于西面的“日落国度”维斯特洛;位于东面的类似亚欧大陆。维斯特洛大陆边境处发现远古传说中早已灭绝的生物开始,危险也渐渐在靠近这里。这片大陆的临冬城主暨北境统领艾德史塔克家族也迎来了老友兼国王劳勃·拜拉席恩的来访。国王希望艾德·史塔克(肖恩·宾 Sean Bean 饰)能担任首相一职,对抗企图夺取铁王座的叛军。危情一触即发,整个王国看似平和的表面下却是波涛暗涌。权高位重的拜拉席恩家族、勇敢善良的史塔克家族、企图谋取王位的坦格利安家族、有着不可告人秘密的兰尼斯特家族。这些家族各怀鬼胎,这个国家将会陷入一场混战.....

◎获奖情况  

  第69届金球奖(2012)
  电视类 最佳剧情类剧集(提名)
  电视类 最佳男配角 彼特·丁拉基

  第28届MTV电影奖(2019)
  MTV电影奖 最佳英雄形象(提名) 麦茜·威廉姆斯

  第27届MTV电影奖(2018)
  MTV电影奖 剧集最佳表演(提名) 麦茜·威廉姆斯
  MTV电影奖 最佳英雄形象(提名) 艾米莉亚·克拉克

  第12届美国视觉效果协会奖(2014)
  最佳广告/广播节目CG背景(提名) Patrick Zentis / Mayur Patel

  第12届美国电影学会奖(2011)
  年度佳剧

  第22届上海电视节白玉兰奖(2016)
  电视连续剧 最佳海外电视剧(长)

  第6届豆瓣电影年度榜单(2019)
  2010s剧集(提名)
  1. Video #1
  2. ID                                       : 1
  3. ID in the original source medium         : 4113 (0x1011)
  4. Format                                   : HEVC
  5. Format/Info                              : High Efficiency Video Coding
  6. Format profile                           : Main 10@L5.1@High
  7. HDR format                               : SMPTE ST 2086, HDR10 compatible
  8. Codec ID                                 : V_MPEGH/ISO/HEVC
  9. Duration                                 : 1 h 2 min
  10. Bit rate                                 : 65.5 Mb/s
  11. Width                                    : 3 840 pixels
  12. Height                                   : 2 160 pixels
  13. Display aspect ratio                     : 16:9
  14. Frame rate mode                          : Constant
  15. Frame rate                               : 23.976 (24000/1001/45378) FPS
  16. Color space                              : YUV
  17. Chroma subsampling                       : 4:2:0 (Type 2)
  18. Bit depth                                : 10 bits
  19. Bits/(Pixel*Frame)                       : 0.330
  20. Stream size                              : 28.7 GiB (77%)
  21. Title                                    : Game.of.Thrones.S03E10.Mhysa.2160p.BluRay.REMUX.HEVC.DTS-HD.MA.TrueHD.7.1.Atmos-FGT
  22. Language                                 : English
  23. Default                                  : Yes
  24. Forced                                   : No
  25. Color range                              : Limited
  26. Color primaries                          : BT.2020
  27. Transfer characteristics                 : PQ
  28. Matrix coefficients                      : BT.2020 non-constant
  29. Mastering display color primaries        : BT.2020
  30. Mastering display luminance              : min: 0.0020 cd/m2, max: 1000 cd/m2
  31. Original source medium                   : Blu-ray

  32. Video #2
  33. ID                                       : 2
  34. ID in the original source medium         : 4117 (0x1015)
  35. Format                                   : HEVC
  36. Format/Info                              : High Efficiency Video Coding
  37. Format profile                           : Main 10@L5.1@High
  38. HDR format                               : SMPTE ST 2086, HDR10 compatible
  39. Codec ID                                 : V_MPEGH/ISO/HEVC
  40. Duration                                 : 1 h 2 min
  41. Bit rate                                 : 4 472 kb/s
  42. Width                                    : 1 920 pixels
  43. Height                                   : 1 080 pixels
  44. Display aspect ratio                     : 16:9
  45. Frame rate mode                          : Constant
  46. Frame rate                               : 23.976 (24000/1001/45378) FPS
  47. Color space                              : YUV
  48. Chroma subsampling                       : 4:2:0 (Type 2)
  49. Bit depth                                : 10 bits
  50. Bits/(Pixel*Frame)                       : 0.090
  51. Stream size                              : 1.96 GiB (5%)
  52. Title                                    : Game.of.Thrones.S03E10.Mhysa.2160p.BluRay.REMUX.HEVC.DTS-HD.MA.TrueHD.7.1.Atmos-FGT
  53. Default                                  : No
  54. Forced                                   : No
  55. Color range                              : Limited
  56. Color primaries                          : BT.2020
  57. Transfer characteristics                 : PQ
  58. Matrix coefficients                      : BT.2020 non-constant
  59. Mastering display color primaries        : BT.2020
  60. Mastering display luminance              : min: 0.0020 cd/m2, max: 1000 cd/m2
  61. Original source medium                   : Blu-ray

  62. Audio #1
  63. ID                                       : 3
  64. ID in the original source medium         : 4353 (0x1101)
  65. Format                                   : MLP FBA 16-ch
  66. Format/Info                              : Meridian Lossless Packing FBA with 16-channel presentation
  67. Commercial name                          : Dolby TrueHD with Dolby Atmos
  68. Codec ID                                 : A_TRUEHD
  69. Duration                                 : 1 h 2 min
  70. Bit rate mode                            : Variable
  71. Bit rate                                 : 4 266 kb/s
  72. Maximum bit rate                         : 7 884 kb/s
  73. Channel(s)                               : 8 channels
  74. Channel layout                           : L R C LFE Ls Rs Lb Rb
  75. Sampling rate                            : 48.0 kHz
  76. Frame rate                               : 1 200.000 FPS (40 SPF)
  77. Compression mode                         : Lossless
  78. Stream size                              : 1.87 GiB (5%)
  79. Title                                    : Game.of.Thrones.S03E10.Mhysa.2160p.BluRay.REMUX.HEVC.DTS-HD.MA.TrueHD.7.1.Atmos-FGT
  80. Language                                 : English
  81. Default                                  : Yes
  82. Forced                                   : No
  83. Original source medium                   : Blu-ray
  84. Number of dynamic objects                : 11
  85. Bed channel count                        : 1 channel
  86. Bed channel configuration                : LFE

  87. Audio #2
  88. ID                                       : 4
  89. Format                                   : DTS XLL
  90. Format/Info                              : Digital Theater Systems
  91. Commercial name                          : DTS-HD Master Audio
  92. Codec ID                                 : A_DTS
  93. Duration                                 : 1 h 2 min
  94. Bit rate mode                            : Variable
  95. Bit rate                                 : 3 518 kb/s
  96. Channel(s)                               : 8 channels
  97. Channel layout                           : C L R LFE Lb Rb Lss Rss
  98. Sampling rate                            : 48.0 kHz
  99. Frame rate                               : 93.750 FPS (512 SPF)
  100. Bit depth                                : 24 bits
  101. Compression mode                         : Lossless
  102. Stream size                              : 1.54 GiB (4%)
  103. Title                                    : Game.of.Thrones.S03E10.Mhysa.2160p.BluRay.REMUX.HEVC.DTS-HD.MA.TrueHD.7.1.Atmos-FGT
  104. Language                                 : English
  105. Default                                  : No
  106. Forced                                   : No

  107. Audio #3
  108. ID                                       : 5
  109. ID in the original source medium         : 4353 (0x1101)
  110. Format                                   : AC-3
  111. Format/Info                              : Audio Coding 3
  112. Commercial name                          : Dolby Digital
  113. Codec ID                                 : A_AC3
  114. Duration                                 : 1 h 2 min
  115. Bit rate mode                            : Constant
  116. Bit rate                                 : 640 kb/s
  117. Channel(s)                               : 6 channels
  118. Channel layout                           : L R C LFE Ls Rs
  119. Sampling rate                            : 48.0 kHz
  120. Frame rate                               : 31.250 FPS (1536 SPF)
  121. Compression mode                         : Lossy
  122. Stream size                              : 287 MiB (1%)
  123. Title                                    : Game.of.Thrones.S03E10.Mhysa.2160p.BluRay.REMUX.HEVC.DTS-HD.MA.TrueHD.7.1.Atmos-FGT
  124. Language                                 : English
  125. Service kind                             : Complete Main
  126. Default                                  : No
  127. Forced                                   : No
  128. Original source medium                   : Blu-ray

  129. Audio #4
  130. ID                                       : 6
  131. ID in the original source medium         : 4354 (0x1102)
  132. Format                                   : AC-3
  133. Format/Info                              : Audio Coding 3
  134. Commercial name                          : Dolby Digital
  135. Codec ID                                 : A_AC3
  136. Duration                                 : 1 h 2 min
  137. Bit rate mode                            : Constant
  138. Bit rate                                 : 448 kb/s
  139. Channel(s)                               : 6 channels
  140. Channel layout                           : L R C LFE Ls Rs
  141. Sampling rate                            : 48.0 kHz
  142. Frame rate                               : 31.250 FPS (1536 SPF)
  143. Compression mode                         : Lossy
  144. Stream size                              : 201 MiB (1%)
  145. Title                                    : Game.of.Thrones.S03E10.Mhysa.2160p.BluRay.REMUX.HEVC.DTS-HD.MA.TrueHD.7.1.Atmos-FGT
  146. Language                                 : French
  147. Service kind                             : Complete Main
  148. Default                                  : No
  149. Forced                                   : No
  150. Original source medium                   : Blu-ray

  151. Audio #5
  152. ID                                       : 7
  153. ID in the original source medium         : 4355 (0x1103)
  154. Format                                   : AC-3
  155. Format/Info                              : Audio Coding 3
  156. Commercial name                          : Dolby Digital
  157. Codec ID                                 : A_AC3
  158. Duration                                 : 1 h 2 min
  159. Bit rate mode                            : Constant
  160. Bit rate                                 : 256 kb/s
  161. Channel(s)                               : 2 channels
  162. Channel layout                           : L R
  163. Sampling rate                            : 48.0 kHz
  164. Frame rate                               : 31.250 FPS (1536 SPF)
  165. Compression mode                         : Lossy
  166. Stream size                              : 115 MiB (0%)
  167. Title                                    : Game.of.Thrones.S03E10.Mhysa.2160p.BluRay.REMUX.HEVC.DTS-HD.MA.TrueHD.7.1.Atmos-FGT
  168. Language                                 : Spanish
  169. Service kind                             : Complete Main
  170. Default                                  : No
  171. Forced                                   : No
  172. Original source medium                   : Blu-ray

  173. Audio #6
  174. ID                                       : 8
  175. ID in the original source medium         : 4356 (0x1104)
  176. Format                                   : AC-3
  177. Format/Info                              : Audio Coding 3
  178. Commercial name                          : Dolby Digital
  179. Codec ID                                 : A_AC3
  180. Duration                                 : 1 h 2 min
  181. Bit rate mode                            : Constant
  182. Bit rate                                 : 448 kb/s
  183. Channel(s)                               : 6 channels
  184. Channel layout                           : L R C LFE Ls Rs
  185. Sampling rate                            : 48.0 kHz
  186. Frame rate                               : 31.250 FPS (1536 SPF)
  187. Compression mode                         : Lossy
  188. Stream size                              : 201 MiB (1%)
  189. Title                                    : Game.of.Thrones.S03E10.Mhysa.2160p.BluRay.REMUX.HEVC.DTS-HD.MA.TrueHD.7.1.Atmos-FGT
  190. Language                                 : Spanish
  191. Service kind                             : Complete Main
  192. Default                                  : No
  193. Forced                                   : No
  194. Original source medium                   : Blu-ray

  195. Audio #7
  196. ID                                       : 9
  197. ID in the original source medium         : 4357 (0x1105)
  198. Format                                   : AC-3
  199. Format/Info                              : Audio Coding 3
  200. Commercial name                          : Dolby Digital
  201. Codec ID                                 : A_AC3
  202. Duration                                 : 1 h 2 min
  203. Bit rate mode                            : Constant
  204. Bit rate                                 : 448 kb/s
  205. Channel(s)                               : 6 channels
  206. Channel layout                           : L R C LFE Ls Rs
  207. Sampling rate                            : 48.0 kHz
  208. Frame rate                               : 31.250 FPS (1536 SPF)
  209. Compression mode                         : Lossy
  210. Stream size                              : 201 MiB (1%)
  211. Title                                    : Game.of.Thrones.S03E10.Mhysa.2160p.BluRay.REMUX.HEVC.DTS-HD.MA.TrueHD.7.1.Atmos-FGT
  212. Language                                 : German
  213. Service kind                             : Complete Main
  214. Default                                  : No
  215. Forced                                   : No
  216. Original source medium                   : Blu-ray

  217. Audio #8
  218. ID                                       : 10
  219. ID in the original source medium         : 4358 (0x1106)
  220. Format                                   : AC-3
  221. Format/Info                              : Audio Coding 3
  222. Commercial name                          : Dolby Digital
  223. Codec ID                                 : A_AC3
  224. Duration                                 : 1 h 2 min
  225. Bit rate mode                            : Constant
  226. Bit rate                                 : 448 kb/s
  227. Channel(s)                               : 6 channels
  228. Channel layout                           : L R C LFE Ls Rs
  229. Sampling rate                            : 48.0 kHz
  230. Frame rate                               : 31.250 FPS (1536 SPF)
  231. Compression mode                         : Lossy
  232. Stream size                              : 201 MiB (1%)
  233. Title                                    : Game.of.Thrones.S03E10.Mhysa.2160p.BluRay.REMUX.HEVC.DTS-HD.MA.TrueHD.7.1.Atmos-FGT
  234. Language                                 : Italian
  235. Service kind                             : Complete Main
  236. Default                                  : No
  237. Forced                                   : No
  238. Original source medium                   : Blu-ray

  239. Audio #9
  240. ID                                       : 11
  241. ID in the original source medium         : 4359 (0x1107)
  242. Format                                   : DTS
  243. Format/Info                              : Digital Theater Systems
  244. Codec ID                                 : A_DTS
  245. Duration                                 : 1 h 2 min
  246. Bit rate mode                            : Constant
  247. Bit rate                                 : 768 kb/s
  248. Channel(s)                               : 2 channels
  249. Channel layout                           : Lt Rt
  250. Sampling rate                            : 48.0 kHz
  251. Frame rate                               : 93.750 FPS (512 SPF)
  252. Bit depth                                : 24 bits
  253. Compression mode                         : Lossy
  254. Delay relative to video                  : 2 s 2 ms
  255. Stream size                              : 345 MiB (1%)
  256. Title                                    : Game.of.Thrones.S03E10.Mhysa.2160p.BluRay.REMUX.HEVC.DTS-HD.MA.TrueHD.7.1.Atmos-FGT
  257. Language                                 : Portuguese
  258. Default                                  : No
  259. Forced                                   : No
  260. Original source medium                   : Blu-ray

  261. Audio #10
  262. ID                                       : 12
  263. ID in the original source medium         : 4360 (0x1108)
  264. Format                                   : DTS
  265. Format/Info                              : Digital Theater Systems
  266. Codec ID                                 : A_DTS
  267. Duration                                 : 1 h 2 min
  268. Bit rate mode                            : Constant
  269. Bit rate                                 : 768 kb/s
  270. Channel(s)                               : 2 channels
  271. Channel layout                           : Lt Rt
  272. Sampling rate                            : 48.0 kHz
  273. Frame rate                               : 93.750 FPS (512 SPF)
  274. Bit depth                                : 24 bits
  275. Compression mode                         : Lossy
  276. Delay relative to video                  : 2 s 2 ms
  277. Stream size                              : 345 MiB (1%)
  278. Title                                    : Game.of.Thrones.S03E10.Mhysa.2160p.BluRay.REMUX.HEVC.DTS-HD.MA.TrueHD.7.1.Atmos-FGT
  279. Language                                 : Czech
  280. Default                                  : No
  281. Forced                                   : No
  282. Original source medium                   : Blu-ray

  283. Audio #11
  284. ID                                       : 13
  285. ID in the original source medium         : 4361 (0x1109)
  286. Format                                   : DTS
  287. Format/Info                              : Digital Theater Systems
  288. Codec ID                                 : A_DTS
  289. Duration                                 : 1 h 2 min
  290. Bit rate mode                            : Constant
  291. Bit rate                                 : 768 kb/s
  292. Channel(s)                               : 2 channels
  293. Channel layout                           : Lt Rt
  294. Sampling rate                            : 48.0 kHz
  295. Frame rate                               : 93.750 FPS (512 SPF)
  296. Bit depth                                : 24 bits
  297. Compression mode                         : Lossy
  298. Delay relative to video                  : 2 s 2 ms
  299. Stream size                              : 345 MiB (1%)
  300. Title                                    : Game.of.Thrones.S03E10.Mhysa.2160p.BluRay.REMUX.HEVC.DTS-HD.MA.TrueHD.7.1.Atmos-FGT
  301. Language                                 : Hungarian
  302. Default                                  : No
  303. Forced                                   : No
  304. Original source medium                   : Blu-ray

  305. Audio #12
  306. ID                                       : 14
  307. ID in the original source medium         : 4362 (0x110A)
  308. Format                                   : DTS
  309. Format/Info                              : Digital Theater Systems
  310. Codec ID                                 : A_DTS
  311. Duration                                 : 1 h 2 min
  312. Bit rate mode                            : Constant
  313. Bit rate                                 : 768 kb/s
  314. Channel(s)                               : 2 channels
  315. Channel layout                           : Lt Rt
  316. Sampling rate                            : 48.0 kHz
  317. Frame rate                               : 93.750 FPS (512 SPF)
  318. Bit depth                                : 24 bits
  319. Compression mode                         : Lossy
  320. Delay relative to video                  : 2 s 2 ms
  321. Stream size                              : 345 MiB (1%)
  322. Title                                    : Game.of.Thrones.S03E10.Mhysa.2160p.BluRay.REMUX.HEVC.DTS-HD.MA.TrueHD.7.1.Atmos-FGT
  323. Language                                 : Polish
  324. Default                                  : No
  325. Forced                                   : No
  326. Original source medium                   : Blu-ray

  327. Audio #13
  328. ID                                       : 15
  329. ID in the original source medium         : 4363 (0x110B)
  330. Format                                   : DTS
  331. Format/Info                              : Digital Theater Systems
  332. Codec ID                                 : A_DTS
  333. Duration                                 : 1 h 2 min
  334. Bit rate mode                            : Constant
  335. Bit rate                                 : 768 kb/s
  336. Channel(s)                               : 2 channels
  337. Channel layout                           : L R
  338. Sampling rate                            : 48.0 kHz
  339. Frame rate                               : 93.750 FPS (512 SPF)
  340. Bit depth                                : 24 bits
  341. Compression mode                         : Lossy
  342. Delay relative to video                  : 2 s 2 ms
  343. Stream size                              : 345 MiB (1%)
  344. Title                                    : Game.of.Thrones.S03E10.Mhysa.2160p.BluRay.REMUX.HEVC.DTS-HD.MA.TrueHD.7.1.Atmos-FGT
  345. Language                                 : Russian
  346. Default                                  : No
  347. Forced                                   : No
  348. Original source medium                   : Blu-ray

  349. Audio #14
  350. ID                                       : 16
  351. ID in the original source medium         : 4364 (0x110C)
  352. Format                                   : AC-3
  353. Format/Info                              : Audio Coding 3
  354. Commercial name                          : Dolby Digital
  355. Codec ID                                 : A_AC3
  356. Duration                                 : 1 h 2 min
  357. Bit rate mode                            : Constant
  358. Bit rate                                 : 448 kb/s
  359. Channel(s)                               : 6 channels
  360. Channel layout                           : L R C LFE Ls Rs
  361. Sampling rate                            : 48.0 kHz
  362. Frame rate                               : 31.250 FPS (1536 SPF)
  363. Compression mode                         : Lossy
  364. Stream size                              : 201 MiB (1%)
  365. Title                                    : Game.of.Thrones.S03E10.Mhysa.2160p.BluRay.REMUX.HEVC.DTS-HD.MA.TrueHD.7.1.Atmos-FGT
  366. Language                                 : English
  367. Service kind                             : Complete Main
  368. Default                                  : No
  369. Forced                                   : No
  370. Original source medium                   : Blu-ray

  371. Text #1
  372. ID                                       : 17
  373. Format                                   : UTF-8
  374. Codec ID                                 : S_TEXT/UTF8
  375. Codec ID/Info                            : UTF-8 Plain Text
  376. Duration                                 : 2 min 3 s
  377. Bit rate                                 : 23 b/s
  378. Count of elements                        : 13
  379. Stream size                              : 369 Bytes (0%)
  380. Title                                    : English-FORCED-SRT
  381. Language                                 : English
  382. Default                                  : Yes
  383. Forced                                   : Yes

  384. Text #2
  385. ID                                       : 18
  386. Format                                   : UTF-8
  387. Codec ID                                 : S_TEXT/UTF8
  388. Codec ID/Info                            : UTF-8 Plain Text
  389. Duration                                 : 57 min 53 s
  390. Bit rate                                 : 57 b/s
  391. Count of elements                        : 788
  392. Stream size                              : 24.5 KiB (0%)
  393. Title                                    : English-SRT
  394. Language                                 : English
  395. Default                                  : No
  396. Forced                                   : No

  397. Text #3
  398. ID                                       : 19
  399. Format                                   : PGS
  400. Muxing mode                              : zlib
  401. Codec ID                                 : S_HDMV/PGS
  402. Codec ID/Info                            : Picture based subtitle format used on BDs/HD-DVDs
  403. Duration                                 : 2 min 3 s
  404. Bit rate                                 : 14.9 kb/s
  405. Count of elements                        : 26
  406. Stream size                              : 224 KiB (0%)
  407. Title                                    : English-FORCED-PGS
  408. Language                                 : English
  409. Default                                  : No
  410. Forced                                   : No

  411. Text #4
  412. ID                                       : 20
  413. Format                                   : PGS
  414. Muxing mode                              : zlib
  415. Codec ID                                 : S_HDMV/PGS
  416. Codec ID/Info                            : Picture based subtitle format used on BDs/HD-DVDs
  417. Duration                                 : 59 min 13 s
  418. Bit rate                                 : 39.3 kb/s
  419. Count of elements                        : 1746
  420. Stream size                              : 16.6 MiB (0%)
  421. Title                                    : English-PGS
  422. Language                                 : English
  423. Default                                  : No
  424. Forced                                   : No

  425. Text #5
  426. ID                                       : 21
  427. Format                                   : PGS
  428. Muxing mode                              : zlib
  429. Codec ID                                 : S_HDMV/PGS
  430. Codec ID/Info                            : Picture based subtitle format used on BDs/HD-DVDs
  431. Duration                                 : 57 min 53 s
  432. Bit rate                                 : 28.1 kb/s
  433. Count of elements                        : 1454
  434. Stream size                              : 11.6 MiB (0%)
  435. Title                                    : Chinese-PGS
  436. Language                                 : Chinese
  437. Default                                  : No
  438. Forced                                   : No

  439. Text #6
  440. ID                                       : 22
  441. Format                                   : PGS
  442. Muxing mode                              : zlib
  443. Codec ID                                 : S_HDMV/PGS
  444. Codec ID/Info                            : Picture based subtitle format used on BDs/HD-DVDs
  445. Duration                                 : 1 h 0 min
  446. Bit rate                                 : 28.7 kb/s
  447. Count of elements                        : 1004
  448. Stream size                              : 12.5 MiB (0%)
  449. Title                                    : Croatian-PGS
  450. Language                                 : Croatian
  451. Default                                  : No
  452. Forced                                   : No

  453. Text #7
  454. ID                                       : 23
  455. Format                                   : PGS
  456. Muxing mode                              : zlib
  457. Codec ID                                 : S_HDMV/PGS
  458. Codec ID/Info                            : Picture based subtitle format used on BDs/HD-DVDs
  459. Duration                                 : 57 min 14 s
  460. Bit rate                                 : 33.3 kb/s
  461. Count of elements                        : 1202
  462. Stream size                              : 13.6 MiB (0%)
  463. Title                                    : Czech-PGS
  464. Language                                 : Czech
  465. Default                                  : No
  466. Forced                                   : No

  467. Text #8
  468. ID                                       : 24
  469. Format                                   : PGS
  470. Muxing mode                              : zlib
  471. Codec ID                                 : S_HDMV/PGS
  472. Codec ID/Info                            : Picture based subtitle format used on BDs/HD-DVDs
  473. Duration                                 : 57 min 53 s
  474. Bit rate                                 : 35.7 kb/s
  475. Count of elements                        : 1454
  476. Stream size                              : 14.8 MiB (0%)
  477. Title                                    : Danish-PGS
  478. Language                                 : Danish
  479. Default                                  : No
  480. Forced                                   : No

  481. Text #9
  482. ID                                       : 25
  483. Format                                   : PGS
  484. Muxing mode                              : zlib
  485. Codec ID                                 : S_HDMV/PGS
  486. Codec ID/Info                            : Picture based subtitle format used on BDs/HD-DVDs
  487. Duration                                 : 57 min 53 s
  488. Bit rate                                 : 36.6 kb/s
  489. Count of elements                        : 1454
  490. Stream size                              : 15.1 MiB (0%)
  491. Title                                    : Dutch-PGS
  492. Language                                 : Dutch
  493. Default                                  : No
  494. Forced                                   : No

  495. Text #10
  496. ID                                       : 26
  497. Format                                   : PGS
  498. Muxing mode                              : zlib
  499. Codec ID                                 : S_HDMV/PGS
  500. Codec ID/Info                            : Picture based subtitle format used on BDs/HD-DVDs
  501. Duration                                 : 57 min 53 s
  502. Bit rate                                 : 33.2 kb/s
  503. Count of elements                        : 1454
  504. Stream size                              : 13.7 MiB (0%)
  505. Title                                    : Finnish-PGS
  506. Language                                 : Finnish
  507. Default                                  : No
  508. Forced                                   : No

  509. Text #11
  510. ID                                       : 27
  511. Format                                   : PGS
  512. Muxing mode                              : zlib
  513. Codec ID                                 : S_HDMV/PGS
  514. Codec ID/Info                            : Picture based subtitle format used on BDs/HD-DVDs
  515. Duration                                 : 57 min 14 s
  516. Bit rate                                 : 33.2 kb/s
  517. Count of elements                        : 1528
  518. Stream size                              : 13.6 MiB (0%)
  519. Title                                    : French-PGS
  520. Language                                 : French
  521. Default                                  : No
  522. Forced                                   : No

  523. Text #12
  524. ID                                       : 28
  525. Format                                   : PGS
  526. Muxing mode                              : zlib
  527. Codec ID                                 : S_HDMV/PGS
  528. Codec ID/Info                            : Picture based subtitle format used on BDs/HD-DVDs
  529. Duration                                 : 57 min 14 s
  530. Bit rate                                 : 37.9 kb/s
  531. Count of elements                        : 1380
  532. Stream size                              : 15.5 MiB (0%)
  533. Title                                    : German-PGS
  534. Language                                 : German
  535. Default                                  : No
  536. Forced                                   : No

  537. Text #13
  538. ID                                       : 29
  539. Format                                   : PGS
  540. Muxing mode                              : zlib
  541. Codec ID                                 : S_HDMV/PGS
  542. Codec ID/Info                            : Picture based subtitle format used on BDs/HD-DVDs
  543. Duration                                 : 57 min 42 s
  544. Bit rate                                 : 41.3 kb/s
  545. Count of elements                        : 1456
  546. Stream size                              : 17.0 MiB (0%)
  547. Title                                    : Greek-PGS
  548. Language                                 : Greek
  549. Default                                  : No
  550. Forced                                   : No

  551. Text #14
  552. ID                                       : 30
  553. Format                                   : PGS
  554. Muxing mode                              : zlib
  555. Codec ID                                 : S_HDMV/PGS
  556. Codec ID/Info                            : Picture based subtitle format used on BDs/HD-DVDs
  557. Duration                                 : 57 min 20 s
  558. Bit rate                                 : 22.8 kb/s
  559. Count of elements                        : 1158
  560. Stream size                              : 9.36 MiB (0%)
  561. Title                                    : Hebrew-PGS
  562. Language                                 : Hebrew
  563. Default                                  : No
  564. Forced                                   : No

  565. Text #15
  566. ID                                       : 31
  567. Format                                   : PGS
  568. Muxing mode                              : zlib
  569. Codec ID                                 : S_HDMV/PGS
  570. Codec ID/Info                            : Picture based subtitle format used on BDs/HD-DVDs
  571. Duration                                 : 57 min 14 s
  572. Bit rate                                 : 35.1 kb/s
  573. Count of elements                        : 1422
  574. Stream size                              : 14.4 MiB (0%)
  575. Title                                    : Hungarian-PGS
  576. Language                                 : Hungarian
  577. Default                                  : No
  578. Forced                                   : No

  579. Text #16
  580. ID                                       : 32
  581. Format                                   : PGS
  582. Muxing mode                              : zlib
  583. Codec ID                                 : S_HDMV/PGS
  584. Codec ID/Info                            : Picture based subtitle format used on BDs/HD-DVDs
  585. Duration                                 : 1 h 0 min
  586. Bit rate                                 : 38.4 kb/s
  587. Count of elements                        : 1754
  588. Stream size                              : 16.7 MiB (0%)
  589. Title                                    : Italian-PGS
  590. Language                                 : Italian
  591. Default                                  : No
  592. Forced                                   : No

  593. Text #17
  594. ID                                       : 33
  595. Format                                   : PGS
  596. Muxing mode                              : zlib
  597. Codec ID                                 : S_HDMV/PGS
  598. Codec ID/Info                            : Picture based subtitle format used on BDs/HD-DVDs
  599. Duration                                 : 58 min 25 s
  600. Bit rate                                 : 23.0 kb/s
  601. Count of elements                        : 1452
  602. Stream size                              : 9.63 MiB (0%)
  603. Title                                    : Korean-PGS
  604. Language                                 : Korean
  605. Default                                  : No
  606. Forced                                   : No

  607. Text #18
  608. ID                                       : 34
  609. Format                                   : PGS
  610. Muxing mode                              : zlib
  611. Codec ID                                 : S_HDMV/PGS
  612. Codec ID/Info                            : Picture based subtitle format used on BDs/HD-DVDs
  613. Duration                                 : 57 min 53 s
  614. Bit rate                                 : 34.2 kb/s
  615. Count of elements                        : 1454
  616. Stream size                              : 14.2 MiB (0%)
  617. Title                                    : Norwegian-PGS
  618. Language                                 : Norwegian
  619. Default                                  : No
  620. Forced                                   : No

  621. Text #19
  622. ID                                       : 35
  623. Format                                   : PGS
  624. Muxing mode                              : zlib
  625. Codec ID                                 : S_HDMV/PGS
  626. Codec ID/Info                            : Picture based subtitle format used on BDs/HD-DVDs
  627. Duration                                 : 57 min 14 s
  628. Bit rate                                 : 29.9 kb/s
  629. Count of elements                        : 1314
  630. Stream size                              : 12.3 MiB (0%)
  631. Title                                    : Polish-PGS
  632. Language                                 : Polish
  633. Default                                  : No
  634. Forced                                   : No

  635. Text #20
  636. ID                                       : 36
  637. Format                                   : PGS
  638. Muxing mode                              : zlib
  639. Codec ID                                 : S_HDMV/PGS
  640. Codec ID/Info                            : Picture based subtitle format used on BDs/HD-DVDs
  641. Duration                                 : 57 min 53 s
  642. Bit rate                                 : 39.0 kb/s
  643. Count of elements                        : 1502
  644. Stream size                              : 16.2 MiB (0%)
  645. Title                                    : Portuguese-PGS
  646. Language                                 : Portuguese
  647. Default                                  : No
  648. Forced                                   : No

  649. Text #21
  650. ID                                       : 37
  651. Format                                   : PGS
  652. Muxing mode                              : zlib
  653. Codec ID                                 : S_HDMV/PGS
  654. Codec ID/Info                            : Picture based subtitle format used on BDs/HD-DVDs
  655. Duration                                 : 58 min 26 s
  656. Bit rate                                 : 37.8 kb/s
  657. Count of elements                        : 1374
  658. Stream size                              : 15.8 MiB (0%)
  659. Title                                    : Portuguese-PGS
  660. Language                                 : Portuguese
  661. Default                                  : No
  662. Forced                                   : No

  663. Text #22
  664. ID                                       : 38
  665. Format                                   : PGS
  666. Muxing mode                              : zlib
  667. Codec ID                                 : S_HDMV/PGS
  668. Codec ID/Info                            : Picture based subtitle format used on BDs/HD-DVDs
  669. Duration                                 : 58 min 20 s
  670. Bit rate                                 : 30.5 kb/s
  671. Count of elements                        : 1160
  672. Stream size                              : 12.7 MiB (0%)
  673. Title                                    : Romanian-PGS
  674. Language                                 : Romanian
  675. Default                                  : No
  676. Forced                                   : No

  677. Text #23
  678. ID                                       : 39
  679. Format                                   : PGS
  680. Muxing mode                              : zlib
  681. Codec ID                                 : S_HDMV/PGS
  682. Codec ID/Info                            : Picture based subtitle format used on BDs/HD-DVDs
  683. Duration                                 : 57 min 52 s
  684. Bit rate                                 : 36.6 kb/s
  685. Count of elements                        : 1710
  686. Stream size                              : 15.1 MiB (0%)
  687. Title                                    : Russian-PGS
  688. Language                                 : Russian
  689. Default                                  : No
  690. Forced                                   : No

  691. Text #24
  692. ID                                       : 40
  693. Format                                   : PGS
  694. Muxing mode                              : zlib
  695. Codec ID                                 : S_HDMV/PGS
  696. Codec ID/Info                            : Picture based subtitle format used on BDs/HD-DVDs
  697. Duration                                 : 1 h 0 min
  698. Bit rate                                 : 28.6 kb/s
  699. Count of elements                        : 1002
  700. Stream size                              : 12.5 MiB (0%)
  701. Title                                    : Slovenian-PGS
  702. Language                                 : Slovenian
  703. Default                                  : No
  704. Forced                                   : No

  705. Text #25
  706. ID                                       : 41
  707. Format                                   : PGS
  708. Muxing mode                              : zlib
  709. Codec ID                                 : S_HDMV/PGS
  710. Codec ID/Info                            : Picture based subtitle format used on BDs/HD-DVDs
  711. Duration                                 : 57 min 14 s
  712. Bit rate                                 : 36.9 kb/s
  713. Count of elements                        : 1350
  714. Stream size                              : 15.1 MiB (0%)
  715. Title                                    : Spanish-PGS
  716. Language                                 : Spanish
  717. Default                                  : No
  718. Forced                                   : No

  719. Text #26
  720. ID                                       : 42
  721. Format                                   : PGS
  722. Muxing mode                              : zlib
  723. Codec ID                                 : S_HDMV/PGS
  724. Codec ID/Info                            : Picture based subtitle format used on BDs/HD-DVDs
  725. Duration                                 : 58 min 24 s
  726. Bit rate                                 : 37.0 kb/s
  727. Count of elements                        : 1530
  728. Stream size                              : 15.4 MiB (0%)
  729. Title                                    : Spanish-PGS
  730. Language                                 : Spanish
  731. Default                                  : No
  732. Forced                                   : No

  733. Text #27
  734. ID                                       : 43
  735. Format                                   : PGS
  736. Muxing mode                              : zlib
  737. Codec ID                                 : S_HDMV/PGS
  738. Codec ID/Info                            : Picture based subtitle format used on BDs/HD-DVDs
  739. Duration                                 : 57 min 53 s
  740. Bit rate                                 : 36.5 kb/s
  741. Count of elements                        : 1454
  742. Stream size                              : 15.1 MiB (0%)
  743. Title                                    : Swedish-PGS
  744. Language                                 : Swedish
  745. Default                                  : No
  746. Forced                                   : No

  747. Text #28
  748. ID                                       : 44
  749. Format                                   : PGS
  750. Muxing mode                              : zlib
  751. Codec ID                                 : S_HDMV/PGS
  752. Codec ID/Info                            : Picture based subtitle format used on BDs/HD-DVDs
  753. Duration                                 : 57 min 53 s
  754. Bit rate                                 : 29.4 kb/s
  755. Count of elements                        : 1454
  756. Stream size                              : 12.2 MiB (0%)
  757. Title                                    : Thai-PGS
  758. Language                                 : Thai
  759. Default                                  : No
  760. Forced                                   : No

  761. Text #29
  762. ID                                       : 45
  763. Format                                   : PGS
  764. Muxing mode                              : zlib
  765. Codec ID                                 : S_HDMV/PGS
  766. Codec ID/Info                            : Picture based subtitle format used on BDs/HD-DVDs
  767. Duration                                 : 57 min 53 s
  768. Bit rate                                 : 37.1 kb/s
  769. Count of elements                        : 1454
  770. Stream size                              : 15.3 MiB (0%)
  771. Title                                    : Turkish-PGS
  772. Language                                 : Turkish
  773. Default                                  : No
  774. Forced                                   : No

  775. Menu
  776. 00:00:00.000                             : en:Chapter 1
  777. 00:01:56.116                             : en:Chapter 2
  778. 00:12:57.235                             : en:Chapter 3
  779. 00:20:52.376                             : en:Chapter 4
  780. 00:27:07.292                             : en:Chapter 5
  781. 00:35:24.497                             : en:Chapter 6
  782. 00:42:43.394                             : en:Chapter 7
  783. 00:51:28.043                             : en:Chapter 8
  784. 01:01:25.682                             : en:Chapter 9
复制代码


权力的游戏第一季/冰与火之歌:权力的游戏第一季 Game.of.Thrones.S03.2160p.BluRay.REMUX.HEVC.DTS-HD.MA.TrueHD.7.1.Atmos-FGT 290.75GB-2.png 权力的游戏第一季/冰与火之歌:权力的游戏第一季 Game.of.Thrones.S03.2160p.BluRay.REMUX.HEVC.DTS-HD.MA.TrueHD.7.1.Atmos-FGT 290.75GB-3.png 权力的游戏第一季/冰与火之歌:权力的游戏第一季 Game.of.Thrones.S03.2160p.BluRay.REMUX.HEVC.DTS-HD.MA.TrueHD.7.1.Atmos-FGT 290.75GB-4.png




回复

使用道具 举报

发表于 2020-11-10 08:04:00 | 显示全部楼层

这东西我收了!谢谢楼主!蓝光电影网真好!
回复 支持 反对

使用道具 举报

 成长值: 6235

发表于 2020-11-10 08:19:10 | 显示全部楼层

楼主,我太崇拜你了!我想我是一天也不能离开蓝光电影网
回复 支持 反对

使用道具 举报

 成长值: 5560

发表于 2020-11-10 10:07:32 | 显示全部楼层
谢谢楼主无私分享。
回复 支持 反对

使用道具 举报

发表于 2020-11-10 10:12:39 | 显示全部楼层
感谢楼主分享
回复 支持 反对

使用道具 举报

发表于 2020-11-10 14:27:39 | 显示全部楼层
谢谢分享!
回复

使用道具 举报

 成长值: 150

发表于 2020-11-10 16:34:52 | 显示全部楼层
谢谢楼主分享好资源!
回复 支持 反对

使用道具 举报

发表于 2020-11-10 16:34:55 | 显示全部楼层
感谢分享,乐于下载!
回复 支持 反对

使用道具 举报

发表于 2020-11-10 18:21:05 | 显示全部楼层

这东西我收了!谢谢楼主!蓝光电影网真好!
回复 支持 反对

使用道具 举报

发表于 2020-11-10 18:58:06 | 显示全部楼层
楼主发贴辛苦了,谢谢楼主分享!我觉得蓝光电影网是注册对了!
回复 支持 反对

使用道具 举报

懒得打字嘛,点击右侧快捷回复 【右侧内容,后台自定义】
您需要登录后才可以回帖 登录 | 立即加入

本版积分规则

现在加入蓝光电影网,注册一个账号
上个主题 下个主题 快速回复 收藏帖子 返回列表 客服中心 搜索

手机版|小黑屋| 蓝光电影网 |网站地图 

Copyright © 2015-2019 Comsenz Inc.  Template by 蓝光电影论坛 All Rights Reserved.

Powered by 蓝光电影网 X3.4

特别声明:本站所有资源均由网上收集而来,版权归原影音公司所有,如果侵犯了你的权益,请通知我们,我们会及时删除侵权内容.

快速回复 返回顶部 返回列表