找回密码

蓝光电影网

查看: 155|回复: 2

[8bit.SDR] 海扁王 Kick-Ass.2010.2160p.BluRay.x264.8bit.SDR.DTS-HD.MA.TrueHD.7.1.Atmos-SWTYBLZ 57.78GB

[复制链接]

 成长值: 28405

发表于 2020-10-15 13:14:40 | 显示全部楼层 |阅读模式

海扁王 Kick-Ass.2010.2160p.BluRay.x264.8bit.SDR.DTS-HD.MA.TrueHD.7.1.Atmos-SWTYBLZ 57.78GB-1.jpg

译  名 海扁王/劲揪侠(港)/特攻联盟(台)/超屌侠

片  名 Kick-Ass

年  代 2010

产  地 美国/英国

类  别 动作/犯罪/惊悚

语  言 英语

上映日期 2010-04-16

IMDb评分  7.7/10 from 467,143 users

IMDb链接  http://www.imdb.com/title/tt1250777/

豆瓣评分 7.5/10 from 161,769 users

豆瓣链接 https://movie.douban.com/subject/3148748/

片  长 117 分钟

导  演 马修·沃恩 Matthew Vaughn

主  演 亚伦·约翰逊 Aaron Johnson

      科洛·莫瑞兹 Chloe Moretz

      尼古拉斯·凯奇 Nicolas Cage

      克里斯托夫·梅兹-普莱瑟 Christopher Mintz-Plasse

      马克·斯创 Mark Strong

      琳德西·冯塞卡 Lyndsy Fonseca

      伊万·彼得斯 Evan Peters

      克拉克 杜克 Clark Duke

      黛博拉·特维斯 Deborah Twiss

      Garrett M. Brown

      苏菲·吴 Sophie Wu




简  介




  戴夫·莱泽斯基(亚伦·约翰逊 Aaron Johnson 饰)和所有普通的男孩一样,梦想有一天可以成为超级英雄,只不过他把自己的这一梦想带入了现实。在网上购买到一套廉价的绿色连体衣之后,戴夫便开始了只身打击犯罪的行动。虽然第一次行动便让戴夫身负重伤,不过戴夫可不是一个轻言放弃的人,伤愈之后的戴夫在一次阻止斗殴时,被热心的群众发现并拍摄,之后关于超级英雄“海扁王”的事迹便传遍整个城市。成为传说中超级英雄的戴夫在一次行动中结识超级英雄父女“大老爸”(尼古拉斯·凯奇 Nicolas Cage饰)和“超杀女”(科洛·莫瑞兹 Chloe Moretz 饰),之后戴夫遭毒枭集团老大弗兰克·阿米克(马克·斯特朗 Mark Strong 饰)之子伪装成的英雄“红旋风”(克里斯托夫·梅兹-普莱瑟 Christopher Mintz-Plasse 饰)的利用,让“大老爸”和自己身陷囹圄。危难之时,“超杀女”及时出现救出戴夫,但“大老爸” 却不幸身亡。“超杀女”决定完成其父遗志,彻底消灭毒枭集团……

  本片根据马克·米勒(Mark Millar)著名同名漫画改编。




获奖情况




  第23届欧洲电影奖  (2010)

  观众选择奖(提名)




  第20届MTV电影奖  (2011)

  MTV电影奖 突破表演奖 科洛·莫瑞兹

  MTV电影奖 最佳打斗(提名) 科洛·莫瑞兹 / 马克·斯特朗




  第10届凤凰城影评人协会奖  (2010)

  最佳女配角(提名) 科洛·莫瑞兹

  最佳特技表演(提名)

  最具突破表演 科洛·莫瑞兹




  第12届美国青少年选择奖  (2010)

  最佳动作冒险电影(提名)

  最佳动作冒险电影男演员(提名) 尼古拉斯·凯奇

  最佳电影反派(提名) 克里斯托夫·梅兹-普莱瑟

  Choice Movie Breakout: Male(提名) 亚伦·泰勒-约翰逊

  Choice Movie Breakout: Female(提名) 科洛·莫瑞兹





  1. Video
  2. ID                                       : 1
  3. Format                                   : AVC
  4. Format/Info                              : Advanced Video Codec
  5. Format profile                           : High@L4
  6. Format settings, CABAC                   : Yes
  7. Format settings, ReFrames                : 5 frames
  8. Codec ID                                 : V_MPEG4/ISO/AVC
  9. Duration                                 : 1 h 57 min
  10. Bit rate                                 : 60.2 Mb/s
  11. Width                                    : 3 840 pixels
  12. Height                                   : 1 600 pixels
  13. Display aspect ratio                     : 2.40:1
  14. Frame rate mode                          : Constant
  15. Frame rate                               : 23.976 (24000/1001) FPS
  16. Color space                              : YUV
  17. Chroma subsampling                       : 4:2:0
  18. Bit depth                                : 8 bits
  19. Scan type                                : Progressive
  20. Bits/(Pixel*Frame)                       : 0.408
  21. Stream size                              : 49.5 GiB (86%)
  22. Title                                    : Kick-Ass.2010.2160p.BluRay.x264.8bit.SDR.DTS-HD.MA.TrueHD.7.1.Atmos-SWTYBLZ
  23. Writing library                          : x264 core 148 r2748 97eaef2
  24. Encoding settings                        : cabac=1 / ref=5 / deblock=1:-1:-1 / analyse=0x3:0x113 / me=umh / subme=10 / psy=1 / psy_rd=1.00:0.15 / mixed_ref=1 / me_range=48 / chroma_me=1 / trellis=2 / 8x8dct=1 / cqm=0 / deadzone=21,11 / fast_pskip=1 / chroma_qp_offset=-3 / threads=36 / lookahead_threads=3 / sliced_threads=0 / nr=0 / decimate=0 / interlaced=0 / bluray_compat=0 / constrained_intra=0 / bframes=3 / b_pyramid=2 / b_adapt=2 / b_bias=0 / direct=3 / weightb=1 / open_gop=0 / weightp=2 / keyint=250 / keyint_min=23 / scenecut=40 / intra_refresh=0 / rc_lookahead=50 / rc=crf / mbtree=1 / crf=18.0 / qcomp=0.60 / qpmin=0 / qpmax=69 / qpstep=4 / ip_ratio=1.40 / aq=1:1.00
  25. Language                                 : English
  26. Default                                  : Yes
  27. Forced                                   : No

  28. Audio #1
  29. ID                                       : 2
  30. Format                                   : TrueHD
  31. Format profile                           : TrueHD+Atmos / TrueHD
  32. Codec ID                                 : A_TRUEHD
  33. Duration                                 : 1 h 57 min
  34. Bit rate mode                            : Variable
  35. Bit rate                                 : 4 854 kb/s
  36. Maximum bit rate                         : 9 444 kb/s
  37. Channel(s)                               : Object Based / 8 channels
  38. Channel positions                        : Object Based / Front: L C R, Side: L R, Back: L R, LFE
  39. Sampling rate                            :  / 48.0 kHz
  40. Frame rate                               : 1 200.000 FPS (40 spf)
  41. Compression mode                         : Lossless
  42. Stream size                              : 3.99 GiB (7%)
  43. Title                                    : Kick-Ass.2010.2160p.BluRay.x264.8bit.SDR.DTS-HD.MA.TrueHD.7.1.Atmos-SWTYBLZ
  44. Language                                 : English
  45. Default                                  : Yes
  46. Forced                                   : No

  47. Audio #2
  48. ID                                       : 3
  49. Format                                   : DTS
  50. Format/Info                              : Digital Theater Systems
  51. Format profile                           : MA / Core
  52. Mode                                     : 16
  53. Format settings, Endianness              : Big
  54. Codec ID                                 : A_DTS
  55. Duration                                 : 1 h 57 min
  56. Bit rate mode                            : Variable / Constant
  57. Bit rate                                 : 3 840 kb/s / 1 509 kb/s
  58. Channel(s)                               : 8 channels / 6 channels
  59. Channel positions                        : Front: L C R, Side: L R, Back: L R, LFE / Front: L C R, Side: L R, LFE
  60. Sampling rate                            : 48.0 kHz
  61. Frame rate                               : 93.750 FPS (512 spf)
  62. Bit depth                                : 24 bits
  63. Compression mode                         : Lossless / Lossy
  64. Stream size                              : 3.18 GiB (6%)
  65. Title                                    : Kick-Ass.2010.2160p.BluRay.x264.8bit.SDR.DTS-HD.MA.TrueHD.7.1.Atmos-SWTYBLZ
  66. Language                                 : English
  67. Default                                  : No
  68. Forced                                   : No

  69. Audio #3
  70. ID                                       : 4
  71. Format                                   : AC-3
  72. Format/Info                              : Audio Coding 3
  73. Format settings, Endianness              : Big
  74. Codec ID                                 : A_AC3
  75. Duration                                 : 1 h 57 min
  76. Bit rate mode                            : Constant
  77. Bit rate                                 : 640 kb/s
  78. Channel(s)                               : 6 channels
  79. Channel positions                        : Front: L C R, Side: L R, LFE
  80. Sampling rate                            : 48.0 kHz
  81. Frame rate                               : 31.250 FPS (1536 spf)
  82. Bit depth                                : 16 bits
  83. Compression mode                         : Lossy
  84. Stream size                              : 539 MiB (1%)
  85. Title                                    : Kick-Ass.2010.2160p.BluRay.x264.8bit.SDR.DTS-HD.MA.TrueHD.7.1.Atmos-SWTYBLZ
  86. Language                                 : English
  87. Service kind                             : Complete Main
  88. Default                                  : No
  89. Forced                                   : No

  90. Text #1
  91. ID                                       : 5
  92. Format                                   : UTF-8
  93. Codec ID                                 : S_TEXT/UTF8
  94. Codec ID/Info                            : UTF-8 Plain Text
  95. Duration                                 : 1 h 50 min
  96. Bit rate                                 : 58 b/s
  97. Count of elements                        : 1335
  98. Stream size                              : 47.7 KiB (0%)
  99. Title                                    : English-SRT
  100. Language                                 : English
  101. Default                                  : Yes
  102. Forced                                   : No

  103. Text #2
  104. ID                                       : 6
  105. Format                                   : PGS
  106. Muxing mode                              : zlib
  107. Codec ID                                 : S_HDMV/PGS
  108. Codec ID/Info                            : Picture based subtitle format used on BDs/HD-DVDs
  109. Duration                                 : 1 h 50 min
  110. Bit rate                                 : 38.4 kb/s
  111. Count of elements                        : 2640
  112. Stream size                              : 30.3 MiB (0%)
  113. Title                                    : English-PGS
  114. Language                                 : English
  115. Default                                  : No
  116. Forced                                   : No

  117. Text #3
  118. ID                                       : 7
  119. Format                                   : PGS
  120. Muxing mode                              : zlib
  121. Codec ID                                 : S_HDMV/PGS
  122. Codec ID/Info                            : Picture based subtitle format used on BDs/HD-DVDs
  123. Duration                                 : 1 h 50 min
  124. Bit rate                                 : 41.2 kb/s
  125. Count of elements                        : 2902
  126. Stream size                              : 32.5 MiB (0%)
  127. Title                                    : English-SDH-PGS
  128. Language                                 : English
  129. Default                                  : No
  130. Forced                                   : No

  131. Text #4
  132. ID                                       : 8
  133. Format                                   : PGS
  134. Muxing mode                              : zlib
  135. Codec ID                                 : S_HDMV/PGS
  136. Codec ID/Info                            : Picture based subtitle format used on BDs/HD-DVDs
  137. Duration                                 : 1 h 57 min
  138. Bit rate                                 : 38.5 kb/s
  139. Count of elements                        : 3006
  140. Stream size                              : 32.2 MiB (0%)
  141. Title                                    : Spanish-PGS
  142. Language                                 : Spanish
  143. Default                                  : No
  144. Forced                                   : No

  145. Menu
  146. 00:00:00.000                             : en:Chapter 1
  147. 00:05:33.541                             : en:Chapter 2
  148. 00:15:55.829                             : en:Chapter 3
  149. 00:21:10.269                             : en:Chapter 4
  150. 00:28:17.904                             : en:Chapter 5
  151. 00:47:53.161                             : en:Chapter 6
  152. 00:52:35.026                             : en:Chapter 7
  153. 01:03:17.043                             : en:Chapter 8
  154. 01:10:17.087                             : en:Chapter 9
  155. 01:16:25.330                             : en:Chapter 10
  156. 01:25:17.487                             : en:Chapter 11
  157. 01:30:26.254                             : en:Chapter 12
  158. 01:38:17.558                             : en:Chapter 13
  159. 01:43:58.190                             : en:Chapter 14
  160. 01:47:05.627                             : en:Chapter 15
  161. 01:49:47.330                             : en:Chapter 16
复制代码







海扁王 Kick-Ass.2010.2160p.BluRay.x264.8bit.SDR.DTS-HD.MA.TrueHD.7.1.Atmos-SWTYBLZ 57.78GB-2.jpg
海扁王 Kick-Ass.2010.2160p.BluRay.x264.8bit.SDR.DTS-HD.MA.TrueHD.7.1.Atmos-SWTYBLZ 57.78GB-3.jpg

海扁王 Kick-Ass.2010.2160p.BluRay.x264.8bit.SDR.DTS-HD.MA.TrueHD.7.1.Atmos-SWTYBLZ 57.78GB-4.jpg
海扁王 Kick-Ass.2010.2160p.BluRay.x264.8bit.SDR.DTS-HD.MA.TrueHD.7.1.Atmos-SWTYBLZ 57.78GB-5.jpg

海扁王 Kick-Ass.2010.2160p.BluRay.x264.8bit.SDR.DTS-HD.MA.TrueHD.7.1.Atmos-SWTYBLZ 57.78GB-6.jpg
海扁王 Kick-Ass.2010.2160p.BluRay.x264.8bit.SDR.DTS-HD.MA.TrueHD.7.1.Atmos-SWTYBLZ 57.78GB-7.jpg







回复

使用道具 举报

发表于 2020-10-18 20:59:44 | 显示全部楼层
楼主发贴辛苦了,谢谢楼主分享!我觉得蓝光电影网是注册对了!
回复 支持 反对

使用道具 举报

发表于 2020-10-19 15:30:19 | 显示全部楼层
谢谢楼主分享!
回复 支持 反对

使用道具 举报

懒得打字嘛,点击右侧快捷回复 【右侧内容,后台自定义】
您需要登录后才可以回帖 登录 | 立即加入

本版积分规则

现在加入蓝光电影网,注册一个账号
上个主题 下个主题 快速回复 收藏帖子 返回列表 客服中心 搜索

手机版|小黑屋| 蓝光电影网 |网站地图 

Copyright © 2015-2019 Comsenz Inc.  Template by 蓝光电影论坛 All Rights Reserved.

Powered by 蓝光电影网 X3.4

特别声明:本站所有资源均由网上收集而来,版权归原影音公司所有,如果侵犯了你的权益,请通知我们,我们会及时删除侵权内容.

快速回复 返回顶部 返回列表