找回密码

蓝光电影网

查看: 324|回复: 12

[悬疑] 11点14分 11.14.2003.1080p.BluRay.x264.DTS-FGT 7.93GB

[复制链接]

 成长值: 26755

发表于 2020-7-1 00:24:24 | 显示全部楼层 |阅读模式
11点14分 11.14.2003.1080p.BluRay.x264.DTS-FGT 7.93GB-1.png


译  名 11点14分
片  名 11:14
年  代 2003
产  地 美国 / 加拿大
类  别 悬疑 / 犯罪
语  言 英语
上映日期 2003-05-16(戛纳电影节)
IMDb评分  7.2/10 from 44039 users
IMDb链接  https://www.imdb.com/title/tt0331811
豆瓣评分 7.6/10 from 32012 users
豆瓣链接 https://movie.douban.com/subject/1394825/
片  长 85分钟(多伦多电影节l)
导  演 Greg Marcks
编  剧 Greg Marcks
主  演 亨利·托马斯 Henry Thomas
       布莱克·赫伦 Blake Heron
       芭芭拉·赫希 Barbara Hershey
       克拉克·格雷格 Clark Gregg
       希拉里·斯万克 Hilary Swank
       肖恩·海托西 Shawn Hatosy
       斯塔克·桑德斯 Stark Sands
       科林·汉克斯 Colin Hanks
       本·福斯特 Ben Foster
       帕特里克·斯威兹 Patrick Swayze
       瑞切尔·蕾·库克 Rachael Leigh Cook
       杰森·席格尔 Jason Segel
       Rick Gomez


标  签 悬疑 | 黑色幽默 | 美国 | 犯罪 | 剧情 | 美国电影 | 2003 | 惊悚

简  介  

  杰克(亨利?托马斯 Henry Thomas 饰)夜间酒后驾驶,并用手机打电话聊天,却没曾想在穿过立交天桥时,一具尸体从天而降。便利店员达菲(萧恩?哈特西 Shawn Hatosy 饰)因女友雪莉(瑞切尔?蕾?库克 Rachel Leigh Cook 饰)怀孕打胎一事向同事步兹(希拉里?斯万克 Hillary Swank 饰)借钱,假扮便利店被劫。而此前,一群少年从便利店买了过期的甜甜圈,夜晚飙车并向他人投掷甜甜圈取乐。已打算和达菲分手的雪莉不顾父亲弗兰克(帕特里克?斯韦兹 Patrick Swayze 饰)的劝阻,擅自出门与新男友艾伦(布雷克? 海仑Blake Heron 饰)偷欢。所有一切的松散事件,都在11:14分相互交织,互为因果,让结局出人意料,不可思议。
  1. Video
  2. ID                                       : 1
  3. Format                                   : AVC
  4. Format/Info                              : Advanced Video Codec
  5. Format profile                           : High@L4
  6. Format settings, CABAC                   : Yes
  7. Format settings, ReFrames                : 6 frames
  8. Format settings, GOP                     : N=1
  9. Codec ID                                 : V_MPEG4/ISO/AVC
  10. Duration                                 : 1h 25mn
  11. Bit rate                                 : 11.7 Mbps
  12. Width                                    : 1 920 pixels
  13. Height                                   : 1 080 pixels
  14. Display aspect ratio                     : 16:9
  15. Frame rate mode                          : Constant
  16. Frame rate                               : 23.976 fps
  17. Color space                              : YUV
  18. Chroma subsampling                       : 4:2:0
  19. Bit depth                                : 8 bits
  20. Scan type                                : Progressive
  21. Bits/(Pixel*Frame)                       : 0.236
  22. Stream size                              : 6.87 GiB (87%)
  23. Writing library                          : x264 core 64 r985M e256ea1
  24. Encoding settings                        : cabac=1 / ref=6 / deblock=1:-3:-3 / analyse=0x3:0x133 / me=umh / subme=7 / psy_rd=1.0:0.0 / brdo=1 / mixed_ref=1 / me_range=32 / chroma_me=1 / trellis=0 / 8x8dct=1 / cqm=2 / deadzone=8,6 / chroma_qp_offset=-2 / threads=12 / nr=0 / decimate=0 / mbaff=0 / bframes=16 / b_pyramid=1 / b_adapt=1 / b_bias=0 / direct=3 / wpredb=1 / bime=1 / keyint=250 / keyint_min=25 / scenecut=40(pre) / rc=2pass / bitrate=11734 / ratetol=1.0 / qcomp=0.60 / qpmin=10 / qpmax=51 / qpstep=4 / cplxblur=20.0 / qblur=0.5 / ip_ratio=1.40 / pb_ratio=1.30 / aq=1:1.00
  25. Language                                 : English
  26. Default                                  : Yes
  27. Forced                                   : No

  28. Audio
  29. ID                                       : 2
  30. Format                                   : DTS
  31. Format/Info                              : Digital Theater Systems
  32. Mode                                     : 16
  33. Format settings, Endianness              : Big
  34. Codec ID                                 : A_DTS
  35. Duration                                 : 1h 25mn
  36. Bit rate mode                            : Constant
  37. Bit rate                                 : 1 509 Kbps
  38. Channel(s)                               : 6 channels
  39. Channel positions                        : Front: L C R, Side: L R, LFE
  40. Sampling rate                            : 48.0 KHz
  41. Bit depth                                : 24 bits
  42. Compression mode                         : Lossy
  43. Stream size                              : 925 MiB (11%)
  44. Language                                 : English
  45. Default                                  : Yes
  46. Forced                                   : No
复制代码









回复

使用道具 举报

 成长值: 4180

发表于 2020-7-1 09:33:09 | 显示全部楼层
太好啦&萬分感謝版主的無私發佈分享%
回复 支持 反对

使用道具 举报

发表于 2020-7-1 09:45:43 | 显示全部楼层
楼主发贴辛苦了,谢谢楼主分享!我觉得蓝光电影网是注册对了!
回复 支持 反对

使用道具 举报

 成长值: 3505

发表于 2020-7-1 10:04:21 | 显示全部楼层
谢谢楼主无私分享。
回复 支持 反对

使用道具 举报

 成长值: 1975

发表于 2020-7-1 10:39:16 | 显示全部楼层
感谢发布好片
回复 支持 反对

使用道具 举报

发表于 2020-7-1 15:01:44 | 显示全部楼层

楼主太厉害了!楼主,电影应该很好看我觉得蓝光电影网真是个好地方!
回复 支持 反对

使用道具 举报

发表于 2020-7-1 20:42:04 | 显示全部楼层

楼主太厉害了!楼主,电影应该很好看我觉得蓝光电影网真是个好地方!
回复 支持 反对

使用道具 举报

发表于 2020-7-1 23:39:18 | 显示全部楼层

我看不错噢 谢谢楼主!蓝光电影网越来越好!
回复 支持 反对

使用道具 举报

发表于 2020-7-2 00:19:40 | 显示全部楼层
Thanks for sharing
回复 支持 反对

使用道具 举报

发表于 2020-7-2 08:55:42 | 显示全部楼层

我看不错噢 谢谢楼主!蓝光电影网越来越好!
回复 支持 反对

使用道具 举报

懒得打字嘛,点击右侧快捷回复 【右侧内容,后台自定义】
您需要登录后才可以回帖 登录 | 立即加入

本版积分规则

上个主题 下个主题 快速回复 收藏帖子 返回列表 客服中心 搜索
现在加入蓝光电影网,注册一个账号

手机版|小黑屋| 蓝光电影网  |网站地图

Copyright © 2015-2019 Comsenz Inc.  Template by 蓝光电影论坛 All Rights Reserved.

Powered by 蓝光电影网 X3.4

特别声明:本站所有资源均由网上收集而来,版权归原影音公司所有,如果侵犯了你的权益,请通知我们,我们会及时删除侵权内容.

快速回复 返回顶部 返回列表