找回密码

蓝光电影网

查看: 77|回复: 2

[惊悚] 帕特里克/唬人医院 Patrick.2013.1080p.BluRay.x264.DTS-FGT 6.54GB

[复制链接]

 成长值: 26755

发表于 2020-7-1 00:20:00 | 显示全部楼层 |阅读模式
帕特里克/唬人医院 Patrick.2013.1080p.BluRay.x264.DTS-FGT 6.54GB-1.png


译  名 帕特里克 / 唬人医院
片  名 Patrick
年  代 2013
产  地 澳大利亚
类  别 惊悚 / 恐怖
语  言 英语
上映日期 2013-10-17(澳大利亚)
IMDb评分  4.9/10 from 3704 users
IMDb链接  https://www.imdb.com/title/tt2147459
豆瓣评分 5.9/10 from 124 users
豆瓣链接 https://movie.douban.com/subject/10773230/
片  长 96分钟
导  演 马克·哈特利 Mark Hartley
编  剧 Justin King
主  演 查尔斯·丹斯 Charles Dance
       瑞切尔·格里菲斯 Rachel Griffiths
       沙妮·文森 Sharni Vinson
       Peta Sergeant
       达蒙·加梅乌 Damon Gameau
       马丁·克鲁斯 Martin Crewes
       伊莉萨·泰勒-科特尔 Eliza Taylor-Cotter
       Simone Buchanan
       Shane Nagle
       Chris Fortuna
       Jackson Gallagher


标  签 恐怖 | 惊悚 | 澳大利亚 | 超能力 | 科幻 | 澳大利亚电影 | 邪恶灵魂 | 2014

简  介  

  帕特里克昏昏欲睡在一家小型私立医院,他唯一的举动是非自愿地随地吐痰。当一个刚与丈夫分开的年轻护士开始在医院工作时,她感觉到帕特里克正在与她交流,他似乎正在利用自己的心理力量来操纵她生活中的事件。
  1. Video
  2. ID                                       : 1
  3. Format                                   : AVC
  4. Format/Info                              : Advanced Video Codec
  5. Format profile                           : High@L4
  6. Format settings, CABAC                   : Yes
  7. Format settings, ReFrames                : 5 frames
  8. Codec ID                                 : V_MPEG4/ISO/AVC
  9. Duration                                 : 1h 35mn
  10. Bit rate                                 : 8 298 Kbps
  11. Width                                    : 1 920 pixels
  12. Height                                   : 800 pixels
  13. Display aspect ratio                     : 2.40:1
  14. Frame rate mode                          : Constant
  15. Frame rate                               : 24.000 fps
  16. Color space                              : YUV
  17. Chroma subsampling                       : 4:2:0
  18. Bit depth                                : 8 bits
  19. Scan type                                : Progressive
  20. Bits/(Pixel*Frame)                       : 0.225
  21. Stream size                              : 5.41 GiB (83%)
  22. Writing library                          : x264 core 142 r2409 d6b4e63
  23. Encoding settings                        : cabac=1 / ref=5 / deblock=1:0:0 / analyse=0x3:0x133 / me=umh / subme=8 / psy=1 / psy_rd=1.00:0.00 / mixed_ref=1 / me_range=16 / chroma_me=1 / trellis=1 / 8x8dct=1 / cqm=0 / deadzone=21,11 / fast_pskip=0 / chroma_qp_offset=-2 / threads=12 / lookahead_threads=2 / sliced_threads=0 / nr=0 / decimate=1 / interlaced=0 / bluray_compat=0 / constrained_intra=0 / bframes=3 / b_pyramid=2 / b_adapt=1 / b_bias=0 / direct=1 / weightb=1 / open_gop=0 / weightp=2 / keyint=250 / keyint_min=24 / scenecut=40 / intra_refresh=0 / rc_lookahead=40 / rc=2pass / mbtree=1 / bitrate=8298 / ratetol=1.0 / qcomp=0.60 / qpmin=0 / qpmax=69 / qpstep=4 / cplxblur=20.0 / qblur=0.5 / ip_ratio=1.40 / aq=1:1.00
  24. Language                                 : English
  25. Default                                  : Yes
  26. Forced                                   : No

  27. Audio
  28. ID                                       : 2
  29. Format                                   : DTS
  30. Format/Info                              : Digital Theater Systems
  31. Mode                                     : 16
  32. Format settings, Endianness              : Big
  33. Codec ID                                 : A_DTS
  34. Duration                                 : 1h 35mn
  35. Bit rate mode                            : Constant
  36. Bit rate                                 : 1 509 Kbps
  37. Channel(s)                               : 6 channels
  38. Channel positions                        : Front: L C R, Side: L R, LFE
  39. Sampling rate                            : 48.0 KHz
  40. Bit depth                                : 24 bits
  41. Compression mode                         : Lossy
  42. Stream size                              : 1.01 GiB (15%)
  43. Language                                 : English
  44. Default                                  : Yes
  45. Forced                                   : No

  46. Text
  47. ID                                       : 3
  48. Format                                   : UTF-8
  49. Codec ID                                 : S_TEXT/UTF8
  50. Codec ID/Info                            : UTF-8 Plain Text
  51. Language                                 : English
  52. Default                                  : No
  53. Forced                                   : No
复制代码

帕特里克/唬人医院 Patrick.2013.1080p.BluRay.x264.DTS-FGT 6.54GB-2.jpg
帕特里克/唬人医院 Patrick.2013.1080p.BluRay.x264.DTS-FGT 6.54GB-3.jpg
帕特里克/唬人医院 Patrick.2013.1080p.BluRay.x264.DTS-FGT 6.54GB-4.jpg
帕特里克/唬人医院 Patrick.2013.1080p.BluRay.x264.DTS-FGT 6.54GB-5.jpg







回复

使用道具 举报

发表于 2020-7-1 15:34:29 | 显示全部楼层
楼主发贴辛苦了,谢谢楼主分享!我觉得蓝光电影网是注册对了!
回复 支持 反对

使用道具 举报

发表于 2020-7-1 19:05:26 | 显示全部楼层
楼主发贴辛苦了,谢谢楼主分享!我觉得蓝光电影网是注册对了!
回复 支持 反对

使用道具 举报

懒得打字嘛,点击右侧快捷回复 【右侧内容,后台自定义】
您需要登录后才可以回帖 登录 | 立即加入

本版积分规则

上个主题 下个主题 快速回复 收藏帖子 返回列表 客服中心 搜索
现在加入蓝光电影网,注册一个账号

手机版|小黑屋| 蓝光电影网  |网站地图

Copyright © 2015-2019 Comsenz Inc.  Template by 蓝光电影论坛 All Rights Reserved.

Powered by 蓝光电影网 X3.4

特别声明:本站所有资源均由网上收集而来,版权归原影音公司所有,如果侵犯了你的权益,请通知我们,我们会及时删除侵权内容.

快速回复 返回顶部 返回列表