找回密码

蓝光电影网

查看: 77|回复: 2

[剧情] 后裔/后人 The.Descendants.2011.1080p.BluRay.x264.DTS-FGT 12.85GB

[复制链接]

 成长值: 26755

发表于 2020-7-1 00:14:50 | 显示全部楼层 |阅读模式
后裔/后人 The.Descendants.2011.1080p.BluRay.x264.DTS-FGT 12.85GB-1.png


译  名 后裔 / 后人 / 继承人生(台) / 继承大丈夫(港)
片  名 The Descendants
年  代 2011
产  地 美国
类  别 剧情 / 喜剧 / 家庭
语  言 英语
上映日期 2011-09-02(特柳赖德电影节) / 2011-12-09(美国)
IMDb评分  7.3/10 from 229170 users
IMDb链接  https://www.imdb.com/title/tt1033575
豆瓣评分 7.5/10 from 40846 users
豆瓣链接 https://movie.douban.com/subject/3071509/
片  长 115分钟
导  演 亚历山大·佩恩 Alexander Payne
编  剧 亚历山大·佩恩 Alexander Payne / 奈特·法松 Nat Faxon / 吉姆·拉什 Jim Rash / 凯·哈特·赫明斯 Kaui Hart Hemmings
主  演 乔治·克鲁尼 George Clooney
       谢琳·伍德蕾 Shailene Woodley
       阿玛拉·米勒 Amara Miller
       尼克·克劳斯 Nick Krause
       帕特丽夏·哈斯蒂 Patricia Hastie
       凯·哈特·赫明斯 Kaui Hart Hemmings
       博·布里奇斯 Beau Bridges
       马特·科博伊 Matt Corboy
       马特·埃斯克森 Matt Esecson
       迈克尔·昂吉恩 Michael Ontkean
       斯坦顿·约翰斯顿 Stanton Johnston
       米尔特·科根 Milt Kogan
       玛丽·伯德桑 Mary Birdsong
       罗布·许贝尔 Rob Huebel
       莱尔德·约翰·哈密尔顿 Laird John Hamilton
       罗伯特·福斯特 Robert Forster
       马修·里沃德 Matthew Lillard
       朱迪·格雷尔 Judy Greer
       斯科特·迈克尔·摩根 Scott Michael Morgan


标  签 美国 | 家庭 | 剧情 | 2011 | 亲情 | 温情 | 喜剧 | 人生

简  介  

  事业有成的律师马特(乔治·克鲁尼 George Clooney饰)的妻子因为一次意外变成了植物人。最近医生告诉他,妻子大限将至,令他倍受打击。同时,他作为夏威夷某岛的继承人还在与信托基金谈开发事宜。忙乱之中,两个女儿也不让马特省心:小女孩斯科蒂(阿玛拉·米勒 Amara Mil ler 饰)经常对同学爆粗口,马特只得带她亲自登门道歉;大女儿亚利桑德拉(谢琳·伍德蕾 Shailene Woodley 饰)住寄宿学校终日酗酒,母亲病重,马特希望亚利桑德拉摒弃对母亲的敌意,然而女儿却道出了母女决裂的原因——她发现了母亲出轨的事实。这彻底颠覆了妻子在马特心目中的印象。他跑去找妻子的闺蜜求证,答案竟然如出一辙。一直被蒙在鼓里的马特既失望又愤怒,开始带着女儿顺藤摸瓜,寻找第三者……
  本片获第84届奥斯卡最佳改编剧本奖。

获奖情况  

  第84届奥斯卡金像奖(2012)
  最佳影片(提名) 亚历山大·佩恩 / 吉姆·泰勒 / 吉姆·伯克
  最佳导演(提名) 亚历山大·佩恩
  最佳男主角(提名) 乔治·克鲁尼
  最佳改编剧本 亚历山大·佩恩 / 吉姆·拉什 / 奈特·法松
  最佳剪辑(提名) 凯文·坦特

  第69届金球奖(2012)
  电影类 最佳剧情片
  电影类 最佳导演(提名) 亚历山大·佩恩
  电影类 剧情片最佳男主角 乔治·克鲁尼
  电影类 最佳女配角(提名) 谢琳·伍德蕾
  电影类 最佳编剧(提名) 亚历山大·佩恩 / 吉姆·拉什 / 奈特·法松

  第21届MTV电影奖(2012)
  MTV电影奖 突破表演奖 谢琳·伍德蕾

  第77届纽约影评人协会奖(2011)
  最佳剧本(提名) 亚历山大·佩恩 / 吉姆·拉什 / 奈特·法松

  第17届美国评论家选择电影奖(2012)
  最佳影片(提名)
  最佳导演(提名) 亚历山大·佩恩
  最佳男主角 乔治·克鲁尼
  最佳女配角(提名) 谢琳·伍德蕾
  最佳青少年演员(提名) 谢琳·伍德蕾
  最佳群戏(提名)
  最佳改编剧本(提名) 亚历山大·佩恩 / 吉姆·拉什 / 奈特·法松

  第27届美国独立精神奖(2012)
  最佳影片(提名) 亚历山大·佩恩 / 吉姆·泰勒 / 吉姆·伯克
  最佳导演(提名) 亚历山大·佩恩
  最佳女配角 谢琳·伍德蕾
  最佳剧本 亚历山大·佩恩 / 吉姆·拉什 / 奈特·法松

  第12届美国电影学会奖(2011)
  年度佳片

  第10届华盛顿影评人协会奖(2011)
  最佳影片(提名)
  最佳导演(提名) 亚历山大·佩恩
  最佳男主角 乔治·克鲁尼
  最佳女配角(提名) 谢琳·伍德蕾
  最佳改编剧本 亚历山大·佩恩 / 吉姆·拉什 / 奈特·法松

  第32届波士顿影评人协会奖(2011)
  最佳男主角(提名) 乔治·克鲁尼
  最佳音乐(提名)

  第16届圣地亚哥影评人协会奖(2011)
  最佳男主角(提名) 乔治·克鲁尼
  最佳女配角 谢琳·伍德蕾
  最佳改编剧本(提名) 亚历山大·佩恩 / 吉姆·拉什 / 奈特·法松

  第24届芝加哥影评人协会奖(2011)
  最佳影片(提名)
  最佳导演(提名) 亚历山大·佩恩
  最佳男主角(提名) 乔治·克鲁尼
  最佳女配角(提名) 谢琳·伍德蕾
  最佳改编剧本(提名) 亚历山大·佩恩 / 吉姆·拉什 / 奈特·法松
  最具潜力演员(提名) 谢琳·伍德蕾

  第45届堪萨斯影评人协会奖(2012)
  最佳影片
  最佳男主角 乔治·克鲁尼

  第11届凤凰城影评人协会奖(2011)
  最佳导演(提名) 亚历山大·佩恩
  最佳男主角(提名) 乔治·克鲁尼
  最佳女配角(提名) 谢琳·伍德蕾
  最佳改编剧本(提名) 亚历山大·佩恩 / 吉姆·拉什 / 奈特·法松
  最佳青年女演员(提名) 阿玛拉·米勒
  十佳影片

  第20届东南影评人协会奖(2011)
  最佳影片
  最佳男主角 乔治·克鲁尼
  最佳女配角(提名) 谢琳·伍德蕾
  最佳改编剧本 亚历山大·佩恩 / 吉姆·拉什 / 奈特·法松
  最佳群像(提名)
  十大佳片

  第2届豆瓣电影鑫像奖(2012)
  鑫豆单元 最佳男演员(外语)(提名) 乔治·克鲁尼
  1. Video
  2. ID                                       : 1
  3. Format                                   : AVC
  4. Format/Info                              : Advanced Video Codec
  5. Format profile                           : High@L4
  6. Format settings, CABAC                   : Yes
  7. Format settings, ReFrames                : 5 frames
  8. Codec ID                                 : V_MPEG4/ISO/AVC
  9. Duration                                 : 1h 55mn
  10. Bit rate                                 : 14.5 Mbps
  11. Width                                    : 1 920 pixels
  12. Height                                   : 800 pixels
  13. Display aspect ratio                     : 2.40:1
  14. Frame rate mode                          : Constant
  15. Frame rate                               : 23.976 fps
  16. Color space                              : YUV
  17. Chroma subsampling                       : 4:2:0
  18. Bit depth                                : 8 bits
  19. Scan type                                : Progressive
  20. Bits/(Pixel*Frame)                       : 0.394
  21. Stream size                              : 11.4 GiB (89%)
  22. Writing library                          : x264 core 120 r2164 da19765
  23. Encoding settings                        : cabac=1 / ref=5 / deblock=1:-3:-3 / analyse=0x3:0x113 / me=umh / subme=11 / psy=1 / psy_rd=0.90:0.00 / mixed_ref=1 / me_range=64 / chroma_me=1 / trellis=2 / 8x8dct=1 / cqm=0 / deadzone=21,11 / fast_pskip=0 / chroma_qp_offset=-2 / threads=6 / sliced_threads=0 / nr=0 / decimate=0 / interlaced=0 / bluray_compat=0 / constrained_intra=0 / bframes=7 / b_pyramid=2 / b_adapt=2 / b_bias=0 / direct=3 / weightb=1 / open_gop=0 / weightp=2 / keyint=240 / keyint_min=23 / scenecut=40 / intra_refresh=0 / rc_lookahead=240 / rc=2pass / mbtree=1 / bitrate=14500 / ratetol=1.0 / qcomp=0.70 / qpmin=0 / qpmax=69 / qpstep=4 / cplxblur=20.0 / qblur=0.5 / vbv_maxrate=38000 / vbv_bufsize=30000 / nal_hrd=none / ip_ratio=1.40 / aq=1:0.80
  24. Language                                 : English
  25. Default                                  : Yes
  26. Forced                                   : No

  27. Audio
  28. ID                                       : 2
  29. Format                                   : DTS
  30. Format/Info                              : Digital Theater Systems
  31. Mode                                     : 16
  32. Format settings, Endianness              : Big
  33. Codec ID                                 : A_DTS
  34. Duration                                 : 1h 55mn
  35. Bit rate mode                            : Constant
  36. Bit rate                                 : 1 509 Kbps
  37. Channel(s)                               : 6 channels
  38. Channel positions                        : Front: L C R, Side: L R, LFE
  39. Sampling rate                            : 48.0 KHz
  40. Bit depth                                : 24 bits
  41. Compression mode                         : Lossy
  42. Delay relative to video                  : 11ms
  43. Stream size                              : 1.21 GiB (9%)
  44. Language                                 : English
  45. Default                                  : Yes
  46. Forced                                   : No

  47. Text #1
  48. ID                                       : 3
  49. Format                                   : UTF-8
  50. Codec ID                                 : S_TEXT/UTF8
  51. Codec ID/Info                            : UTF-8 Plain Text
  52. Language                                 : English
  53. Default                                  : No
  54. Forced                                   : No

  55. Text #2
  56. ID                                       : 4
  57. Format                                   : UTF-8
  58. Codec ID                                 : S_TEXT/UTF8
  59. Codec ID/Info                            : UTF-8 Plain Text
  60. Title                                    : SDH
  61. Language                                 : English
  62. Default                                  : No
  63. Forced                                   : No

  64. Menu
  65. 00:00:00.000                             : en:Chapter 01
  66. 00:03:18.990                             : en:Chapter 02
  67. 00:06:58.668                             : en:Chapter 03
  68. 00:09:09.174                             : en:Chapter 04
  69. 00:10:27.877                             : en:Chapter 05
  70. 00:14:22.862                             : en:Chapter 06
  71. 00:18:03.374                             : en:Chapter 07
  72. 00:22:42.444                             : en:Chapter 08
  73. 00:26:00.517                             : en:Chapter 09
  74. 00:29:37.859                             : en:Chapter 10
  75. 00:34:20.975                             : en:Chapter 11
  76. 00:36:06.206                             : en:Chapter 12
  77. 00:40:00.148                             : en:Chapter 13
  78. 00:44:42.680                             : en:Chapter 14
  79. 00:47:07.741                             : en:Chapter 15
  80. 00:49:18.414                             : en:Chapter 16
  81. 00:51:45.769                             : en:Chapter 17
  82. 00:53:39.132                             : en:Chapter 18
  83. 01:00:01.097                             : en:Chapter 19
  84. 01:07:46.646                             : en:Chapter 20
  85. 01:12:47.196                             : en:Chapter 21
  86. 01:18:39.631                             : en:Chapter 22
  87. 01:22:30.320                             : en:Chapter 23
  88. 01:25:40.301                             : en:Chapter 24
  89. 01:26:38.610                             : en:Chapter 25
  90. 01:28:32.682                             : en:Chapter 26
  91. 01:31:41.829                             : en:Chapter 27
  92. 01:34:30.373                             : en:Chapter 28
  93. 01:38:17.349                             : en:Chapter 29
  94. 01:43:14.938                             : en:Chapter 30
  95. 01:45:42.627                             : en:Chapter 31
  96. 01:48:03.643                             : en:Chapter 32
复制代码








回复

使用道具 举报

 成长值: 3505

发表于 2020-7-1 10:24:18 | 显示全部楼层
谢谢楼主无私分享。
回复 支持 反对

使用道具 举报

发表于 2020-7-1 15:55:29 | 显示全部楼层

楼主太厉害了!楼主,电影应该很好看我觉得蓝光电影网真是个好地方!
回复 支持 反对

使用道具 举报

懒得打字嘛,点击右侧快捷回复 【右侧内容,后台自定义】
您需要登录后才可以回帖 登录 | 立即加入

本版积分规则

上个主题 下个主题 快速回复 收藏帖子 返回列表 客服中心 搜索
现在加入蓝光电影网,注册一个账号

手机版|小黑屋| 蓝光电影网  |网站地图

Copyright © 2015-2019 Comsenz Inc.  Template by 蓝光电影论坛 All Rights Reserved.

Powered by 蓝光电影网 X3.4

特别声明:本站所有资源均由网上收集而来,版权归原影音公司所有,如果侵犯了你的权益,请通知我们,我们会及时删除侵权内容.

快速回复 返回顶部 返回列表