找回密码

蓝光电影网

查看: 2630|回复: 87

[REMUX.HEVC] X战警:第一战/变种特攻:异能第一战 X-Men.First.Class.2011.2160p.BluRay.REMUX.HEVC.DTS-HD.MA.5.1-FGT 42.02GB

  [复制链接]

 成长值: 27190

发表于 2020-6-26 23:07:38 | 显示全部楼层 |阅读模式
X战警:第一战/变种特攻:异能第一战 X-Men.First.Class.2011.2160p.BluRay.REMUX.HEVC.DTS-HD.MA.5.1-FGT 42.02GB-1.jpg
◎译  名 X战警:第一战 / 变种特攻:异能第一战 / X战警外传之第一课 / X战警:第一堂课 / X战警:低级 / 叉人初恋(豆友译名) / X: First Class
◎片  名 X战警:第一战 X-Men: First Class
◎年  代 2011
◎国  家 美国 / 英国
◎类  别 剧情 / 行动 / 科幻
◎语  言 英语 / 德语 / 法语 / 西班牙语 / 俄语
◎上映日期 2011-05-25(纽约首映) / 2011-06-01(英国) / 2011-06-03(美国)
◎IMDb评分7.8/10 from 564,006 users
◎IMDb链接http://www.imdb.com/title/tt1270798/
◎豆瓣评分 8.1/10 from 181662 users
◎豆瓣链接 https://movie.douban.com/subject/3168089/
◎片  长 132分钟
◎导  演 马修·沃恩
◎主  演 詹姆斯·麦卡沃伊 James McAvoy
      迈克尔·法斯宾德 Michael Fassbender
      詹纽瑞·琼斯 January Jones
      詹妮弗·劳伦斯 Jennifer Lawrence
      萝丝·拜恩 Rose Byrne
      尼古拉斯·霍尔特 Nicholas Hoult
      凯文·贝肯 Kevin Bacon
      佐伊·克罗维兹 Zo? Kravitz
      亚历·冈萨雷斯 álex González
      杰森·弗莱明 Jason Flemyng
      卢卡斯·提尔 Lucas Till
      摩根·莉莉 Morgan Lily
      艾迪·盖瑟吉 Edi Gathegi
      奥利弗·普莱特 Oliver Platt
      雷·怀斯 Ray Wise
      比尔·米尔纳 Bill Milner
      卡赖伯·兰德里·琼斯 Caleb Landry Jones
◎简  介 
  年轻的X教授查尔斯(詹姆斯·麦卡沃伊 James McAvoy 饰)和万磁王埃里克(迈克尔·法斯宾德 Michael Fassbender 饰)是一对志向相投的好朋友。他们最早发现了自己的超才能,并与其他几个变种人一路在CIA工作。激发埃里克超才能的纳粹战争估客肖(凯文·贝肯 Kevin Bacon 饰)一向试图挑起核战争,而想方想法挑起美苏两国的冲突。埃里克和查尔斯一向与肖手下的变种人战役,尽力阻止肖的诡计。肖鼓动苏联激发古巴导弹危机,查尔斯和埃里克获知消息后,在海湾与肖手下的变种人拉开了对决的一战。终极,肖被查尔斯和埃里克协力消灭。可是,在这个进程中,埃里克逐步被肖的政治概念影响,与查尔斯发生裂缝。经过海湾的这一战,埃里克和查尔斯终极破裂,一方酿成支持人类与变种人战争共存的X教授;另一方对峙经过消灭人类换来变种人兴起的概念,自称万磁王......
◎获奖情况 
  第13届美国青少年挑选奖 (2011)
  最好科幻/奇异电影(提名)
  最好电影反派(提名) 凯文·贝肯
  Choice Movie Breakout: Female(提名) 佐伊·克罗维兹 /詹妮弗·劳伦斯
  最好银幕拍档(提名) 卡赖伯·兰德里·琼斯 /艾迪·盖瑟吉 /卢卡斯·提尔 /詹妮弗·劳伦斯 /佐伊·克罗维兹 /尼古拉斯·霍尔特


  1. Video
  2. ID             : 1
  3. Format           : HEVC
  4. Format/Info          : High Efficiency Video Coding
  5. Format profile         : Main [url=mailto:10@L5.1]10@L5.1[/url]@High
  6. Codec ID           : V_MPEGH/ISO/HEVC
  7. Duration           : 2 h 11 min
  8. Bit rate           : 36.4 Mb/s
  9. Width            : 3 840 pixels
  10. Height           : 2 160 pixels
  11. Display aspect ratio       : 16:9
  12. Frame rate mode        : Constant
  13. Frame rate           : 23.976 (24000/1001) FPS
  14. Color space          : YUV
  15. Chroma subsampling       : 4:2:0 (Type 2)
  16. Bit depth          : 10 bits
  17. Bits/(Pixel*Frame)       : 0.183
  18. Stream size          : 33.5GB (80%)
  19. Title            : X-Men.First.Class.2011.2160p.BluRay.REMUX.HEVC.DTS-HD.MA.5.1-FGT
  20. Writing library        : ATEME Titan File 3.7.6 (4.7.6.101)
  21. Default            : Yes
  22. Forced           : No
  23. Color range          : Limited
  24. Color primaries        : BT.2020
  25. Transfer characteristics     : PQ
  26. Matrix coefficients        : BT.2020 non-constant
  27. Mastering display color primaries  : R: x=0.680000 y=0.320000, G: x=0.265000 y=0.690000, B: x=0.150000 y=0.060000, White point: x=0.312700 y=0.329000
  28. Mastering display luminance    : min: 0.0000 cd/m2, max: 1000.0000 cd/m2

  29. Audio #1
  30. ID             : 2
  31. Format           : DTS
  32. Format/Info          : Digital Theater Systems
  33. Format profile         : MA / Core
  34. Codec ID           : A_DTS
  35. Duration           : 2 h 11 min
  36. Bit rate mode          : Variable / Constant
  37. Bit rate           : 3 967 kb/s / 1 509 kb/s
  38. Channel(s)           : 6 channels
  39. Channel positions        : Front: L C R, Side: L R, LFE
  40. Sampling rate          : 48.0 kHz
  41. Frame rate           : 93.750 FPS (512 SPF)
  42. Bit depth          : 24 bits
  43. Compression mode         : Lossless / Lossy
  44. Stream size          : 3.65GB (9%)
  45. Title            : X-Men.First.Class.2011.2160p.BluRay.REMUX.HEVC.DTS-HD.MA.5.1-FGT
  46. Language           : English
  47. Default            : Yes
  48. Forced           : No

  49. Audio #2
  50. ID             : 3
  51. Format           : AC-3
  52. Format/Info          : Audio Coding 3
  53. Codec ID           : A_AC3
  54. Duration           : 2 h 11 min
  55. Bit rate mode          : Constant
  56. Bit rate           : 448 kb/s
  57. Channel(s)           : 6 channels
  58. Channel positions        : Front: L C R, Side: L R, LFE
  59. Sampling rate          : 48.0 kHz
  60. Frame rate           : 31.250 FPS (1536 SPF)
  61. Bit depth          : 16 bits
  62. Compression mode         : Lossy
  63. Stream size          : 422 MiB (1%)
  64. Title            : X-Men.First.Class.2011.2160p.BluRay.REMUX.HEVC.DTS-HD.MA.5.1-FGT
  65. Language           : English
  66. Service kind         : Complete Main
  67. Default            : No
  68. Forced           : No

  69. Audio #3
  70. ID             : 4
  71. Format           : AC-3
  72. Format/Info          : Audio Coding 3
  73. Codec ID           : A_AC3
  74. Duration           : 2 h 11 min
  75. Bit rate mode          : Constant
  76. Bit rate           : 448 kb/s
  77. Channel(s)           : 6 channels
  78. Channel positions        : Front: L C R, Side: L R, LFE
  79. Sampling rate          : 48.0 kHz
  80. Frame rate           : 31.250 FPS (1536 SPF)
  81. Bit depth          : 16 bits
  82. Compression mode         : Lossy
  83. Stream size          : 422 MiB (1%)
  84. Title            : X-Men.First.Class.2011.2160p.BluRay.REMUX.HEVC.DTS-HD.MA.5.1-FGT
  85. Language           : Spanish
  86. Service kind         : Complete Main
  87. Default            : No
  88. Forced           : No

  89. Audio #4
  90. ID             : 5
  91. Format           : DTS
  92. Format/Info          : Digital Theater Systems
  93. Codec ID           : A_DTS
  94. Duration           : 2 h 11 min
  95. Bit rate mode          : Constant
  96. Bit rate           : 768 kb/s
  97. Channel(s)           : 6 channels
  98. Channel positions        : Front: L C R, Side: L R, LFE
  99. Sampling rate          : 48.0 kHz
  100. Frame rate           : 93.750 FPS (512 SPF)
  101. Bit depth          : 24 bits
  102. Compression mode         : Lossy
  103. Stream size          : 724 MiB (2%)
  104. Title            : X-Men.First.Class.2011.2160p.BluRay.REMUX.HEVC.DTS-HD.MA.5.1-FGT
  105. Language           : French
  106. Default            : No
  107. Forced           : No

  108. Audio #5
  109. ID             : 6
  110. Format           : DTS
  111. Format/Info          : Digital Theater Systems
  112. Codec ID           : A_DTS
  113. Duration           : 2 h 11 min
  114. Bit rate mode          : Constant
  115. Bit rate           : 768 kb/s
  116. Channel(s)           : 6 channels
  117. Channel positions        : Front: L C R, Side: L R, LFE
  118. Sampling rate          : 48.0 kHz
  119. Frame rate           : 93.750 FPS (512 SPF)
  120. Bit depth          : 24 bits
  121. Compression mode         : Lossy
  122. Stream size          : 724 MiB (2%)
  123. Title            : X-Men.First.Class.2011.2160p.BluRay.REMUX.HEVC.DTS-HD.MA.5.1-FGT
  124. Language           : Spanish
  125. Default            : No
  126. Forced           : No

  127. Audio #6
  128. ID             : 7
  129. Format           : DTS
  130. Format/Info          : Digital Theater Systems
  131. Codec ID           : A_DTS
  132. Duration           : 2 h 11 min
  133. Bit rate mode          : Constant
  134. Bit rate           : 768 kb/s
  135. Channel(s)           : 6 channels
  136. Channel positions        : Front: L C R, Side: L R, LFE
  137. Sampling rate          : 48.0 kHz
  138. Frame rate           : 93.750 FPS (512 SPF)
  139. Bit depth          : 24 bits
  140. Compression mode         : Lossy
  141. Stream size          : 724 MiB (2%)
  142. Title            : X-Men.First.Class.2011.2160p.BluRay.REMUX.HEVC.DTS-HD.MA.5.1-FGT
  143. Language           : German
  144. Default            : No
  145. Forced           : No

  146. Audio #7
  147. ID             : 8
  148. Format           : DTS
  149. Format/Info          : Digital Theater Systems
  150. Codec ID           : A_DTS
  151. Duration           : 2 h 11 min
  152. Bit rate mode          : Constant
  153. Bit rate           : 768 kb/s
  154. Channel(s)           : 6 channels
  155. Channel positions        : Front: L C R, Side: L R, LFE
  156. Sampling rate          : 48.0 kHz
  157. Frame rate           : 93.750 FPS (512 SPF)
  158. Bit depth          : 24 bits
  159. Compression mode         : Lossy
  160. Stream size          : 724 MiB (2%)
  161. Title            : X-Men.First.Class.2011.2160p.BluRay.REMUX.HEVC.DTS-HD.MA.5.1-FGT
  162. Language           : Italian
  163. Default            : No
  164. Forced           : No

  165. Audio #8
  166. ID             : 9
  167. Format           : DTS
  168. Format/Info          : Digital Theater Systems
  169. Codec ID           : A_DTS
  170. Duration           : 2 h 11 min
  171. Bit rate mode          : Constant
  172. Bit rate           : 768 kb/s
  173. Channel(s)           : 6 channels
  174. Channel positions        : Front: L C R, Side: L R, LFE
  175. Sampling rate          : 48.0 kHz
  176. Frame rate           : 93.750 FPS (512 SPF)
  177. Bit depth          : 24 bits
  178. Compression mode         : Lossy
  179. Stream size          : 724 MiB (2%)
  180. Title            : X-Men.First.Class.2011.2160p.BluRay.REMUX.HEVC.DTS-HD.MA.5.1-FGT
  181. Language           : Japanese
  182. Default            : No
  183. Forced           : No

  184. Audio #9
  185. ID             : 10
  186. Format           : AC-3
  187. Format/Info          : Audio Coding 3
  188. Codec ID           : A_AC3
  189. Duration           : 2 h 11 min
  190. Bit rate mode          : Constant
  191. Bit rate           : 448 kb/s
  192. Channel(s)           : 6 channels
  193. Channel positions        : Front: L C R, Side: L R, LFE
  194. Sampling rate          : 48.0 kHz
  195. Frame rate           : 31.250 FPS (1536 SPF)
  196. Bit depth          : 16 bits
  197. Compression mode         : Lossy
  198. Stream size          : 422 MiB (1%)
  199. Title            : X-Men.First.Class.2011.2160p.BluRay.REMUX.HEVC.DTS-HD.MA.5.1-FGT
  200. Language           : English
  201. Service kind         : Complete Main
  202. Default            : No
  203. Forced           : No

  204. Text #1
  205. ID             : 11
  206. Format           : PGS
  207. Muxing mode          : zlib
  208. Codec ID           : S_HDMV/PGS
  209. Codec ID/Info          : Picture based subtitle format used on BDs/HD-DVDs
  210. Duration           : 2 h 11 min
  211. Bit rate           : 31.9 kb/s
  212. Count of elements        : 3202
  213. Stream size          : 30.1 MiB (0%)
  214. Title            : English-PGS
  215. Language           : English
  216. Default            : Yes
  217. Forced           : No

  218. Text #2
  219. ID             : 12
  220. Format           : PGS
  221. Muxing mode          : zlib
  222. Codec ID           : S_HDMV/PGS
  223. Codec ID/Info          : Picture based subtitle format used on BDs/HD-DVDs
  224. Duration           : 2 h 11 min
  225. Bit rate           : 28.6 kb/s
  226. Count of elements        : 2822
  227. Stream size          : 27.0 MiB (0%)
  228. Title            : English-PGS
  229. Language           : English
  230. Default            : No
  231. Forced           : No

  232. Text #3
  233. ID             : 13
  234. Format           : PGS
  235. Muxing mode          : zlib
  236. Codec ID           : S_HDMV/PGS
  237. Codec ID/Info          : Picture based subtitle format used on BDs/HD-DVDs
  238. Duration           : 2 h 4 min
  239. Bit rate           : 18.9 kb/s
  240. Count of elements        : 2805
  241. Stream size          : 16.8 MiB (0%)
  242. Title            : Japanese-PGS
  243. Language           : Japanese
  244. Default            : No
  245. Forced           : No

  246. Text #4
  247. ID             : 14
  248. Format           : PGS
  249. Muxing mode          : zlib
  250. Codec ID           : S_HDMV/PGS
  251. Codec ID/Info          : Picture based subtitle format used on BDs/HD-DVDs
  252. Duration           : 2 h 3 min
  253. Bit rate           : 2 315 b/s
  254. Count of elements        : 362
  255. Stream size          : 2.04 MiB (0%)
  256. Title            : Japanese-PGS
  257. Language           : Japanese
  258. Default            : No
  259. Forced           : No

  260. Text #5
  261. ID             : 15
  262. Format           : PGS
  263. Muxing mode          : zlib
  264. Codec ID           : S_HDMV/PGS
  265. Codec ID/Info          : Picture based subtitle format used on BDs/HD-DVDs
  266. Duration           : 2 h 11 min
  267. Bit rate           : 28.6 kb/s
  268. Count of elements        : 2854
  269. Stream size          : 26.9 MiB (0%)
  270. Title            : Spanish-PGS
  271. Language           : Spanish
  272. Default            : No
  273. Forced           : No

  274. Text #6
  275. ID             : 16
  276. Format           : PGS
  277. Muxing mode          : zlib
  278. Codec ID           : S_HDMV/PGS
  279. Codec ID/Info          : Picture based subtitle format used on BDs/HD-DVDs
  280. Duration           : 2 h 11 min
  281. Bit rate           : 23.7 kb/s
  282. Count of elements        : 2775
  283. Stream size          : 22.4 MiB (0%)
  284. Language           : French
  285. Default            : No
  286. Forced           : No

  287. Text #7
  288. ID             : 17
  289. Format           : PGS
  290. Muxing mode          : zlib
  291. Codec ID           : S_HDMV/PGS
  292. Codec ID/Info          : Picture based subtitle format used on BDs/HD-DVDs
  293. Duration           : 2 h 11 min
  294. Bit rate           : 28.8 kb/s
  295. Count of elements        : 2852
  296. Stream size          : 27.2 MiB (0%)
  297. Title            : Spanish-PGS
  298. Language           : Spanish
  299. Default            : No
  300. Forced           : No

  301. Text #8
  302. ID             : 18
  303. Format           : PGS
  304. Muxing mode          : zlib
  305. Codec ID           : S_HDMV/PGS
  306. Codec ID/Info          : Picture based subtitle format used on BDs/HD-DVDs
  307. Duration           : 2 h 11 min
  308. Bit rate           : 28.0 kb/s
  309. Count of elements        : 2854
  310. Stream size          : 26.3 MiB (0%)
  311. Title            : Danish-PGS
  312. Language           : Danish
  313. Default            : No
  314. Forced           : No

  315. Text #9
  316. ID             : 19
  317. Format           : PGS
  318. Muxing mode          : zlib
  319. Codec ID           : S_HDMV/PGS
  320. Codec ID/Info          : Picture based subtitle format used on BDs/HD-DVDs
  321. Duration           : 2 h 11 min
  322. Bit rate           : 24.0 kb/s
  323. Count of elements        : 2223
  324. Stream size          : 22.6 MiB (0%)
  325. Title            : Dutch-PGS
  326. Language           : Dutch
  327. Default            : No
  328. Forced           : No

  329. Text #10
  330. ID             : 20
  331. Format           : PGS
  332. Muxing mode          : zlib
  333. Codec ID           : S_HDMV/PGS
  334. Codec ID/Info          : Picture based subtitle format used on BDs/HD-DVDs
  335. Duration           : 2 h 11 min
  336. Bit rate           : 30.4 kb/s
  337. Count of elements        : 2726
  338. Stream size          : 28.6 MiB (0%)
  339. Title            : German-PGS
  340. Language           : German
  341. Default            : No
  342. Forced           : No

  343. Text #11
  344. ID             : 21
  345. Format           : PGS
  346. Muxing mode          : zlib
  347. Codec ID           : S_HDMV/PGS
  348. Codec ID/Info          : Picture based subtitle format used on BDs/HD-DVDs
  349. Duration           : 2 h 11 min
  350. Bit rate           : 25.8 kb/s
  351. Count of elements        : 2854
  352. Stream size          : 24.3 MiB (0%)
  353. Title            : Italian-PGS
  354. Language           : Italian
  355. Default            : No
  356. Forced           : No

  357. Text #12
  358. ID             : 22
  359. Format           : PGS
  360. Muxing mode          : zlib
  361. Codec ID           : S_HDMV/PGS
  362. Codec ID/Info          : Picture based subtitle format used on BDs/HD-DVDs
  363. Duration           : 2 h 11 min
  364. Bit rate           : 23.9 kb/s
  365. Count of elements        : 3008
  366. Stream size          : 22.5 MiB (0%)
  367. Title            : Norwegian-PGS
  368. Language           : Norwegian
  369. Default            : No
  370. Forced           : No

  371. Text #13
  372. ID             : 23
  373. Format           : PGS
  374. Muxing mode          : zlib
  375. Codec ID           : S_HDMV/PGS
  376. Codec ID/Info          : Picture based subtitle format used on BDs/HD-DVDs
  377. Duration           : 2 h 11 min
  378. Bit rate           : 22.3 kb/s
  379. Count of elements        : 2031
  380. Stream size          : 21.0 MiB (0%)
  381. Title            : Swedish-PGS
  382. Language           : Swedish
  383. Default            : No
  384. Forced           : No

  385. Text #14
  386. ID             : 24
  387. Format           : PGS
  388. Muxing mode          : zlib
  389. Codec ID           : S_HDMV/PGS
  390. Codec ID/Info          : Picture based subtitle format used on BDs/HD-DVDs
  391. Duration           : 2 h 11 min
  392. Bit rate           : 20.3 kb/s
  393. Count of elements        : 2878
  394. Stream size          : 19.1 MiB (0%)
  395. Title            : Chinese-PGS
  396. Language           : Chinese
  397. Default            : No
  398. Forced           : No

  399. Text #15
  400. ID             : 25
  401. Format           : PGS
  402. Muxing mode          : zlib
  403. Codec ID           : S_HDMV/PGS
  404. Codec ID/Info          : Picture based subtitle format used on BDs/HD-DVDs
  405. Duration           : 2 h 11 min
  406. Bit rate           : 23.7 kb/s
  407. Count of elements        : 3343
  408. Stream size          : 22.3 MiB (0%)
  409. Title            : Chinese-PGS
  410. Language           : Chinese
  411. Default            : No
  412. Forced           : No

  413. Text #16
  414. ID             : 26
  415. Format           : PGS
  416. Muxing mode          : zlib
  417. Codec ID           : S_HDMV/PGS
  418. Codec ID/Info          : Picture based subtitle format used on BDs/HD-DVDs
  419. Duration           : 2 h 11 min
  420. Bit rate           : 2 083 b/s
  421. Count of elements        : 307
  422. Stream size          : 1.96 MiB (0%)
  423. Title            : English-FORCED-PGS
  424. Language           : English
  425. Default            : No
  426. Forced           : No

  427. Menu
  428. 00:00:00.000         : en:Chapter 1
  429. 00:04:21.552         : en:Chapter 2
  430. 00:09:33.155         : en:Chapter 3
  431. 00:14:03.425         : en:Chapter 4
  432. 00:16:08.175         : en:Chapter 5
  433. 00:22:10.829         : en:Chapter 6
  434. 00:27:11.046         : en:Chapter 7
  435. 00:28:46.349         : en:Chapter 8
  436. 00:31:32.890         : en:Chapter 9
  437. 00:36:07.540         : en:Chapter 10
  438. 00:40:12.660         : en:Chapter 11
  439. 00:44:16.487         : en:Chapter 12
  440. 00:50:05.752         : en:Chapter 13
  441. 00:54:00.862         : en:Chapter 14
  442. 01:01:07.413         : en:Chapter 15
  443. 01:08:17.927         : en:Chapter 16
  444. 01:11:51.098         : en:Chapter 17
  445. 01:14:06.525         : en:Chapter 18
  446. 01:20:07.052         : en:Chapter 19
  447. 01:23:43.226         : en:Chapter 20
  448. 01:27:35.833         : en:Chapter 21
  449. 01:28:51.242         : en:Chapter 22
  450. 01:31:24.979         : en:Chapter 23
  451. 01:33:33.899         : en:Chapter 24
  452. 01:37:54.410         : en:Chapter 25
  453. 01:39:55.197         : en:Chapter 26
  454. 01:43:37.961         : en:Chapter 27
  455. 01:47:44.165         : en:Chapter 28
  456. 01:52:38.459         : en:Chapter 29
  457. 01:56:44.622         : en:Chapter 30
  458. 02:01:26.696         : en:Chapter 31
  459. 02:04:24.248         : en:Chapter 32



复制代码



X战警:第一战/变种特攻:异能第一战 X-Men.First.Class.2011.2160p.BluRay.REMUX.HEVC.DTS-HD.MA.5.1-FGT 42.02GB-2.png X战警:第一战/变种特攻:异能第一战 X-Men.First.Class.2011.2160p.BluRay.REMUX.HEVC.DTS-HD.MA.5.1-FGT 42.02GB-3.png X战警:第一战/变种特攻:异能第一战 X-Men.First.Class.2011.2160p.BluRay.REMUX.HEVC.DTS-HD.MA.5.1-FGT 42.02GB-4.png X战警:第一战/变种特攻:异能第一战 X-Men.First.Class.2011.2160p.BluRay.REMUX.HEVC.DTS-HD.MA.5.1-FGT 42.02GB-5.png X战警:第一战/变种特攻:异能第一战 X-Men.First.Class.2011.2160p.BluRay.REMUX.HEVC.DTS-HD.MA.5.1-FGT 42.02GB-6.png X战警:第一战/变种特攻:异能第一战 X-Men.First.Class.2011.2160p.BluRay.REMUX.HEVC.DTS-HD.MA.5.1-FGT 42.02GB-7.png





回复

使用道具 举报

发表于 2020-6-26 23:23:55 | 显示全部楼层
楼主发贴辛苦了,谢谢楼主分享!我觉得蓝光电影网是注册对了!
回复 支持 反对

使用道具 举报

发表于 2020-6-27 00:22:19 | 显示全部楼层

楼主太厉害了!楼主,电影应该很好看我觉得蓝光电影网真是个好地方!
回复 支持 反对

使用道具 举报

发表于 2020-6-27 02:08:10 | 显示全部楼层
楼主发贴辛苦了,谢谢楼主分享!我觉得蓝光电影网是注册对了!
回复 支持 反对

使用道具 举报

发表于 2020-6-27 05:08:39 | 显示全部楼层

论坛不能没有像楼主这样的人才啊!我会一直支持蓝光电影网
回复 支持 反对

使用道具 举报

发表于 2020-6-27 06:06:09 | 显示全部楼层

这东西我收了!谢谢楼主!蓝光电影网真好!
回复 支持 反对

使用道具 举报

发表于 2020-6-27 07:22:45 | 显示全部楼层
感谢楼主分享好电影
回复 支持 反对

使用道具 举报

发表于 2020-6-27 08:14:03 | 显示全部楼层

楼主太厉害了!楼主,电影应该很好看我觉得蓝光电影网真是个好地方!
回复 支持 反对

使用道具 举报

发表于 2020-6-27 08:32:57 | 显示全部楼层
厉害了,我的哥
回复 支持 反对

使用道具 举报

发表于 2020-6-27 08:58:45 | 显示全部楼层
楼主发贴辛苦了,谢谢楼主分享!我觉得蓝光电影网是注册对了!
回复 支持 反对

使用道具 举报

懒得打字嘛,点击右侧快捷回复 【右侧内容,后台自定义】
您需要登录后才可以回帖 登录 | 立即加入

本版积分规则

现在加入蓝光电影网,注册一个账号
上个主题 下个主题 快速回复 收藏帖子 返回列表 客服中心 搜索

手机版|小黑屋| 蓝光电影网 |网站地图 

Copyright © 2015-2019 Comsenz Inc.  Template by 蓝光电影论坛 All Rights Reserved.

Powered by 蓝光电影网 X3.4

特别声明:本站所有资源均由网上收集而来,版权归原影音公司所有,如果侵犯了你的权益,请通知我们,我们会及时删除侵权内容.

快速回复 返回顶部 返回列表