找回密码

蓝光电影网

查看: 1882|回复: 62

[REMUX.HEVC] 金刚 King.Kong.2005.EXTENDED.2160p.BluRay.REMUX.HEVC.DTS-X.7.1-FGT 79.92GB

  [复制链接]

 成长值: 27190

发表于 2020-6-19 21:46:14 | 显示全部楼层 |阅读模式
金刚 King.Kong.2005.EXTENDED.2160p.BluRay.REMUX.HEVC.DTS-X.7.1-FGT 79.92GB-1.jpg
◎译  名 金刚 / King Kong: The Eighth Wonder of the World
◎片  名 金刚 King Kong
◎年  代 2005
◎国  家 新西兰 / 美国 / 德国
◎类  别 剧情 / 行动 / 恋爱 / 冒险
◎语  言 英语
◎上映日期 2006-01-12(中国大陆) / 2005-12-05(纽约首映) / 2005-12-14(美国)
◎IMDb评分7.2/10 from 342,259 users
◎IMDb链接http://www.imdb.com/title/tt0360717/
◎豆瓣评分 7.8/10 from 169459 users
◎豆瓣链接 https://movie.douban.com/subject/1309043/
◎片  长 187分钟 / 201分钟(加长版)
◎导  演 彼得·杰克逊
◎主  演 娜奥米·沃茨 Naomi Watts
      杰克·布莱克 Jack Black
      艾德里安·布洛迪 Adrien Brody
      托马斯·克莱舒曼 Thomas Kretschmann
      科林·汉克斯 Colin Hanks
      安迪·瑟金斯 Andy Serkis
      伊万·帕克 Evan Parke
      杰米·贝尔 Jamie Bell
      洛博·陈 Lobo Chan
      约翰·萨莫尔 John Sumner
      克里格·霍尔 Craig Hall
      凯尔·钱德勒 Kyle Chandler
      威廉·约翰逊 William Johnson
      马克·哈德洛 Mark Hadlow
      杰拉丁·博若飞 Geraldine Brophy
      大卫·皮图 David Pittu
◎简  介 
  导演率领拍摄组来到奥秘的骷髅岛起头了一部电影的拍摄,女配角是标致娇小的安(娜奥米?沃茨 Naomi Watts 饰),她在纽约的演艺奇迹堕入了低谷,这是她否极泰来的大好机遇。他们乘坐汽船来到岛上,却不知在岛上行将要险象横生。
  正当导演要起头开机拍摄时,他们遭到了当地土著的攻击,几个随行职员遇难身亡。摄制组慌忙逃离,幸亏起航离去,却发现不见了女配角安。
  本来安土著野人抓走,被看成祭品。安尖声惊叫,引来了传闻中骷髅岛的猩猩——金刚的关注。金刚在岛上很有霸气,连恐龙都要忌它几分。但是,野兽爱上了美人,金刚搭救安离开窘境,不意却让自己堕入了一场悲剧。
◎获奖情况 
  第78届奥斯卡金像奖 (2006)
  最好视觉结果 乔·莱特瑞 /布莱恩·范特·赫尔 /克里斯蒂安·瑞沃斯 /理查德·泰勒
  最好混音 克里斯托弗·博伊斯 /迈克尔·斯曼外科/迈克·亨吉斯 /哈蒙德·匹克
  最好音效剪辑 伊桑·范德莱恩 /迈克·霍普金斯
  最好艺术指导(提名) 西蒙·布赖特 /格兰特·梅杰 /丹·汉纳
  第59届英国电影学院奖 (2006)
  电影奖 最好艺术指导(提名) 格兰特·梅杰
  电影奖 最好特别视觉结果 克里斯蒂安·瑞沃斯 /布莱恩·范特·赫尔 /理查德·泰勒 /乔·莱特瑞
  电影奖 最好音效(提名) 哈蒙德·匹克 /迈克·霍普金斯/伊桑·范德莱恩 /克里斯托弗·博伊斯
  第15届MTV电影奖 (2006)
  MTV电影奖 年度电影(提名)
  MTV电影奖 最好打架(提名)
  第12届中国电影华表奖 (2007)
  优异译制片奖(提名)


  1. Video
  2. ID             : 1
  3. Format           : HEVC
  4. Format/Info          : High Efficiency Video Coding
  5. Format profile         : Main [url=mailto:10@L5.1]10@L5.1[/url]@High
  6. Codec ID           : V_MPEGH/ISO/HEVC
  7. Duration           : 3 h 20 min
  8. Bit rate           : 46.2 Mb/s
  9. Width            : 3 840 pixels
  10. Height           : 2 160 pixels
  11. Display aspect ratio       : 16:9
  12. Frame rate mode        : Constant
  13. Frame rate           : 23.976 (24000/1001) FPS
  14. Color space          : YUV
  15. Chroma subsampling       : 4:2:0 (Type 2)
  16. Bit depth          : 10 bits
  17. Bits/(Pixel*Frame)       : 0.232
  18. Stream size          : 64.5GB (81%)
  19. Title            : King.Kong.2005.EXTENDED.2160p.BluRay.REMUX.HEVC.DTS-X.7.1-FGT
  20. Writing library        : ATEME Titan File 3.7.9 (4.7.9.0)
  21. Default            : Yes
  22. Forced           : No
  23. Color range          : Limited
  24. Color primaries        : BT.2020
  25. Transfer characteristics     : PQ
  26. Matrix coefficients        : BT.2020 non-constant
  27. Mastering display color primaries  : R: x=0.680000 y=0.320000, G: x=0.265000 y=0.690000, B: x=0.150000 y=0.060000, White point: x=0.312700 y=0.329000
  28. Mastering display luminance    : min: 0.0050 cd/m2, max: 1000.0000 cd/m2
  29. Maximum Content Light Level    : 1000 cd/m2
  30. Maximum Frame-Average Light Level  : 96 cd/m2

  31. Audio #1
  32. ID             : 2
  33. Format           : DTS
  34. Format/Info          : Digital Theater Systems
  35. Format profile         : X / MA / Core
  36. Codec ID           : A_DTS
  37. Duration           : 3 h 20 min
  38. Bit rate mode          : Variable / Variable / Constant
  39. Bit rate           : 7 413 kb/s / 7 413 kb/s / 1 509 kb/s
  40. Channel(s)           : Object Based / 8 channels / 6 channels
  41. Channel positions        : Object Based / Front: L C R, Side: L R, Back: L R, LFE / Front: L C R, Side: L R, LFE
  42. Sampling rate          :/ 48.0 kHz / 48.0 kHz
  43. Frame rate           : 93.750 FPS (512 SPF)
  44. Bit depth          :/ 24 bits / 24 bits
  45. Compression mode         :/ Lossless / Lossy
  46. Stream size          : 10.4GB (13%)
  47. Title            : King.Kong.2005.EXTENDED.2160p.BluRay.REMUX.HEVC.DTS-X.7.1-FGT
  48. Language           : English
  49. Default            : Yes
  50. Forced           : No

  51. Audio #2
  52. ID             : 3
  53. Format           : DTS
  54. Format/Info          : Digital Theater Systems
  55. Codec ID           : A_DTS
  56. Duration           : 3 h 20 min
  57. Bit rate mode          : Constant
  58. Bit rate           : 255 kb/s
  59. Channel(s)           : 2 channels
  60. Channel positions        : Front: L R
  61. Sampling rate          : 48.0 kHz
  62. Frame rate           : 93.750 FPS (512 SPF)
  63. Bit depth          : 24 bits
  64. Compression mode         : Lossy
  65. Stream size          : 365 MiB (0%)
  66. Title            : King.Kong.2005.EXTENDED.2160p.BluRay.REMUX.HEVC.DTS-X.7.1-FGT
  67. Language           : English
  68. Default            : No
  69. Forced           : No

  70. Audio #3
  71. ID             : 4
  72. Format           : DTS
  73. Format/Info          : Digital Theater Systems
  74. Codec ID           : A_DTS
  75. Duration           : 3 h 20 min
  76. Bit rate mode          : Constant
  77. Bit rate           : 768 kb/s
  78. Channel(s)           : 6 channels
  79. Channel positions        : Front: L C R, Side: L R, LFE
  80. Sampling rate          : 48.0 kHz
  81. Frame rate           : 93.750 FPS (512 SPF)
  82. Bit depth          : 24 bits
  83. Compression mode         : Lossy
  84. Stream size          : 1.07GB (1%)
  85. Title            : King.Kong.2005.EXTENDED.2160p.BluRay.REMUX.HEVC.DTS-X.7.1-FGT
  86. Language           : French
  87. Default            : No
  88. Forced           : No

  89. Audio #4
  90. ID             : 5
  91. Format           : DTS
  92. Format/Info          : Digital Theater Systems
  93. Codec ID           : A_DTS
  94. Duration           : 3 h 20 min
  95. Bit rate mode          : Constant
  96. Bit rate           : 768 kb/s
  97. Channel(s)           : 6 channels
  98. Channel positions        : Front: L C R, Side: L R, LFE
  99. Sampling rate          : 48.0 kHz
  100. Frame rate           : 93.750 FPS (512 SPF)
  101. Bit depth          : 24 bits
  102. Compression mode         : Lossy
  103. Stream size          : 1.07GB (1%)
  104. Title            : King.Kong.2005.EXTENDED.2160p.BluRay.REMUX.HEVC.DTS-X.7.1-FGT
  105. Language           : Spanish
  106. Default            : No
  107. Forced           : No

  108. Audio #5
  109. ID             : 6
  110. Format           : DTS
  111. Format/Info          : Digital Theater Systems
  112. Codec ID           : A_DTS
  113. Duration           : 3 h 20 min
  114. Bit rate mode          : Constant
  115. Bit rate           : 768 kb/s
  116. Channel(s)           : 6 channels
  117. Channel positions        : Front: L C R, Side: L R, LFE
  118. Sampling rate          : 48.0 kHz
  119. Frame rate           : 93.750 FPS (512 SPF)
  120. Bit depth          : 24 bits
  121. Compression mode         : Lossy
  122. Stream size          : 1.07GB (1%)
  123. Title            : King.Kong.2005.EXTENDED.2160p.BluRay.REMUX.HEVC.DTS-X.7.1-FGT
  124. Language           : Japanese
  125. Default            : No
  126. Forced           : No

  127. Audio #6
  128. ID             : 7
  129. Format           : DTS
  130. Format/Info          : Digital Theater Systems
  131. Codec ID           : A_DTS
  132. Duration           : 3 h 20 min
  133. Bit rate mode          : Constant
  134. Bit rate           : 768 kb/s
  135. Channel(s)           : 6 channels
  136. Channel positions        : Front: L C R, Side: L R, LFE
  137. Sampling rate          : 48.0 kHz
  138. Frame rate           : 93.750 FPS (512 SPF)
  139. Bit depth          : 24 bits
  140. Compression mode         : Lossy
  141. Stream size          : 1.07GB (1%)
  142. Title            : King.Kong.2005.EXTENDED.2160p.BluRay.REMUX.HEVC.DTS-X.7.1-FGT
  143. Language           : Portuguese
  144. Default            : No
  145. Forced           : No

  146. Audio #7
  147. ID             : 8
  148. Format           : AC-3
  149. Format/Info          : Audio Coding 3
  150. Codec ID           : A_AC3
  151. Duration           : 3 h 20 min
  152. Bit rate mode          : Constant
  153. Bit rate           : 192 kb/s
  154. Channel(s)           : 2 channels
  155. Channel positions        : Front: L R
  156. Sampling rate          : 48.0 kHz
  157. Frame rate           : 31.250 FPS (1536 SPF)
  158. Bit depth          : 16 bits
  159. Compression mode         : Lossy
  160. Stream size          : 275 MiB (0%)
  161. Title            : King.Kong.2005.EXTENDED.2160p.BluRay.REMUX.HEVC.DTS-X.7.1-FGT
  162. Language           : English
  163. Service kind         : Complete Main
  164. Default            : No
  165. Forced           : No

  166. Text #1
  167. ID             : 9
  168. Format           : PGS
  169. Muxing mode          : zlib
  170. Codec ID           : S_HDMV/PGS
  171. Codec ID/Info          : Picture based subtitle format used on BDs/HD-DVDs
  172. Duration           : 3 h 9 min
  173. Bit rate           : 21.8 kb/s
  174. Count of elements        : 3438
  175. Stream size          : 29.5 MiB (0%)
  176. Title            : English-PGS
  177. Language           : English
  178. Default            : Yes
  179. Forced           : No

  180. Text #2
  181. ID             : 10
  182. Format           : PGS
  183. Muxing mode          : zlib
  184. Codec ID           : S_HDMV/PGS
  185. Codec ID/Info          : Picture based subtitle format used on BDs/HD-DVDs
  186. Duration           : 3 h 18 min
  187. Bit rate           : 16.7 kb/s
  188. Count of elements        : 2592
  189. Stream size          : 23.7 MiB (0%)
  190. Title            : French-PGS
  191. Language           : French
  192. Default            : No
  193. Forced           : No

  194. Text #3
  195. ID             : 11
  196. Format           : PGS
  197. Muxing mode          : zlib
  198. Codec ID           : S_HDMV/PGS
  199. Codec ID/Info          : Picture based subtitle format used on BDs/HD-DVDs
  200. Duration           : 3 h 18 min
  201. Bit rate           : 15.4 kb/s
  202. Count of elements        : 2596
  203. Stream size          : 22.0 MiB (0%)
  204. Title            : Spanish-PGS
  205. Language           : Spanish
  206. Default            : No
  207. Forced           : No

  208. Text #4
  209. ID             : 12
  210. Format           : PGS
  211. Muxing mode          : zlib
  212. Codec ID           : S_HDMV/PGS
  213. Codec ID/Info          : Picture based subtitle format used on BDs/HD-DVDs
  214. Duration           : 3 h 18 min
  215. Bit rate           : 10.9 kb/s
  216. Count of elements        : 2370
  217. Stream size          : 15.6 MiB (0%)
  218. Title            : Japanese-PGS
  219. Language           : Japanese
  220. Default            : No
  221. Forced           : No

  222. Text #5
  223. ID             : 13
  224. Format           : PGS
  225. Muxing mode          : zlib
  226. Codec ID           : S_HDMV/PGS
  227. Codec ID/Info          : Picture based subtitle format used on BDs/HD-DVDs
  228. Duration           : 3 h 17 min
  229. Bit rate           : 15.5 kb/s
  230. Count of elements        : 2520
  231. Stream size          : 21.9 MiB (0%)
  232. Title            : Portuguese-PGS
  233. Language           : Portuguese
  234. Default            : No
  235. Forced           : No

  236. Text #6
  237. ID             : 14
  238. Format           : PGS
  239. Muxing mode          : zlib
  240. Codec ID           : S_HDMV/PGS
  241. Codec ID/Info          : Picture based subtitle format used on BDs/HD-DVDs
  242. Duration           : 3 h 19 min
  243. Bit rate           : 80.1 kb/s
  244. Count of elements        : 7162
  245. Stream size          : 114 MiB (0%)
  246. Title            : English-COMMENTARY-PGS
  247. Language           : English
  248. Default            : No
  249. Forced           : No

  250. Text #7
  251. ID             : 15
  252. Format           : PGS
  253. Muxing mode          : zlib
  254. Codec ID           : S_HDMV/PGS
  255. Codec ID/Info          : Picture based subtitle format used on BDs/HD-DVDs
  256. Duration           : 3 h 19 min
  257. Bit rate           : 45.2 kb/s
  258. Count of elements        : 5534
  259. Stream size          : 64.5 MiB (0%)
  260. Title            : Japanese-COMMENTARY-PGS
  261. Language           : Japanese
  262. Default            : No
  263. Forced           : No

  264. Text #8
  265. ID             : 16
  266. Format           : PGS
  267. Muxing mode          : zlib
  268. Codec ID           : S_HDMV/PGS
  269. Codec ID/Info          : Picture based subtitle format used on BDs/HD-DVDs
  270. Duration           : 3 h 16 min
  271. Bit rate           : 413 b/s
  272. Count of elements        : 76
  273. Stream size          : 595 KiB (0%)
  274. Title            : French-FORCED-PGS
  275. Language           : French
  276. Default            : No
  277. Forced           : No

  278. Text #9
  279. ID             : 17
  280. Format           : PGS
  281. Muxing mode          : zlib
  282. Codec ID           : S_HDMV/PGS
  283. Codec ID/Info          : Picture based subtitle format used on BDs/HD-DVDs
  284. Duration           : 3 h 16 min
  285. Bit rate           : 434 b/s
  286. Count of elements        : 80
  287. Stream size          : 625 KiB (0%)
  288. Title            : Spanish-FORCED-PGS
  289. Language           : Spanish
  290. Default            : No
  291. Forced           : No

  292. Text #10
  293. ID             : 18
  294. Format           : PGS
  295. Muxing mode          : zlib
  296. Codec ID           : S_HDMV/PGS
  297. Codec ID/Info          : Picture based subtitle format used on BDs/HD-DVDs
  298. Duration           : 3 h 18 min
  299. Bit rate           : 575 b/s
  300. Count of elements        : 136
  301. Stream size          : 837 KiB (0%)
  302. Title            : Japanese-FORCED-PGS
  303. Language           : Japanese
  304. Default            : No
  305. Forced           : No

  306. Text #11
  307. ID             : 19
  308. Format           : PGS
  309. Muxing mode          : zlib
  310. Codec ID           : S_HDMV/PGS
  311. Codec ID/Info          : Picture based subtitle format used on BDs/HD-DVDs
  312. Duration           : 3 h 16 min
  313. Bit rate           : 1 067 b/s
  314. Count of elements        : 186
  315. Stream size          : 1.50 MiB (0%)
  316. Title            : Portuguese-FORCED-PGS
  317. Language           : Portuguese
  318. Default            : No
  319. Forced           : No

  320. Menu
  321. 00:00:00.000         : en:Chapter 1
  322. 00:03:01.848         : en:Chapter 2
  323. 00:04:19.842         : en:Chapter 3
  324. 00:06:42.985         : en:Chapter 4
  325. 00:10:28.711         : en:Chapter 5
  326. 00:12:32.251         : en:Chapter 6
  327. 00:14:17.439         : en:Chapter 7
  328. 00:17:39.933         : en:Chapter 8
  329. 00:20:24.890         : en:Chapter 9
  330. 00:24:12.325         : en:Chapter 10
  331. 00:25:54.678         : en:Chapter 11
  332. 00:26:12.404         : en:Chapter 12
  333. 00:27:59.678         : en:Chapter 13
  334. 00:30:28.576         : en:Chapter 14
  335. 00:31:06.489         : en:Chapter 15
  336. 00:33:06.401         : en:Chapter 16
  337. 00:34:13.551         : en:Chapter 17
  338. 00:36:54.921         : en:Chapter 18
  339. 00:39:44.715         : en:Chapter 19
  340. 00:41:06.547         : en:Chapter 20
  341. 00:42:30.756         : en:Chapter 21
  342. 00:43:44.913         : en:Chapter 22
  343. 00:52:19.219         : en:Chapter 23
  344. 00:55:48.970         : en:Chapter 24
  345. 01:02:06.305         : en:Chapter 25
  346. 01:07:31.839         : en:Chapter 26
  347. 01:12:38.520         : en:Chapter 27
  348. 01:14:13.699         : en:Chapter 28
  349. 01:16:57.988         : en:Chapter 29
  350. 01:20:22.526         : en:Chapter 30
  351. 01:22:41.206         : en:Chapter 31
  352. 01:29:19.562         : en:Chapter 32
  353. 01:30:15.618         : en:Chapter 33
  354. 01:32:08.856         : en:Chapter 34
  355. 01:38:54.386         : en:Chapter 35
  356. 01:44:43.151         : en:Chapter 36
  357. 01:46:16.995         : en:Chapter 37
  358. 01:50:01.052         : en:Chapter 38
  359. 02:01:40.292         : en:Chapter 39
  360. 02:09:07.698         : en:Chapter 40
  361. 02:13:18.031         : en:Chapter 41
  362. 02:15:50.517         : en:Chapter 42
  363. 02:21:35.069         : en:Chapter 43
  364. 02:30:15.548         : en:Chapter 44
  365. 02:32:10.746         : en:Chapter 45
  366. 02:34:01.190         : en:Chapter 46
  367. 02:43:13.825         : en:Chapter 47
  368. 02:47:49.601         : en:Chapter 48
  369. 02:52:22.915         : en:Chapter 49
  370. 02:54:04.308         : en:Chapter 50
  371. 02:56:23.030         : en:Chapter 51
  372. 03:03:56.525         : en:Chapter 52
  373. 03:10:35.090         : en:Chapter 53



复制代码



金刚 King.Kong.2005.EXTENDED.2160p.BluRay.REMUX.HEVC.DTS-X.7.1-FGT 79.92GB-2.png 金刚 King.Kong.2005.EXTENDED.2160p.BluRay.REMUX.HEVC.DTS-X.7.1-FGT 79.92GB-3.png 金刚 King.Kong.2005.EXTENDED.2160p.BluRay.REMUX.HEVC.DTS-X.7.1-FGT 79.92GB-4.png 金刚 King.Kong.2005.EXTENDED.2160p.BluRay.REMUX.HEVC.DTS-X.7.1-FGT 79.92GB-5.png 金刚 King.Kong.2005.EXTENDED.2160p.BluRay.REMUX.HEVC.DTS-X.7.1-FGT 79.92GB-6.png 金刚 King.Kong.2005.EXTENDED.2160p.BluRay.REMUX.HEVC.DTS-X.7.1-FGT 79.92GB-7.png





回复

使用道具 举报

 成长值: 2650

发表于 2020-6-19 22:02:32 | 显示全部楼层
谢谢版主
回复

使用道具 举报

发表于 2020-6-19 22:36:07 | 显示全部楼层

其实我一直觉得楼主的品味不错!呵呵!蓝光电影网太棒了!
回复 支持 反对

使用道具 举报

发表于 2020-6-19 22:45:47 | 显示全部楼层

楼主太厉害了!楼主,电影应该很好看我觉得蓝光电影网真是个好地方!
回复 支持 反对

使用道具 举报

发表于 2020-6-19 23:55:15 | 显示全部楼层
帝国大厦哈哈哈
回复 支持 反对

使用道具 举报

发表于 2020-6-20 00:28:14 | 显示全部楼层
楼主发贴辛苦了,谢谢楼主分享!我觉得蓝光电影网是注册对了!
回复 支持 反对

使用道具 举报

发表于 2020-6-20 00:38:58 | 显示全部楼层
萝 莉 控 的 最 爱 【 g e 5 丶 m e
回复 支持 反对

使用道具 举报

发表于 2020-6-20 01:19:38 | 显示全部楼层
楼主发贴辛苦了,谢谢楼主分享!我觉得蓝光电影网是注册对了!
回复 支持 反对

使用道具 举报

发表于 2020-6-20 01:37:33 | 显示全部楼层

这东西我收了!谢谢楼主!蓝光电影网真好!
回复 支持 反对

使用道具 举报

发表于 2020-6-20 02:16:15 | 显示全部楼层
楼主发贴辛苦了,谢谢楼主分享!我觉得蓝光电影网是注册对了!
回复 支持 反对

使用道具 举报

懒得打字嘛,点击右侧快捷回复 【右侧内容,后台自定义】
您需要登录后才可以回帖 登录 | 立即加入

本版积分规则

现在加入蓝光电影网,注册一个账号
上个主题 下个主题 快速回复 收藏帖子 返回列表 客服中心 搜索

手机版|小黑屋| 蓝光电影网 |网站地图 

Copyright © 2015-2019 Comsenz Inc.  Template by 蓝光电影论坛 All Rights Reserved.

Powered by 蓝光电影网 X3.4

特别声明:本站所有资源均由网上收集而来,版权归原影音公司所有,如果侵犯了你的权益,请通知我们,我们会及时删除侵权内容.

快速回复 返回顶部 返回列表