找回密码

蓝光电影网

查看: 367|回复: 10

[剧情] 圣女贞德:战争篇 Joan.the.Maid.1.The.Battles.1994.1080p.BluRay.x264-DEPTH 20.38GB

[复制链接]

 成长值: 26140

发表于 2020-5-23 14:42:19 | 显示全部楼层 |阅读模式
圣女贞德:战争篇 Joan.the.Maid.1.The.Battles.1994.1080p.BluRay.x264-DEPTH 20.38GB-1.png

译  名 圣女贞德:战争篇 / Joan the Maid 1.: The Battles
片  名 Jeanne la Pucelle I - Les batailles
年  代 1994
产  地 法国
类  别 剧情 / 传记 / 历史 / 战争
语  言 法语
上映日期 1994-02-09(法国)
IMDb评分  7.1/10 from 547 users
IMDb链接  https://www.imdb.com/title/tt0107259
豆瓣评分 7.3/10 from 103 users
豆瓣链接 https://movie.douban.com/subject/1957964/
片  长 160 分钟
导  演 雅克·里维特 Jacques Rivette
编  剧 帕斯卡尔·博尼策尔 Pascal Bonitzer / Christine Laurent / 雅克·里维特 Jacques Rivette
主  演 Tatiana Moukhine
       桑德里娜·博内尔 Sandrine Bonnaire
       Jean-Marie Richier
       Baptiste Roussillon
       Jean-Luc Petit
       Bernadette Giraud
       Jean-Claude Jay
       Olivier Cruveiller
       Benjamin Rataud
       Cyril Haouzi
       Réginald Huguenin
       Patrick Adomian
       Nicolas Vian
       安德烈·马尔孔 André Marcon
       让-路易·里夏尔 Jean-Louis Richard
       马塞尔·博佐内 Marcel Bozonnet
       让-皮耶·罗利特 Jean-Pierre Lorit
       Jér?me Nicolin
       布鲁诺·沃尔科维奇 Bruno Wolkowitch
       皮埃尔·巴约 Pierre Baillot
       马蒂亚斯·容 Mathias Jung
       泽维尔·玛利 Xavier Maly
       雅克·里维特 Jacques Rivette


标  签 法国 | Jacques_Rivette | 法国电影 | JacquesRivette | 传记 | 雅克·里维特 | 1994 | 1990s

简  介  

  暂无相关剧情介绍
  1. Video
  2. ID                                       : 1
  3. Format                                   : AVC
  4. Format/Info                              : Advanced Video Codec
  5. Format profile                           : High@L4
  6. Format settings                          : CABAC / 4 Ref Frames
  7. Format settings, CABAC                   : Yes
  8. Format settings, Reference frames        : 4 frames
  9. Codec ID                                 : V_MPEG4/ISO/AVC
  10. Duration                                 : 2 h 40 min
  11. Bit rate                                 : 16.4 Mb/s
  12. Width                                    : 1 920 pixels
  13. Height                                   : 1 036 pixels
  14. Display aspect ratio                     : 1.85:1
  15. Frame rate mode                          : Constant
  16. Frame rate                               : 24.000 FPS
  17. Color space                              : YUV
  18. Chroma subsampling                       : 4:2:0
  19. Bit depth                                : 8 bits
  20. Scan type                                : Progressive
  21. Bits/(Pixel*Frame)                       : 0.343
  22. Stream size                              : 18.4 GiB (90%)
  23. Writing library                          : x264 core 160 r3000 33f9e14
  24. Encoding settings                        : cabac=1 / ref=4 / deblock=1:-3:-3 / analyse=0x3:0x133 / me=umh / subme=10 / psy=1 / psy_rd=1.00:0.15 / mixed_ref=1 / me_range=32 / chroma_me=1 / trellis=2 / 8x8dct=1 / cqm=0 / deadzone=21,11 / fast_pskip=0 / chroma_qp_offset=-3 / threads=30 / lookahead_threads=5 / sliced_threads=0 / nr=0 / decimate=1 / interlaced=0 / bluray_compat=0 / constrained_intra=0 / bframes=8 / b_pyramid=2 / b_adapt=2 / b_bias=0 / direct=3 / weightb=1 / open_gop=0 / weightp=2 / keyint=250 / keyint_min=24 / scenecut=40 / intra_refresh=0 / rc=crf / mbtree=0 / crf=18.5 / qcomp=0.60 / qpmin=0 / qpmax=69 / qpstep=4 / ip_ratio=1.40 / pb_ratio=1.30 / aq=3:0.80
  25. Default                                  : Yes
  26. Forced                                   : No

  27. Audio
  28. ID                                       : 2
  29. Format                                   : DTS XLL
  30. Format/Info                              : Digital Theater Systems
  31. Commercial name                          : DTS-HD Master Audio
  32. Codec ID                                 : A_DTS
  33. Duration                                 : 2 h 40 min
  34. Bit rate mode                            : Variable
  35. Bit rate                                 : 1 787 kb/s
  36. Channel(s)                               : 6 channels
  37. Channel layout                           : C L R Ls Rs LFE
  38. Sampling rate                            : 48.0 kHz
  39. Frame rate                               : 93.750 FPS (512 SPF)
  40. Bit depth                                : 16 bits
  41. Compression mode                         : Lossless
  42. Stream size                              : 2.00 GiB (10%)
  43. Language                                 : French
  44. Default                                  : Yes
  45. Forced                                   : No

  46. Text #1
  47. ID                                       : 3
  48. Format                                   : UTF-8
  49. Codec ID                                 : S_TEXT/UTF8
  50. Codec ID/Info                            : UTF-8 Plain Text
  51. Duration                                 : 2 h 32 min
  52. Bit rate                                 : 38 b/s
  53. Count of elements                        : 1498
  54. Stream size                              : 43.3 KiB (0%)
  55. Language                                 : English
  56. Default                                  : Yes
  57. Forced                                   : Yes

  58. Text #2
  59. ID                                       : 4
  60. Format                                   : PGS
  61. Muxing mode                              : zlib
  62. Codec ID                                 : S_HDMV/PGS
  63. Codec ID/Info                            : Picture based subtitle format used on BDs/HD-DVDs
  64. Duration                                 : 2 h 32 min
  65. Bit rate                                 : 27.9 kb/s
  66. Count of elements                        : 2997
  67. Stream size                              : 30.5 MiB (0%)
  68. Language                                 : English
  69. Default                                  : No
  70. Forced                                   : No

  71. Menu
  72. 00:00:00.000                             : en:Chapter 01
  73. 00:07:40.875                             : en:Chapter 02
  74. 00:21:30.625                             : en:Chapter 03
  75. 00:32:14.625                             : en:Chapter 04
  76. 00:38:37.167                             : en:Chapter 05
  77. 00:51:53.583                             : en:Chapter 06
  78. 01:00:13.000                             : en:Chapter 07
  79. 01:12:40.750                             : en:Chapter 08
  80. 01:21:54.625                             : en:Chapter 09
  81. 01:31:21.250                             : en:Chapter 10
  82. 01:41:35.083                             : en:Chapter 11
  83. 01:50:20.792                             : en:Chapter 12
  84. 02:00:20.542                             : en:Chapter 13
  85. 02:09:46.833                             : en:Chapter 14
  86. 02:19:08.000                             : en:Chapter 15
  87. 02:29:03.500                             : en:Chapter 16
复制代码

圣女贞德:战争篇 Joan.the.Maid.1.The.Battles.1994.1080p.BluRay.x264-DEPTH 20.38GB-2.png






回复

使用道具 举报

发表于 2020-5-23 17:27:53 来自手机 | 显示全部楼层
4k修复,值得拥有
回复 支持 反对

使用道具 举报

发表于 2020-5-23 19:54:07 | 显示全部楼层

楼主太厉害了!楼主,电影应该很好看我觉得蓝光电影网真是个好地方!
回复 支持 反对

使用道具 举报

发表于 2020-5-23 21:03:19 | 显示全部楼层
楼主发贴辛苦了,谢谢楼主分享!我觉得蓝光电影网是注册对了!
回复 支持 反对

使用道具 举报

发表于 2020-5-23 21:04:03 | 显示全部楼层
楼主发贴辛苦了,谢谢楼主分享!我觉得蓝光电影网是注册对了!
回复 支持 反对

使用道具 举报

发表于 2020-5-23 21:04:45 | 显示全部楼层
楼主发贴辛苦了,谢谢楼主分享!我觉得蓝光电影网是注册对了!
回复 支持 反对

使用道具 举报

发表于 2020-5-23 21:28:54 | 显示全部楼层

楼主太厉害了!楼主,电影应该很好看我觉得蓝光电影网真是个好地方!
回复 支持 反对

使用道具 举报

发表于 2020-5-23 22:29:32 | 显示全部楼层
楼主发贴辛苦了,谢谢楼主分享!我觉得蓝光电影网是注册对了!
回复 支持 反对

使用道具 举报

 成长值: 4045

发表于 2020-5-23 22:35:03 | 显示全部楼层
楼主发贴辛苦了,谢谢楼主分享!我觉得蓝光电影网是注册对了!
回复 支持 反对

使用道具 举报

已抛锚 成长值: 290

发表于 7 天前 | 显示全部楼层

我看不错噢 谢谢楼主!蓝光电影网越来越好!
回复 支持 反对

使用道具 举报

懒得打字嘛,点击右侧快捷回复 【右侧内容,后台自定义】
您需要登录后才可以回帖 登录 | 立即加入

本版积分规则

现在加入蓝光电影网,注册一个账号
上个主题 下个主题 快速回复 收藏帖子 返回列表 客服中心 搜索

手机版|小黑屋| 蓝光电影网 |网站地图 

Copyright © 2015-2019 Comsenz Inc.  Template by 蓝光电影论坛 All Rights Reserved.

Powered by 蓝光电影网 X3.4

特别声明:本站所有资源均由网上收集而来,版权归原影音公司所有,如果侵犯了你的权益,请通知我们,我们会及时删除侵权内容.

快速回复 返回顶部 返回列表