找回密码

蓝光电影网

查看: 196|回复: 1

[剧情] 野寺情鸳 Thunder.on.the.Hill.1951.1080p.BluRay.x264.DTS-FGT 7.68GB

[复制链接]

 成长值: 26140

发表于 2020-5-23 14:31:03 | 显示全部楼层 |阅读模式
野寺情鸳 Thunder.on.the.Hill.1951.1080p.BluRay.x264.DTS-FGT 7.68GB-1.png

译  名 野寺情鸳
片  名 Thunder on the Hill
年  代 1951
产  地 美国
类  别 剧情
语  言 英语
上映日期 1951-10-17
IMDb评分  6.8/10 from 535 users
IMDb链接  https://www.imdb.com/title/tt0044128
豆瓣评分 0/10 from 0 users
豆瓣链接 https://movie.douban.com/subject/1299925/
片  长 84 分钟
导  演 Douglas Sirk
编  剧 Oscar Saul / Andrew Solt
主  演 Claudette Colbert
       Ann Blyth
       Robert Douglas


标  签 道格拉斯·塞克 | Douglas_Sirk | DouglasSirk | 美国电影 | 很想看 | 剧情 | 克劳黛·考尔白 | 黑色电影

简  介  

  被宣判死刑的凶手瓦莱丽在被送往执行现场时正巧遇到洪水泛滥,把她冲走,当她醒来时却发现在一所修道院中躺着,玛丽修女悉心照顾着她,从瓦莱丽的言行和说辞中,玛丽修女越来越坚信瓦莱丽并不是真正的凶手而是被陷害的,于是她决定亲自下山,和瓦莱丽寻找真凶还她清白。
  1. Video
  2. ID                                       : 1
  3. Format                                   : AVC
  4. Format/Info                              : Advanced Video Codec
  5. Format profile                           : High@L4
  6. Format settings                          : CABAC / 4 Ref Frames
  7. Format settings, CABAC                   : Yes
  8. Format settings, Reference frames        : 4 frames
  9. Codec ID                                 : V_MPEG4/ISO/AVC
  10. Duration                                 : 1 h 24 min
  11. Bit rate                                 : 11.5 Mb/s
  12. Width                                    : 1 464 pixels
  13. Height                                   : 1 080 pixels
  14. Display aspect ratio                     : 4:3
  15. Frame rate mode                          : Constant
  16. Frame rate                               : 23.976 (24000/1001/189150) FPS
  17. Color space                              : YUV
  18. Chroma subsampling                       : 4:2:0
  19. Bit depth                                : 8 bits
  20. Scan type                                : Progressive
  21. Bits/(Pixel*Frame)                       : 0.303
  22. Stream size                              : 6.79 GiB (88%)
  23. Title                                    : Thunder.on.the.Hill.1951.1080p.BluRay.x264.DTS-FGT
  24. Writing library                          : x264 core 148 r2795M aaa9aa8
  25. Encoding settings                        : cabac=1 / ref=4 / deblock=1:-2:-2 / analyse=0x3:0x113 / me=umh / subme=9 / psy=1 / psy_rd=1.00:0.15 / mixed_ref=1 / me_range=16 / chroma_me=1 / trellis=2 / 8x8dct=1 / cqm=0 / deadzone=21,11 / fast_pskip=1 / chroma_qp_offset=-3 / threads=24 / lookahead_threads=3 / sliced_threads=0 / nr=0 / decimate=1 / interlaced=0 / bluray_compat=0 / constrained_intra=0 / bframes=3 / b_pyramid=2 / b_adapt=1 / b_bias=0 / direct=3 / weightb=1 / open_gop=0 / weightp=2 / keyint=250 / keyint_min=25 / scenecut=40 / intra_refresh=0 / rc_lookahead=50 / rc=2pass / mbtree=1 / bitrate=11500 / ratetol=1.0 / qcomp=0.60 / qpmin=0 / qpmax=69 / qpstep=4 / cplxblur=20.0 / qblur=0.5 / vbv_maxrate=31250 / vbv_bufsize=31250 / nal_hrd=none / filler=0 / ip_ratio=1.40 / aq=1:1.00
  26. Language                                 : English
  27. Default                                  : Yes
  28. Forced                                   : No

  29. Audio
  30. ID                                       : 2
  31. ID in the original source medium         : 4352 (0x1100)
  32. Format                                   : DTS
  33. Format/Info                              : Digital Theater Systems
  34. Codec ID                                 : A_DTS
  35. Duration                                 : 1 h 24 min
  36. Bit rate mode                            : Constant
  37. Bit rate                                 : 1 509 kb/s
  38. Channel(s)                               : 2 channels
  39. Channel layout                           : L R
  40. Sampling rate                            : 48.0 kHz
  41. Frame rate                               : 93.750 FPS (512 SPF)
  42. Bit depth                                : 16 bits
  43. Compression mode                         : Lossy
  44. Stream size                              : 912 MiB (12%)
  45. Title                                    : Thunder.on.the.Hill.1951.1080p.BluRay.x264.DTS-FGT
  46. Language                                 : English
  47. Default                                  : Yes
  48. Forced                                   : No
  49. Original source medium                   : Blu-ray

  50. Text
  51. ID                                       : 3
  52. Format                                   : UTF-8
  53. Codec ID                                 : S_TEXT/UTF8
  54. Codec ID/Info                            : UTF-8 Plain Text
  55. Duration                                 : 1 h 21 min
  56. Bit rate                                 : 87 b/s
  57. Count of elements                        : 1610
  58. Stream size                              : 52.6 KiB (0%)
  59. Language                                 : English
  60. Default                                  : Yes
  61. Forced                                   : No

  62. Menu
  63. 00:00:00.000                             : en:Chapter 00
  64. 00:09:11.884                             : en:Chapter 01
  65. 00:15:51.700                             : en:Chapter 02
  66. 00:26:58.908                             : en:Chapter 03
  67. 00:36:30.354                             : en:Chapter 04
  68. 00:48:53.764                             : en:Chapter 05
  69. 01:00:03.016                             : en:Chapter 06
  70. 01:12:04.987                             : en:Chapter 07
复制代码

野寺情鸳 Thunder.on.the.Hill.1951.1080p.BluRay.x264.DTS-FGT 7.68GB-2.png 野寺情鸳 Thunder.on.the.Hill.1951.1080p.BluRay.x264.DTS-FGT 7.68GB-3.png 野寺情鸳 Thunder.on.the.Hill.1951.1080p.BluRay.x264.DTS-FGT 7.68GB-4.png






回复

使用道具 举报

发表于 2020-5-23 19:55:36 | 显示全部楼层

楼主太厉害了!楼主,电影应该很好看我觉得蓝光电影网真是个好地方!
回复 支持 反对

使用道具 举报

懒得打字嘛,点击右侧快捷回复 【右侧内容,后台自定义】
您需要登录后才可以回帖 登录 | 立即加入

本版积分规则

现在加入蓝光电影网,注册一个账号
上个主题 下个主题 快速回复 收藏帖子 返回列表 客服中心 搜索

手机版|小黑屋| 蓝光电影网 |网站地图 

Copyright © 2015-2019 Comsenz Inc.  Template by 蓝光电影论坛 All Rights Reserved.

Powered by 蓝光电影网 X3.4

特别声明:本站所有资源均由网上收集而来,版权归原影音公司所有,如果侵犯了你的权益,请通知我们,我们会及时删除侵权内容.

快速回复 返回顶部 返回列表