找回密码

蓝光电影网

查看: 125|回复: 2

[喜剧] 临终囧事 Mortician.2013.CHINESE.1080p.BluRay.x264.DTS-FGT 8.60GB

[复制链接]

 成长值: 26140

发表于 2020-5-23 00:13:33 | 显示全部楼层 |阅读模式
临终囧事 Mortician.2013.CHINESE.1080p.BluRay.x264.DTS-FGT 8.60GB-1.png

译  名 Mortician
片  名 临终囧事
年  代 2013
产  地 中国大陆
类  别 喜剧 / 恐怖
语  言 汉语普通话
上映日期 2013-05-16(中国大陆)
IMDb评分  5.6/10 from 37 users
IMDb链接  https://www.imdb.com/title/tt4263056
豆瓣评分 5.4/10 from 5399 users
豆瓣链接 https://movie.douban.com/subject/24089455/
片  长 95分钟
导  演 钱江汉 Chin Cub
编  剧 文隽 Manfred Wong / 丁小洋 Xiaoyang Ding
主  演 包贝尔 Beier Bao
       詹瑞文 Sui-man Chim
       文咏珊 Janice Man
       冯淬帆 Stanley Fung
       莫小棋 Monica Mok
       景岗山 Gangshan Jing
       杨恭如 Kristy Yang
       林子聪 Chi Chung Lam
       张超 Juck Zhang


标  签 喜剧 | 中国 | 温情 | 临终囧事 | 搞笑 | 2013 | 恐怖 | 中国电影

简  介  

  牛小波(包贝尔 饰)出生在一个棺材世家,几代人以做棺材为生。因小时候一次离奇的事故,小波永远失去了“笑容”,无论碰上多么开心的事他都笑不出来,被人们称之为怪人,好在前些年一直生活在农村老家,他本人也没觉的不会笑是什么大不了的离奇事。渐渐长大成人的小波决定走出大山,到外面闯世界,可外面的世界虽精彩,闯起来却很无奈,原本想离开老家的棺材铺谋一份体面的工作,可最终还是进了殡仪馆工作,这令他多少有些失落。随着时间的推移,小波在殡仪馆领略了世间另一面的人生百态,目睹了各种各样家庭在亲人化为一缕青烟时所表现出的真实状态,明白了他先前没有悟到的人生百味......
  1. Video
  2. ID                                       : 1
  3. Format                                   : AVC
  4. Format/Info                              : Advanced Video Codec
  5. Format profile                           : High@L4
  6. Format settings                          : CABAC / 4 Ref Frames
  7. Format settings, CABAC                   : Yes
  8. Format settings, Reference frames        : 4 frames
  9. Codec ID                                 : V_MPEG4/ISO/AVC
  10. Duration                                 : 1 h 34 min
  11. Bit rate                                 : 11.5 Mb/s
  12. Width                                    : 1 920 pixels
  13. Height                                   : 804 pixels
  14. Display aspect ratio                     : 2.40:1
  15. Frame rate mode                          : Constant
  16. Frame rate                               : 24.000 FPS
  17. Color space                              : YUV
  18. Chroma subsampling                       : 4:2:0
  19. Bit depth                                : 8 bits
  20. Scan type                                : Progressive
  21. Bits/(Pixel*Frame)                       : 0.310
  22. Stream size                              : 7.60 GiB (88%)
  23. Title                                    : Mortician.2013.CHINESE.1080p.BluRay.x264.DTS-FGT
  24. Writing library                          : x264 core 148 r2748 97eaef2
  25. Encoding settings                        : cabac=1 / ref=4 / deblock=1:-2:-2 / analyse=0x3:0x113 / me=umh / subme=9 / psy=1 / psy_rd=1.00:0.15 / mixed_ref=1 / me_range=16 / chroma_me=1 / trellis=2 / 8x8dct=1 / cqm=0 / deadzone=21,11 / fast_pskip=1 / chroma_qp_offset=-3 / threads=24 / lookahead_threads=3 / sliced_threads=0 / nr=0 / decimate=1 / interlaced=0 / bluray_compat=0 / constrained_intra=0 / bframes=3 / b_pyramid=2 / b_adapt=1 / b_bias=0 / direct=3 / weightb=1 / open_gop=0 / weightp=2 / keyint=250 / keyint_min=25 / scenecut=40 / intra_refresh=0 / rc_lookahead=50 / rc=2pass / mbtree=1 / bitrate=11500 / ratetol=1.0 / qcomp=0.60 / qpmin=0 / qpmax=69 / qpstep=4 / cplxblur=20.0 / qblur=0.5 / vbv_maxrate=31250 / vbv_bufsize=31250 / nal_hrd=none / filler=0 / ip_ratio=1.40 / aq=1:1.00
  26. Language                                 : Chinese
  27. Default                                  : Yes
  28. Forced                                   : No

  29. Audio
  30. ID                                       : 2
  31. Format                                   : DTS
  32. Format/Info                              : Digital Theater Systems
  33. Codec ID                                 : A_DTS
  34. Duration                                 : 1 h 34 min
  35. Bit rate mode                            : Constant
  36. Bit rate                                 : 1 509 kb/s
  37. Channel(s)                               : 6 channels
  38. Channel layout                           : C L R Ls Rs LFE
  39. Sampling rate                            : 48.0 kHz
  40. Frame rate                               : 93.750 FPS (512 SPF)
  41. Bit depth                                : 16 bits
  42. Compression mode                         : Lossy
  43. Stream size                              : 1 022 MiB (12%)
  44. Title                                    : Mortician.2013.CHINESE.1080p.BluRay.x264.DTS-FGT
  45. Language                                 : Chinese
  46. Default                                  : Yes
  47. Forced                                   : No

  48. Text
  49. ID                                       : 3
  50. Format                                   : UTF-8
  51. Codec ID                                 : S_TEXT/UTF8
  52. Codec ID/Info                            : UTF-8 Plain Text
  53. Duration                                 : 1 h 29 min
  54. Bit rate                                 : 52 b/s
  55. Count of elements                        : 1334
  56. Stream size                              : 34.1 KiB (0%)
  57. Language                                 : English
  58. Default                                  : Yes
  59. Forced                                   : No

  60. Menu
  61. 00:00:00.000                             : en:Chapter 1
  62. 00:04:38.208                             : en:Chapter 2
  63. 00:10:03.250                             : en:Chapter 3
  64. 00:14:47.375                             : en:Chapter 4
  65. 00:19:40.583                             : en:Chapter 5
  66. 00:23:54.250                             : en:Chapter 6
  67. 00:27:52.458                             : en:Chapter 7
  68. 00:33:51.417                             : en:Chapter 8
  69. 00:36:31.000                             : en:Chapter 9
  70. 00:40:19.875                             : en:Chapter 10
  71. 00:46:42.417                             : en:Chapter 11
  72. 00:52:59.250                             : en:Chapter 12
  73. 00:59:02.125                             : en:Chapter 13
  74. 01:02:13.917                             : en:Chapter 14
  75. 01:06:20.333                             : en:Chapter 15
  76. 01:12:08.500                             : en:Chapter 16
  77. 01:15:05.708                             : en:Chapter 17
  78. 01:18:44.750                             : en:Chapter 18
  79. 01:25:58.417                             : en:Chapter 19
  80. 01:31:34.958                             : en:Chapter 20
复制代码

临终囧事 Mortician.2013.CHINESE.1080p.BluRay.x264.DTS-FGT 8.60GB-2.png 临终囧事 Mortician.2013.CHINESE.1080p.BluRay.x264.DTS-FGT 8.60GB-3.png 临终囧事 Mortician.2013.CHINESE.1080p.BluRay.x264.DTS-FGT 8.60GB-4.png






回复

使用道具 举报

发表于 2020-5-23 09:41:02 | 显示全部楼层

我看不错噢 谢谢楼主!蓝光电影网越来越好!
回复 支持 反对

使用道具 举报

 成长值: 2960

发表于 2020-5-23 17:48:07 | 显示全部楼层
谢谢楼主无私分享。
回复 支持 反对

使用道具 举报

懒得打字嘛,点击右侧快捷回复 【右侧内容,后台自定义】
您需要登录后才可以回帖 登录 | 立即加入

本版积分规则

现在加入蓝光电影网,注册一个账号
上个主题 下个主题 快速回复 收藏帖子 返回列表 客服中心 搜索

手机版|小黑屋| 蓝光电影网 |网站地图 

Copyright © 2015-2019 Comsenz Inc.  Template by 蓝光电影论坛 All Rights Reserved.

Powered by 蓝光电影网 X3.4

特别声明:本站所有资源均由网上收集而来,版权归原影音公司所有,如果侵犯了你的权益,请通知我们,我们会及时删除侵权内容.

快速回复 返回顶部 返回列表