找回密码

蓝光电影网

查看: 45|回复: 1

[悬疑] 夜晚的妖怪 Night.Monster.1942.1080p.BluRay.x264.DTS-FGT 6.19GB

[复制链接]

 成长值: 26140

发表于 2020-5-23 00:11:49 | 显示全部楼层 |阅读模式
夜晚的妖怪 Night.Monster.1942.1080p.BluRay.x264.DTS-FGT 6.19GB-1.png

译  名 夜晚的妖怪
片  名 Night Monster
年  代 1942
产  地 美国
类  别 悬疑 / 惊悚 / 恐怖
语  言 英语
上映日期 1942
IMDb评分  6.3/10 from 1103 users
IMDb链接  https://www.imdb.com/title/tt0035124
豆瓣评分 0/10 from 0 users
豆瓣链接 https://movie.douban.com/subject/5069603/
片  长 73 分钟
导  演 Ford Beebe
编  剧 Clarence Upson Young

标  签 美国电影 | 悬疑 | 1940s | 美影 | 惊悚 | 恐怖 | 吸血鬼 | UniversalClassicMonsters

简  介  

  暂无相关剧情介绍
  1. Video
  2. ID                                       : 1
  3. Format                                   : AVC
  4. Format/Info                              : Advanced Video Codec
  5. Format profile                           : High@L4
  6. Format settings                          : CABAC / 4 Ref Frames
  7. Format settings, CABAC                   : Yes
  8. Format settings, Reference frames        : 4 frames
  9. Codec ID                                 : V_MPEG4/ISO/AVC
  10. Duration                                 : 1 h 12 min
  11. Bit rate                                 : 11.5 Mb/s
  12. Width                                    : 1 480 pixels
  13. Height                                   : 1 080 pixels
  14. Display aspect ratio                     : 1.370
  15. Frame rate mode                          : Constant
  16. Frame rate                               : 23.976 (24000/1001/189150) FPS
  17. Color space                              : YUV
  18. Chroma subsampling                       : 4:2:0
  19. Bit depth                                : 8 bits
  20. Scan type                                : Progressive
  21. Bits/(Pixel*Frame)                       : 0.300
  22. Stream size                              : 5.80 GiB (94%)
  23. Title                                    : Night.Monster.1942.1080p.BluRay.x264.DTS-FGT
  24. Writing library                          : x264 core 148 r2795M aaa9aa8
  25. Encoding settings                        : cabac=1 / ref=4 / deblock=1:-2:-2 / analyse=0x3:0x113 / me=umh / subme=9 / psy=1 / psy_rd=1.00:0.15 / mixed_ref=1 / me_range=16 / chroma_me=1 / trellis=2 / 8x8dct=1 / cqm=0 / deadzone=21,11 / fast_pskip=1 / chroma_qp_offset=-3 / threads=24 / lookahead_threads=3 / sliced_threads=0 / nr=0 / decimate=1 / interlaced=0 / bluray_compat=0 / constrained_intra=0 / bframes=3 / b_pyramid=2 / b_adapt=1 / b_bias=0 / direct=3 / weightb=1 / open_gop=0 / weightp=2 / keyint=250 / keyint_min=25 / scenecut=40 / intra_refresh=0 / rc_lookahead=50 / rc=2pass / mbtree=1 / bitrate=11500 / ratetol=1.0 / qcomp=0.60 / qpmin=0 / qpmax=69 / qpstep=4 / cplxblur=20.0 / qblur=0.5 / vbv_maxrate=31250 / vbv_bufsize=31250 / nal_hrd=none / filler=0 / ip_ratio=1.40 / aq=1:1.00
  26. Language                                 : English
  27. Default                                  : Yes
  28. Forced                                   : No

  29. Audio
  30. ID                                       : 2
  31. ID in the original source medium         : 4352 (0x1100)
  32. Format                                   : DTS
  33. Format/Info                              : Digital Theater Systems
  34. Codec ID                                 : A_DTS
  35. Duration                                 : 1 h 12 min
  36. Bit rate mode                            : Constant
  37. Bit rate                                 : 768 kb/s
  38. Channel(s)                               : 1 channel
  39. Channel layout                           : C
  40. Sampling rate                            : 48.0 kHz
  41. Frame rate                               : 93.750 FPS (512 SPF)
  42. Bit depth                                : 24 bits
  43. Compression mode                         : Lossy
  44. Stream size                              : 397 MiB (6%)
  45. Title                                    : Night.Monster.1942.1080p.BluRay.x264.DTS-FGT
  46. Language                                 : English
  47. Default                                  : Yes
  48. Forced                                   : No
  49. Original source medium                   : Blu-ray

  50. Text
  51. ID                                       : 3
  52. Format                                   : UTF-8
  53. Codec ID                                 : S_TEXT/UTF8
  54. Codec ID/Info                            : UTF-8 Plain Text
  55. Duration                                 : 1 h 10 min
  56. Bit rate                                 : 77 b/s
  57. Count of elements                        : 1272
  58. Stream size                              : 39.9 KiB (0%)
  59. Language                                 : English
  60. Default                                  : Yes
  61. Forced                                   : No

  62. Menu
  63. 00:00:00.000                             : en:Chapter 01
  64. 00:06:31.933                             : en:Chapter 02
  65. 00:12:15.025                             : en:Chapter 03
  66. 00:18:06.543                             : en:Chapter 04
  67. 00:24:47.444                             : en:Chapter 05
  68. 00:33:38.891                             : en:Chapter 06
  69. 00:39:36.957                             : en:Chapter 07
  70. 00:43:48.083                             : en:Chapter 08
  71. 00:49:36.556                             : en:Chapter 09
  72. 00:56:05.070                             : en:Chapter 10
  73. 01:01:43.825                             : en:Chapter 11
  74. 01:07:57.031                             : en:Chapter 12
复制代码

夜晚的妖怪 Night.Monster.1942.1080p.BluRay.x264.DTS-FGT 6.19GB-2.png 夜晚的妖怪 Night.Monster.1942.1080p.BluRay.x264.DTS-FGT 6.19GB-3.png 夜晚的妖怪 Night.Monster.1942.1080p.BluRay.x264.DTS-FGT 6.19GB-4.png






回复

使用道具 举报

发表于 7 天前 | 显示全部楼层
支持支持!!!!!!!
回复

使用道具 举报

懒得打字嘛,点击右侧快捷回复 【右侧内容,后台自定义】
您需要登录后才可以回帖 登录 | 立即加入

本版积分规则

现在加入蓝光电影网,注册一个账号
上个主题 下个主题 快速回复 收藏帖子 返回列表 客服中心 搜索

手机版|小黑屋| 蓝光电影网 |网站地图 

Copyright © 2015-2019 Comsenz Inc.  Template by 蓝光电影论坛 All Rights Reserved.

Powered by 蓝光电影网 X3.4

特别声明:本站所有资源均由网上收集而来,版权归原影音公司所有,如果侵犯了你的权益,请通知我们,我们会及时删除侵权内容.

快速回复 返回顶部 返回列表