找回密码

蓝光电影网

查看: 39|回复: 0

[剧情] 老铁壳 Old.Ironsides.1926.1080p.BluRay.x264.DTS-FGT 10.44GB

[复制链接]

 成长值: 26140

发表于 2020-5-23 00:10:57 | 显示全部楼层 |阅读模式
老铁壳 Old.Ironsides.1926.1080p.BluRay.x264.DTS-FGT 10.44GB-1.png

译  名 老铁壳
片  名 Old Ironsides
年  代 1926
产  地 美国
类  别 剧情 / 历史
语  言 英语
上映日期 1926-12-06
IMDb评分  6.6/10 from 175 users
IMDb链接  https://www.imdb.com/title/tt0017226
豆瓣评分 0/10 from 0 users
豆瓣链接 https://movie.douban.com/subject/3441143/
片  长 111 分钟
导  演 James Cruze
编  剧 劳伦斯·斯托林斯 Laurence Stallings
主  演 Charles Farrell
       Esther Ralston
       Wallace Beery
       George Bancroft


标  签 1920s | BDISO | 1926

简  介  

  暂无相关剧情介绍
  1. Video
  2. ID                                       : 1
  3. Format                                   : AVC
  4. Format/Info                              : Advanced Video Codec
  5. Format profile                           : High@L4
  6. Format settings                          : CABAC / 4 Ref Frames
  7. Format settings, CABAC                   : Yes
  8. Format settings, Reference frames        : 4 frames
  9. Codec ID                                 : V_MPEG4/ISO/AVC
  10. Duration                                 : 1 h 54 min
  11. Bit rate                                 : 11.5 Mb/s
  12. Width                                    : 1 452 pixels
  13. Height                                   : 1 080 pixels
  14. Display aspect ratio                     : 4:3
  15. Frame rate mode                          : Constant
  16. Frame rate                               : 23.976 (24000/1001/189150) FPS
  17. Color space                              : YUV
  18. Chroma subsampling                       : 4:2:0
  19. Bit depth                                : 8 bits
  20. Scan type                                : Progressive
  21. Bits/(Pixel*Frame)                       : 0.306
  22. Stream size                              : 9.23 GiB (88%)
  23. Title                                    : Old.Ironsides.1926.1080p.BluRay.x264.DTS-FGT
  24. Writing library                          : x264 core 148 r2748 97eaef2
  25. Encoding settings                        : cabac=1 / ref=4 / deblock=1:-2:-2 / analyse=0x3:0x113 / me=umh / subme=9 / psy=1 / psy_rd=1.00:0.15 / mixed_ref=1 / me_range=16 / chroma_me=1 / trellis=2 / 8x8dct=1 / cqm=0 / deadzone=21,11 / fast_pskip=1 / chroma_qp_offset=-3 / threads=24 / lookahead_threads=3 / sliced_threads=0 / nr=0 / decimate=1 / interlaced=0 / bluray_compat=0 / constrained_intra=0 / bframes=3 / b_pyramid=2 / b_adapt=1 / b_bias=0 / direct=3 / weightb=1 / open_gop=0 / weightp=2 / keyint=250 / keyint_min=25 / scenecut=40 / intra_refresh=0 / rc_lookahead=50 / rc=2pass / mbtree=1 / bitrate=11500 / ratetol=1.0 / qcomp=0.60 / qpmin=0 / qpmax=69 / qpstep=4 / cplxblur=20.0 / qblur=0.5 / vbv_maxrate=31250 / vbv_bufsize=31250 / nal_hrd=none / filler=0 / ip_ratio=1.40 / aq=1:1.00
  26. Language                                 : English
  27. Default                                  : Yes
  28. Forced                                   : No

  29. Audio
  30. ID                                       : 2
  31. Format                                   : DTS
  32. Format/Info                              : Digital Theater Systems
  33. Codec ID                                 : A_DTS
  34. Duration                                 : 1 h 54 min
  35. Bit rate mode                            : Constant
  36. Bit rate                                 : 1 509 kb/s
  37. Channel(s)                               : 2 channels
  38. Channel layout                           : L R
  39. Sampling rate                            : 48.0 kHz
  40. Frame rate                               : 93.750 FPS (512 SPF)
  41. Bit depth                                : 24 bits
  42. Compression mode                         : Lossy
  43. Stream size                              : 1.21 GiB (12%)
  44. Title                                    : Old.Ironsides.1926.1080p.BluRay.x264.DTS-FGT
  45. Language                                 : English
  46. Default                                  : Yes
  47. Forced                                   : No

  48. Menu
  49. 00:00:00.000                             : en:Congress Hall
  50. 00:09:19.684                             : en:Frigate of Stout Oak
  51. 00:19:57.696                             : en:Greenhorn Aboard
  52. 00:30:16.314                             : en:Dirty Weather Ahead
  53. 00:38:09.913                             : en:At the Wheel
  54. 00:50:58.472                             : en:A Foggy Fight
  55. 00:58:19.621                             : en:Tripoli Harbor
  56. 01:10:07.036                             : en:Decatur\'s Trick
  57. 01:21:54.701                             : en:Rescue
  58. 01:31:47.544                             : en:Give \'Em Hell
复制代码

老铁壳 Old.Ironsides.1926.1080p.BluRay.x264.DTS-FGT 10.44GB-2.png 老铁壳 Old.Ironsides.1926.1080p.BluRay.x264.DTS-FGT 10.44GB-3.png 老铁壳 Old.Ironsides.1926.1080p.BluRay.x264.DTS-FGT 10.44GB-4.png






回复

使用道具 举报

懒得打字嘛,点击右侧快捷回复 【右侧内容,后台自定义】
您需要登录后才可以回帖 登录 | 立即加入

本版积分规则

现在加入蓝光电影网,注册一个账号
上个主题 下个主题 快速回复 收藏帖子 返回列表 客服中心 搜索

手机版|小黑屋| 蓝光电影网 |网站地图 

Copyright © 2015-2019 Comsenz Inc.  Template by 蓝光电影论坛 All Rights Reserved.

Powered by 蓝光电影网 X3.4

特别声明:本站所有资源均由网上收集而来,版权归原影音公司所有,如果侵犯了你的权益,请通知我们,我们会及时删除侵权内容.

快速回复 返回顶部 返回列表