找回密码

蓝光电影网

查看: 428|回复: 5

[10bit.HDR] 世界之战/世界大战 War.of.the.Worlds.2005.2160p.UHD.BluRay.X265.10bit.HDR.TrueHD.7.1.Atmos-WhiteRhino 31.02GB

[复制链接]

 成长值: 26155

发表于 2020-5-21 19:55:28 | 显示全部楼层 |阅读模式
世界之战/世界大战 War.of.the.Worlds.2005.2160p.UHD.BluRay.X265.10bit.HDR.TrueHD.7.1.Atmos-WhiteRhino 31.02GB-1.png

译  名 世界之战 / 世界大战 / 宇宙战争 / 强战世界 / 星际战争
片  名 War of the Worlds
年  代 2005
产  地 美国
类  别 科幻 / 惊悚 / 灾难
语  言 英语
上映日期 2005-06-29(美国) / 2005-08-25(中国大陆)
IMDb评分  6.5/10 from 404246 users
IMDb链接  https://www.imdb.com/title/tt0407304
豆瓣评分 6.6/10 from 67340 users
豆瓣链接 https://movie.douban.com/subject/1309044/
片  长 116分钟
导  演 史蒂文·斯皮尔伯格 Steven Spielberg
编  剧 乔什·弗莱德曼 Josh Friedman / 大卫·凯普 David Koepp / 赫伯特·乔治·威尔斯 H.G. Wells
主  演 汤姆·克鲁斯 Tom Cruise
       达科塔·范宁 Dakota Fanning
       米兰达·奥图 Miranda Otto
       贾斯汀·查特文 Justin Chatwin
       蒂姆·罗宾斯 Tim Robbins
       瑞克·冈萨雷斯 Rick Gonzalez
       尤尔·瓦斯克斯 Yul Vazquez
       莱尼·维尼托 Lenny Venito
       丽萨·安·沃尔特 Lisa Ann Walter
       安·鲁滨逊 Ann Robinson
       吉恩·巴瑞 Gene Barry
       大卫·阿伦·伯施理 David Alan Basche
       罗兹·亚布拉姆斯 Roz Abrams
       迈克尔·布朗李 Michael Brownlee
       卡米莉亚·莫内特 Camillia Monet
       艾米·莱安 Amy Ryan
       丹尼·霍奇 Danny Hoch


标  签 科幻 | 灾难 | 美国 | 斯皮尔伯格 | 汤姆·克鲁斯 | 美国电影 | TomCruise | StevenSpielberg

简  介  

  雷?费瑞尔(汤姆?克鲁斯 Tom Cruise 饰)和妻子离婚了,一儿一女都跟母亲生活——因为他的的贪玩懒散,疏忽责任,这个家庭才如此支离破碎。一场外星人入侵的灾难却让他们重新建立起亲密的的关系。
  这天妻子繁忙,只好把儿女交给雷照顾。电闪雷鸣天色灰暗,一切好像有些异样。 果然,马路上赫然一个庞大的三脚飞行器掘地而起,邪恶的火星人光顾了这个本来平静的小镇。人们四处逃亡,雷也带着女儿奔走逃命,开始了生死历险。当局想尽办法对付外星人,却屡屡失败,整个世界都陷入了恐慌当中。
  有了父爱的本能,平日吊儿郎当的父亲变得英勇顽强,保护儿女成了他支撑他的动力和信念。

获奖情况  

  第78届奥斯卡金像奖(2006)
  最佳视觉效果(提名) 巴勃罗·赫尔曼 / 丹尼斯·穆伦 / 兰迪·杜特拉 / 丹尼尔·萨迪克
  最佳混音(提名) 安迪·尼尔森 / 安娜·贝尔莫 / 朗·贾金斯
  最佳音效剪辑(提名) 理查德·金

  第15届MTV电影奖(2006)
  MTV电影奖 最佳惊恐戏表演(提名) 达科塔·范宁

  1. Video
  2. ID                                       : 1
  3. Format                                   : HEVC
  4. Format/Info                              : High Efficiency Video Coding
  5. Format profile                           : Main 10@L5.1@High
  6. HDR format                               : SMPTE ST 2086, HDR10 compatible
  7. Codec ID                                 : V_MPEGH/ISO/HEVC
  8. Duration                                 : 1 h 56 min
  9. Bit rate                                 : 32.4 Mb/s
  10. Width                                    : 3 840 pixels
  11. Height                                   : 2 160 pixels
  12. Display aspect ratio                     : 16:9
  13. Frame rate mode                          : Constant
  14. Frame rate                               : 23.976 (24000/1001/45165) FPS
  15. Color space                              : YUV
  16. Chroma subsampling                       : 4:2:0 (Type 2)
  17. Bit depth                                : 10 bits
  18. Bits/(Pixel*Frame)                       : 0.163
  19. Stream size                              : 26.4 GiB (86%)
  20. Writing library                          : x265 3.3+21-6bb2d88029c2:[Windows][GCC 10.0.1][64 bit] 10bit
  21. Encoding settings                        : cpuid=1111039 / frame-threads=6 / numa-pools=36 / wpp / no-pmode / no-pme / no-psnr / no-ssim / log-level=2 / input-csp=1 / input-res=3840x2160 / interlace=0 / total-frames=167635 / level-idc=51 / high-tier=1 / uhd-bd=0 / ref=4 / no-allow-non-conformance / repeat-headers / annexb / aud / hrd / info / hash=0 / no-temporal-layers / no-open-gop / min-keyint=23 / keyint=250 / gop-lookahead=0 / bframes=4 / b-adapt=2 / b-pyramid / bframe-bias=0 / rc-lookahead=25 / lookahead-slices=4 / scenecut=40 / hist-scenecut=0 / radl=0 / no-splice / no-intra-refresh / ctu=64 / min-cu-size=8 / rect / no-amp / max-tu-size=32 / tu-inter-depth=1 / tu-intra-depth=1 / limit-tu=0 / rdoq-level=2 / dynamic-rd=0.00 / no-ssim-rd / signhide / no-tskip / nr-intra=0 / nr-inter=0 / no-constrained-intra / strong-intra-smoothing / max-merge=3 / limit-refs=3 / limit-modes / me=3 / subme=3 / merange=57 / temporal-mvp / no-frame-dup / no-hme / weightp / no-weightb / no-analyze-src-pics / deblock=-3:-3 / no-sao / no-sao-non-deblock / rd=4 / selective-sao=0 / no-early-skip / rskip / no-fast-intra / no-tskip-fast / no-cu-lossless / no-b-intra / no-splitrd-skip / rdpenalty=0 / psy-rd=2.00 / psy-rdoq=1.00 / no-rd-refine / no-lossless / cbqpoffs=0 / crqpoffs=0 / rc=crf / crf=19.0 / qcomp=0.60 / qpstep=4 / stats-write=0 / stats-read=0 / vbv-maxrate=160000 / vbv-bufsize=160000 / vbv-init=0.9 / crf-max=0.0 / crf-min=0.0 / ipratio=1.40 / pbratio=1.30 / aq-mode=2 / aq-strength=1.00 / cutree / zone-count=0 / no-strict-cbr / qg-size=32 / no-rc-grain / qpmax=69 / qpmin=0 / no-const-vbv / sar=1 / overscan=0 / videoformat=5 / range=0 / colorprim=9 / transfer=16 / colormatrix=9 / chromaloc=1 / chromaloc-top=2 / chromaloc-bottom=2 / display-window=0 / master-display=G(13250,34500)B(7500,3000)R(34000,16000)WP(15635,16450)L(10000000,1) / cll=993,419 / min-luma=0 / max-luma=1023 / log2-max-poc-lsb=8 / vui-timing-info / vui-hrd-info / slices=1 / no-opt-qp-pps / no-opt-ref-list-length-pps / no-multi-pass-opt-rps / scenecut-bias=0.05 / hist-threshold=0.01 / no-opt-cu-delta-qp / no-aq-motion / hdr10 / hdr10-opt / no-dhdr10-opt / no-idr-recovery-sei / analysis-reuse-level=0 / analysis-save-reuse-level=0 / analysis-load-reuse-level=0 / scale-factor=0 / refine-intra=0 / refine-inter=0 / refine-mv=1 / refine-ctu-distortion=0 / no-limit-sao / ctu-info=0 / no-lowpass-dct / refine-analysis-type=0 / copy-pic=1 / max-ausize-factor=1.0 / no-dynamic-refine / no-single-sei / no-hevc-aq / no-svt / no-field / qp-adaptation-range=1.00 / no-scenecut-aware-qpconformance-window-offsets / right=0 / bottom=0 / decoder-max-rate=0
  22. Default                                  : Yes
  23. Forced                                   : No
  24. Color range                              : Limited
  25. Color primaries                          : BT.2020
  26. Transfer characteristics                 : PQ
  27. Matrix coefficients                      : BT.2020 non-constant
  28. Mastering display color primaries        : Display P3
  29. Mastering display luminance              : min: 0.0001 cd/m2, max: 1000 cd/m2
  30. Maximum Content Light Level              : 993 cd/m2
  31. Maximum Frame-Average Light Level        : 419 cd/m2

  32. Audio #1
  33. ID                                       : 2
  34. Format                                   : MLP FBA 16-ch
  35. Format/Info                              : Meridian Lossless Packing FBA with 16-channel presentation
  36. Commercial name                          : Dolby TrueHD with Dolby Atmos
  37. Codec ID                                 : A_TRUEHD
  38. Duration                                 : 1 h 56 min
  39. Bit rate mode                            : Variable
  40. Bit rate                                 : 4 432 kb/s
  41. Maximum bit rate                         : 6 816 kb/s
  42. Channel(s)                               : 8 channels
  43. Channel layout                           : L R C LFE Ls Rs Lb Rb
  44. Sampling rate                            : 48.0 kHz
  45. Frame rate                               : 1 200.000 FPS (40 SPF)
  46. Compression mode                         : Lossless
  47. Stream size                              : 3.61 GiB (12%)
  48. Language                                 : English
  49. Default                                  : Yes
  50. Forced                                   : No
  51. Number of dynamic objects                : 11
  52. Bed channel count                        : 1 channel
  53. Bed channel configuration                : LFE

  54. Audio #2
  55. ID                                       : 3
  56. Format                                   : AC-3
  57. Format/Info                              : Audio Coding 3
  58. Commercial name                          : Dolby Digital
  59. Codec ID                                 : A_AC3
  60. Duration                                 : 1 h 56 min
  61. Bit rate mode                            : Constant
  62. Bit rate                                 : 640 kb/s
  63. Channel(s)                               : 6 channels
  64. Channel layout                           : L R C LFE Ls Rs
  65. Sampling rate                            : 48.0 kHz
  66. Frame rate                               : 31.250 FPS (1536 SPF)
  67. Bit depth                                : 16 bits
  68. Compression mode                         : Lossy
  69. Stream size                              : 533 MiB (2%)
  70. Language                                 : English
  71. Service kind                             : Complete Main
  72. Default                                  : No
  73. Forced                                   : No

  74. Text #1
  75. ID                                       : 4
  76. Format                                   : PGS
  77. Muxing mode                              : zlib
  78. Codec ID                                 : S_HDMV/PGS
  79. Codec ID/Info                            : Picture based subtitle format used on BDs/HD-DVDs
  80. Duration                                 : 1 h 48 min
  81. Bit rate                                 : 29.4 kb/s
  82. Count of elements                        : 2238
  83. Stream size                              : 22.8 MiB (0%)
  84. Title                                    : Full
  85. Language                                 : English
  86. Default                                  : No
  87. Forced                                   : No

  88. Text #2
  89. ID                                       : 5
  90. Format                                   : PGS
  91. Muxing mode                              : zlib
  92. Codec ID                                 : S_HDMV/PGS
  93. Codec ID/Info                            : Picture based subtitle format used on BDs/HD-DVDs
  94. Duration                                 : 1 h 48 min
  95. Bit rate                                 : 32.2 kb/s
  96. Count of elements                        : 2448
  97. Stream size                              : 24.9 MiB (0%)
  98. Title                                    : SDH
  99. Language                                 : English
  100. Default                                  : No
  101. Forced                                   : No

  102. Text #3
  103. ID                                       : 6
  104. Format                                   : PGS
  105. Muxing mode                              : zlib
  106. Codec ID                                 : S_HDMV/PGS
  107. Codec ID/Info                            : Picture based subtitle format used on BDs/HD-DVDs
  108. Duration                                 : 1 h 55 min
  109. Bit rate                                 : 17.6 kb/s
  110. Count of elements                        : 2250
  111. Stream size                              : 14.5 MiB (0%)
  112. Language                                 : Chinese
  113. Default                                  : No
  114. Forced                                   : No

  115. Text #4
  116. ID                                       : 7
  117. Format                                   : PGS
  118. Muxing mode                              : zlib
  119. Codec ID                                 : S_HDMV/PGS
  120. Codec ID/Info                            : Picture based subtitle format used on BDs/HD-DVDs
  121. Duration                                 : 1 h 55 min
  122. Bit rate                                 : 22.3 kb/s
  123. Count of elements                        : 2134
  124. Stream size                              : 18.3 MiB (0%)
  125. Language                                 : Czech
  126. Default                                  : No
  127. Forced                                   : No

  128. Text #5
  129. ID                                       : 8
  130. Format                                   : PGS
  131. Muxing mode                              : zlib
  132. Codec ID                                 : S_HDMV/PGS
  133. Codec ID/Info                            : Picture based subtitle format used on BDs/HD-DVDs
  134. Duration                                 : 1 h 55 min
  135. Bit rate                                 : 19.1 kb/s
  136. Count of elements                        : 1476
  137. Stream size                              : 15.7 MiB (0%)
  138. Language                                 : Danish
  139. Default                                  : No
  140. Forced                                   : No

  141. Text #6
  142. ID                                       : 9
  143. Format                                   : PGS
  144. Muxing mode                              : zlib
  145. Codec ID                                 : S_HDMV/PGS
  146. Codec ID/Info                            : Picture based subtitle format used on BDs/HD-DVDs
  147. Duration                                 : 1 h 55 min
  148. Bit rate                                 : 26.7 kb/s
  149. Count of elements                        : 2258
  150. Stream size                              : 22.0 MiB (0%)
  151. Language                                 : German
  152. Default                                  : No
  153. Forced                                   : No

  154. Text #7
  155. ID                                       : 10
  156. Format                                   : PGS
  157. Muxing mode                              : zlib
  158. Codec ID                                 : S_HDMV/PGS
  159. Codec ID/Info                            : Picture based subtitle format used on BDs/HD-DVDs
  160. Duration                                 : 1 h 55 min
  161. Bit rate                                 : 26.7 kb/s
  162. Count of elements                        : 2032
  163. Stream size                              : 21.9 MiB (0%)
  164. Language                                 : Greek
  165. Default                                  : No
  166. Forced                                   : No

  167. Text #8
  168. ID                                       : 11
  169. Format                                   : PGS
  170. Muxing mode                              : zlib
  171. Codec ID                                 : S_HDMV/PGS
  172. Codec ID/Info                            : Picture based subtitle format used on BDs/HD-DVDs
  173. Duration                                 : 1 h 55 min
  174. Bit rate                                 : 24.2 kb/s
  175. Count of elements                        : 2250
  176. Stream size                              : 19.9 MiB (0%)
  177. Language                                 : Spanish
  178. Default                                  : No
  179. Forced                                   : No

  180. Text #9
  181. ID                                       : 12
  182. Format                                   : PGS
  183. Muxing mode                              : zlib
  184. Codec ID                                 : S_HDMV/PGS
  185. Codec ID/Info                            : Picture based subtitle format used on BDs/HD-DVDs
  186. Duration                                 : 1 h 49 min
  187. Bit rate                                 : 24.4 kb/s
  188. Count of elements                        : 2144
  189. Stream size                              : 19.0 MiB (0%)
  190. Language                                 : Spanish
  191. Default                                  : No
  192. Forced                                   : No

  193. Text #10
  194. ID                                       : 13
  195. Format                                   : PGS
  196. Muxing mode                              : zlib
  197. Codec ID                                 : S_HDMV/PGS
  198. Codec ID/Info                            : Picture based subtitle format used on BDs/HD-DVDs
  199. Duration                                 : 1 h 48 min
  200. Bit rate                                 : 18.8 kb/s
  201. Count of elements                        : 1690
  202. Stream size                              : 14.6 MiB (0%)
  203. Language                                 : French
  204. Default                                  : No
  205. Forced                                   : No

  206. Text #11
  207. ID                                       : 14
  208. Format                                   : PGS
  209. Muxing mode                              : zlib
  210. Codec ID                                 : S_HDMV/PGS
  211. Codec ID/Info                            : Picture based subtitle format used on BDs/HD-DVDs
  212. Duration                                 : 1 h 55 min
  213. Bit rate                                 : 25.7 kb/s
  214. Count of elements                        : 2206
  215. Stream size                              : 21.1 MiB (0%)
  216. Language                                 : Italian
  217. Default                                  : No
  218. Forced                                   : No

  219. Text #12
  220. ID                                       : 15
  221. Format                                   : PGS
  222. Muxing mode                              : zlib
  223. Codec ID                                 : S_HDMV/PGS
  224. Codec ID/Info                            : Picture based subtitle format used on BDs/HD-DVDs
  225. Duration                                 : 1 h 48 min
  226. Bit rate                                 : 16.3 kb/s
  227. Count of elements                        : 1740
  228. Stream size                              : 12.6 MiB (0%)
  229. Language                                 : Japanese
  230. Default                                  : No
  231. Forced                                   : No

  232. Text #13
  233. ID                                       : 16
  234. Format                                   : PGS
  235. Muxing mode                              : zlib
  236. Codec ID                                 : S_HDMV/PGS
  237. Codec ID/Info                            : Picture based subtitle format used on BDs/HD-DVDs
  238. Duration                                 : 1 h 55 min
  239. Bit rate                                 : 11.3 kb/s
  240. Count of elements                        : 2100
  241. Stream size                              : 9.27 MiB (0%)
  242. Language                                 : Korean
  243. Default                                  : No
  244. Forced                                   : No

  245. Text #14
  246. ID                                       : 17
  247. Format                                   : PGS
  248. Muxing mode                              : zlib
  249. Codec ID                                 : S_HDMV/PGS
  250. Codec ID/Info                            : Picture based subtitle format used on BDs/HD-DVDs
  251. Duration                                 : 1 h 55 min
  252. Bit rate                                 : 26.5 kb/s
  253. Count of elements                        : 2204
  254. Stream size                              : 21.8 MiB (0%)
  255. Language                                 : Hungarian
  256. Default                                  : No
  257. Forced                                   : No

  258. Text #15
  259. ID                                       : 18
  260. Format                                   : PGS
  261. Muxing mode                              : zlib
  262. Codec ID                                 : S_HDMV/PGS
  263. Codec ID/Info                            : Picture based subtitle format used on BDs/HD-DVDs
  264. Duration                                 : 1 h 55 min
  265. Bit rate                                 : 18.8 kb/s
  266. Count of elements                        : 2246
  267. Stream size                              : 15.4 MiB (0%)
  268. Language                                 : Chinese
  269. Default                                  : No
  270. Forced                                   : No

  271. Text #16
  272. ID                                       : 19
  273. Format                                   : PGS
  274. Muxing mode                              : zlib
  275. Codec ID                                 : S_HDMV/PGS
  276. Codec ID/Info                            : Picture based subtitle format used on BDs/HD-DVDs
  277. Duration                                 : 1 h 55 min
  278. Bit rate                                 : 15.9 kb/s
  279. Count of elements                        : 1444
  280. Stream size                              : 13.1 MiB (0%)
  281. Language                                 : Dutch
  282. Default                                  : No
  283. Forced                                   : No

  284. Text #17
  285. ID                                       : 20
  286. Format                                   : PGS
  287. Muxing mode                              : zlib
  288. Codec ID                                 : S_HDMV/PGS
  289. Codec ID/Info                            : Picture based subtitle format used on BDs/HD-DVDs
  290. Duration                                 : 1 h 55 min
  291. Bit rate                                 : 17.3 kb/s
  292. Count of elements                        : 1786
  293. Stream size                              : 14.3 MiB (0%)
  294. Language                                 : Norwegian
  295. Default                                  : No
  296. Forced                                   : No

  297. Text #18
  298. ID                                       : 21
  299. Format                                   : PGS
  300. Muxing mode                              : zlib
  301. Codec ID                                 : S_HDMV/PGS
  302. Codec ID/Info                            : Picture based subtitle format used on BDs/HD-DVDs
  303. Duration                                 : 1 h 55 min
  304. Bit rate                                 : 23.7 kb/s
  305. Count of elements                        : 2190
  306. Stream size                              : 19.5 MiB (0%)
  307. Language                                 : Polish
  308. Default                                  : No
  309. Forced                                   : No

  310. Text #19
  311. ID                                       : 22
  312. Format                                   : PGS
  313. Muxing mode                              : zlib
  314. Codec ID                                 : S_HDMV/PGS
  315. Codec ID/Info                            : Picture based subtitle format used on BDs/HD-DVDs
  316. Duration                                 : 1 h 49 min
  317. Bit rate                                 : 22.7 kb/s
  318. Count of elements                        : 2026
  319. Stream size                              : 17.7 MiB (0%)
  320. Language                                 : Portuguese
  321. Default                                  : No
  322. Forced                                   : No

  323. Text #20
  324. ID                                       : 23
  325. Format                                   : PGS
  326. Muxing mode                              : zlib
  327. Codec ID                                 : S_HDMV/PGS
  328. Codec ID/Info                            : Picture based subtitle format used on BDs/HD-DVDs
  329. Duration                                 : 1 h 55 min
  330. Bit rate                                 : 28.4 kb/s
  331. Count of elements                        : 2218
  332. Stream size                              : 23.4 MiB (0%)
  333. Language                                 : Russian
  334. Default                                  : No
  335. Forced                                   : No

  336. Text #21
  337. ID                                       : 24
  338. Format                                   : PGS
  339. Muxing mode                              : zlib
  340. Codec ID                                 : S_HDMV/PGS
  341. Codec ID/Info                            : Picture based subtitle format used on BDs/HD-DVDs
  342. Duration                                 : 1 h 55 min
  343. Bit rate                                 : 25.0 kb/s
  344. Count of elements                        : 2212
  345. Stream size                              : 20.6 MiB (0%)
  346. Language                                 : Romanian
  347. Default                                  : No
  348. Forced                                   : No

  349. Text #22
  350. ID                                       : 25
  351. Format                                   : PGS
  352. Muxing mode                              : zlib
  353. Codec ID                                 : S_HDMV/PGS
  354. Codec ID/Info                            : Picture based subtitle format used on BDs/HD-DVDs
  355. Duration                                 : 1 h 55 min
  356. Bit rate                                 : 22.0 kb/s
  357. Count of elements                        : 2208
  358. Stream size                              : 18.1 MiB (0%)
  359. Language                                 : Chinese
  360. Default                                  : No
  361. Forced                                   : No

  362. Text #23
  363. ID                                       : 26
  364. Format                                   : PGS
  365. Muxing mode                              : zlib
  366. Codec ID                                 : S_HDMV/PGS
  367. Codec ID/Info                            : Picture based subtitle format used on BDs/HD-DVDs
  368. Duration                                 : 1 h 55 min
  369. Bit rate                                 : 20.0 kb/s
  370. Count of elements                        : 1756
  371. Stream size                              : 16.5 MiB (0%)
  372. Language                                 : Finnish
  373. Default                                  : No
  374. Forced                                   : No

  375. Text #24
  376. ID                                       : 27
  377. Format                                   : PGS
  378. Muxing mode                              : zlib
  379. Codec ID                                 : S_HDMV/PGS
  380. Codec ID/Info                            : Picture based subtitle format used on BDs/HD-DVDs
  381. Duration                                 : 1 h 55 min
  382. Bit rate                                 : 20.4 kb/s
  383. Count of elements                        : 1638
  384. Stream size                              : 16.8 MiB (0%)
  385. Language                                 : Swedish
  386. Default                                  : No
  387. Forced                                   : No

  388. Text #25
  389. ID                                       : 28
  390. Format                                   : PGS
  391. Muxing mode                              : zlib
  392. Codec ID                                 : S_HDMV/PGS
  393. Codec ID/Info                            : Picture based subtitle format used on BDs/HD-DVDs
  394. Duration                                 : 1 h 55 min
  395. Bit rate                                 : 16.3 kb/s
  396. Count of elements                        : 2162
  397. Stream size                              : 13.4 MiB (0%)
  398. Language                                 : Thai
  399. Default                                  : No
  400. Forced                                   : No

  401. Menu
  402. 00:00:00.000                             : en:Chapter 01
  403. 00:04:16.006                             : en:Chapter 02
  404. 00:08:18.248                             : en:Chapter 03
  405. 00:13:17.380                             : en:Chapter 04
  406. 00:19:19.867                             : en:Chapter 05
  407. 00:25:29.319                             : en:Chapter 06
  408. 00:29:45.242                             : en:Chapter 07
  409. 00:34:32.570                             : en:Chapter 08
  410. 00:38:47.033                             : en:Chapter 09
  411. 00:43:53.256                             : en:Chapter 10
  412. 00:49:03.732                             : en:Chapter 11
  413. 00:55:17.105                             : en:Chapter 12
  414. 00:59:21.016                             : en:Chapter 13
  415. 01:04:44.172                             : en:Chapter 14
  416. 01:10:37.233                             : en:Chapter 15
  417. 01:15:53.299                             : en:Chapter 16
  418. 01:20:28.991                             : en:Chapter 17
  419. 01:24:48.000                             : en:Chapter 18
  420. 01:29:03.964                             : en:Chapter 19
  421. 01:33:59.884                             : en:Chapter 20
  422. 01:36:59.605                             : en:Chapter 21
  423. 01:41:07.561                             : en:Chapter 22
  424. 01:45:27.404                             : en:Chapter 23
  425. 01:49:42.034                             : en:Chapter 24
复制代码
095719jtltqe3poel7p9b3.png 095720fhp7473n2chtc2wy.png 095720exni66d9686ed7eg.png




回复

使用道具 举报

发表于 2020-5-21 23:09:33 | 显示全部楼层
感谢楼主分享好电影
回复 支持 反对

使用道具 举报

发表于 2020-5-22 02:06:56 | 显示全部楼层
楼主发贴辛苦了,谢谢楼主分享!我觉得蓝光电影网是注册对了!
回复 支持 反对

使用道具 举报

发表于 2020-5-23 23:16:50 | 显示全部楼层

感谢楼主的无私分享!要想蓝光电影网好 就靠你我他
回复 支持 反对

使用道具 举报

发表于 6 天前 | 显示全部楼层

楼主太厉害了!楼主,电影应该很好看我觉得蓝光电影网真是个好地方!
回复 支持 反对

使用道具 举报

发表于 6 天前 | 显示全部楼层

楼主太厉害了!楼主,电影应该很好看我觉得蓝光电影网真是个好地方!
回复 支持 反对

使用道具 举报

懒得打字嘛,点击右侧快捷回复 【右侧内容,后台自定义】
您需要登录后才可以回帖 登录 | 立即加入

本版积分规则

现在加入蓝光电影网,注册一个账号
上个主题 下个主题 快速回复 收藏帖子 返回列表 客服中心 搜索

手机版|小黑屋| 蓝光电影网 |网站地图 

Copyright © 2015-2019 Comsenz Inc.  Template by 蓝光电影论坛 All Rights Reserved.

Powered by 蓝光电影网 X3.4

特别声明:本站所有资源均由网上收集而来,版权归原影音公司所有,如果侵犯了你的权益,请通知我们,我们会及时删除侵权内容.

快速回复 返回顶部 返回列表