找回密码

蓝光电影网

查看: 151|回复: 1

[REMUX.HEVC] 隐形人/隐形客 The.Invisible.Man.2020.2160p.BluRay.REMUX.HEVC.DTS-HD.MA.TrueHD.7.1.Atmos-FGT 73.38GB

[复制链接]

 成长值: 26155

发表于 2020-5-21 18:01:20 | 显示全部楼层 |阅读模式
隐形人/隐形客 The.Invisible.Man.2020.2160p.BluRay.REMUX.HEVC.DTS-HD.MA.TrueHD.7.1.Atmos-FGT 73.38GB-1.png

译  名 隐形人 / 隐形客(港) / 隐身人
片  名 The Invisible Man
年  代 2020
产  地 澳大利亚 / 美国 / 加拿大 / 英国
类  别 科幻 / 惊悚 / 恐怖
语  言 英语
上映日期 2020-02-28(美国)
IMDb评分  7.2/10 from 90442 users
IMDb链接  https://www.imdb.com/title/tt1051906
豆瓣评分 7.3/10 from 111456 users
豆瓣链接 https://movie.douban.com/subject/2364086/
片  长 124分钟
导  演 雷·沃纳尔 Leigh Whannell
编  剧 雷·沃纳尔 Leigh Whannell / 赫伯特·乔治·威尔斯 H.G. Wells
主  演 伊丽莎白·莫斯 Elisabeth Moss
       奥利弗·杰森-科恩 Oliver Jackson-Cohen
       阿尔迪斯·霍吉 Aldis Hodge
       迈克尔·多曼 Michael Dorman
       斯托姆·瑞德 Storm Reid
       本尼迪克·哈迪 Benedict Hardie
       哈丽特·戴尔 Harriet Dyer
       瑞妮·林 Renee Lim
       布莱恩·米根 Brian Meegan
       薇薇安·格里尔 Vivienne Greer
       尼古拉斯·霍普 Nicholas Hope
       克利夫·威廉姆斯 Cleave Williams
       萨姆·史密斯 Sam Smith
       扎拉·迈克尔斯 Zara Michales
       纳许·埃哲顿 Nash Edgerton
       安东尼·布兰登·黄 Anthony Brandon Wong
       阿玛莉·沃德 Amali Ward
       迈克尔·诺特 Michael Knott


标  签 惊悚 | 悬疑 | 恐怖 | 科幻 | 美国 | 犯罪 | 2020 | 剧情

简  介  

  西西莉亚(伊丽莎白·莫斯 Elisabeth Moss 饰)再也想不到,曾经将自己迷得神魂颠倒的英俊男人阿德里安(奥利弗·杰森-科恩 Oliver Jackson-Cohen 饰),如今会成为噩梦的始作俑者。在和自己恋爱后没多久,阿德里安便开始对西西莉亚进行精神和肉体上的双重控制,终于,忍无可忍的西西莉亚在一天深夜用安定将阿德里安迷晕,成功的逃出了魔窟。
  之后,西西莉亚震惊的收到了阿德里安自杀的消息了,她几乎不敢相信,这个魔头真的从自己的生活中彻彻底底的消失了。西西莉亚的疑虑并不是空穴来风,在她生活的角角落落中,似乎都有一个无形的影子在窥视着她,企图触碰她。
  1. Video #1
  2. ID                                       : 1
  3. ID in the original source medium         : 4113 (0x1011)
  4. Format                                   : HEVC
  5. Format/Info                              : High Efficiency Video Coding
  6. Format profile                           : Main High@L4@High
  7. HDR format                               : SMPTE ST 2094 App 4, Version 1, HDR10+ Profile B compatible
  8. Codec ID                                 : V_MPEGH/ISO/HEVC
  9. Duration                                 : 2 h 4 min
  10. Bit rate                                 : 67.9 Mb/s
  11. Width                                    : 3 840 pixels
  12. Height                                   : 2 160 pixels
  13. Display aspect ratio                     : 16:9
  14. Frame rate mode                          : Constant
  15. Frame rate                               : 23.976 (24000/1001/189150) FPS
  16. Color space                              : YUV
  17. Chroma subsampling                       : 4:2:0 (Type 2)
  18. Bit depth                                : 10 bits
  19. Bits/(Pixel*Frame)                       : 0.341
  20. Stream size                              : 59.0 GiB (80%)
  21. Title                                    : The.Invisible.Man.2020.2160p.BluRay.REMUX.HEVC.DTS-HD.MA.TrueHD.7.1.Atmos-FGT
  22. Language                                 : English
  23. Default                                  : Yes
  24. Forced                                   : No
  25. Color range                              : Limited
  26. Color primaries                          : BT.2020
  27. Transfer characteristics                 : PQ
  28. Matrix coefficients                      : BT.2020 non-constant
  29. Mastering display color primaries        : Display P3
  30. Mastering display luminance              : min: 0.0001 cd/m2, max: 1000 cd/m2
  31. Maximum Content Light Level              : 249 cd/m2
  32. Maximum Frame-Average Light Level        : 37 cd/m2
  33. Original source medium                   : Blu-ray

  34. Video #2
  35. ID                                       : 2
  36. ID in the original source medium         : 4117 (0x1015)
  37. Format                                   : HEVC
  38. Format/Info                              : High Efficiency Video Coding
  39. Format profile                           : Main High@L4@High
  40. HDR format                               : SMPTE ST 2086, HDR10 compatible
  41. Codec ID                                 : V_MPEGH/ISO/HEVC
  42. Duration                                 : 2 h 4 min
  43. Bit rate                                 : 7 081 kb/s
  44. Width                                    : 1 920 pixels
  45. Height                                   : 1 080 pixels
  46. Display aspect ratio                     : 16:9
  47. Frame rate mode                          : Constant
  48. Frame rate                               : 23.976 (24000/1001/189150) FPS
  49. Color space                              : YUV
  50. Chroma subsampling                       : 4:2:0 (Type 2)
  51. Bit depth                                : 10 bits
  52. Bits/(Pixel*Frame)                       : 0.142
  53. Stream size                              : 6.15 GiB (8%)
  54. Title                                    : The.Invisible.Man.2020.2160p.BluRay.REMUX.HEVC.DTS-HD.MA.TrueHD.7.1.Atmos-FGT
  55. Language                                 : English
  56. Default                                  : No
  57. Forced                                   : No
  58. Color range                              : Limited
  59. Color primaries                          : BT.2020
  60. Transfer characteristics                 : PQ
  61. Matrix coefficients                      : BT.2020 non-constant
  62. Mastering display color primaries        : Display P3
  63. Mastering display luminance              : min: 0.0001 cd/m2, max: 1000 cd/m2
  64. Original source medium                   : Blu-ray

  65. Audio #1
  66. ID                                       : 3
  67. ID in the original source medium         : 4352 (0x1100)
  68. Format                                   : MLP FBA 16-ch
  69. Format/Info                              : Meridian Lossless Packing FBA with 16-channel presentation
  70. Commercial name                          : Dolby TrueHD with Dolby Atmos
  71. Codec ID                                 : A_TRUEHD
  72. Duration                                 : 2 h 4 min
  73. Bit rate mode                            : Variable
  74. Bit rate                                 : 3 050 kb/s
  75. Maximum bit rate                         : 5 652 kb/s
  76. Channel(s)                               : 8 channels
  77. Channel layout                           : L R C LFE Ls Rs Lb Rb
  78. Sampling rate                            : 48.0 kHz
  79. Frame rate                               : 1 200.000 FPS (40 SPF)
  80. Compression mode                         : Lossless
  81. Stream size                              : 2.65 GiB (4%)
  82. Title                                    : The.Invisible.Man.2020.2160p.BluRay.REMUX.HEVC.DTS-HD.MA.TrueHD.7.1.Atmos-FGT
  83. Language                                 : English
  84. Default                                  : Yes
  85. Forced                                   : No
  86. Original source medium                   : Blu-ray
  87. Number of dynamic objects                : 11
  88. Bed channel count                        : 1 channel
  89. Bed channel configuration                : LFE

  90. Audio #2
  91. ID                                       : 4
  92. Format                                   : DTS XLL
  93. Format/Info                              : Digital Theater Systems
  94. Commercial name                          : DTS-HD Master Audio
  95. Codec ID                                 : A_DTS
  96. Duration                                 : 2 h 4 min
  97. Bit rate mode                            : Variable
  98. Bit rate                                 : 3 833 kb/s
  99. Channel(s)                               : 8 channels
  100. Channel layout                           : C L R LFE Lb Rb Lss Rss
  101. Sampling rate                            : 48.0 kHz
  102. Frame rate                               : 93.750 FPS (512 SPF)
  103. Bit depth                                : 24 bits
  104. Compression mode                         : Lossless
  105. Stream size                              : 3.33 GiB (5%)
  106. Title                                    : The.Invisible.Man.2020.2160p.BluRay.REMUX.HEVC.DTS-HD.MA.TrueHD.7.1.Atmos-FGT
  107. Language                                 : English
  108. Default                                  : No
  109. Forced                                   : No

  110. Audio #3
  111. ID                                       : 5
  112. ID in the original source medium         : 4352 (0x1100)
  113. Format                                   : AC-3
  114. Format/Info                              : Audio Coding 3
  115. Commercial name                          : Dolby Digital
  116. Codec ID                                 : A_AC3
  117. Duration                                 : 2 h 4 min
  118. Bit rate mode                            : Constant
  119. Bit rate                                 : 448 kb/s
  120. Channel(s)                               : 6 channels
  121. Channel layout                           : L R C LFE Ls Rs
  122. Sampling rate                            : 48.0 kHz
  123. Frame rate                               : 31.250 FPS (1536 SPF)
  124. Bit depth                                : 16 bits
  125. Compression mode                         : Lossy
  126. Stream size                              : 399 MiB (1%)
  127. Title                                    : The.Invisible.Man.2020.2160p.BluRay.REMUX.HEVC.DTS-HD.MA.TrueHD.7.1.Atmos-FGT
  128. Language                                 : English
  129. Service kind                             : Complete Main
  130. Default                                  : No
  131. Forced                                   : No
  132. Original source medium                   : Blu-ray

  133. Audio #4
  134. ID                                       : 6
  135. Format                                   : E-AC-3
  136. Format/Info                              : Enhanced AC-3
  137. Commercial name                          : Dolby Digital Plus
  138. Format profile                           : Blu-ray Disc
  139. Codec ID                                 : A_EAC3
  140. Duration                                 : 2 h 4 min
  141. Bit rate mode                            : Constant
  142. Bit rate                                 : 768 kb/s
  143. Channel(s)                               : 8 channels
  144. Channel layout                           : L R C LFE Ls Rs Lb Rb
  145. Sampling rate                            : 48.0 kHz
  146. Frame rate                               : 31.250 FPS (1536 SPF)
  147. Compression mode                         : Lossy
  148. Stream size                              : 683 MiB (1%)
  149. Title                                    : The.Invisible.Man.2020.2160p.BluRay.REMUX.HEVC.DTS-HD.MA.TrueHD.7.1.Atmos-FGT
  150. Language                                 : Spanish
  151. Service kind                             : Complete Main
  152. Default                                  : No
  153. Forced                                   : No

  154. Audio #5
  155. ID                                       : 7
  156. ID in the original source medium         : 4353 (0x1101)
  157. Format                                   : AC-3
  158. Format/Info                              : Audio Coding 3
  159. Commercial name                          : Dolby Digital
  160. Codec ID                                 : A_AC3
  161. Duration                                 : 2 h 4 min
  162. Bit rate mode                            : Constant
  163. Bit rate                                 : 448 kb/s
  164. Channel(s)                               : 6 channels
  165. Channel layout                           : L R C LFE Ls Rs
  166. Sampling rate                            : 48.0 kHz
  167. Frame rate                               : 31.250 FPS (1536 SPF)
  168. Bit depth                                : 16 bits
  169. Compression mode                         : Lossy
  170. Stream size                              : 399 MiB (1%)
  171. Title                                    : The.Invisible.Man.2020.2160p.BluRay.REMUX.HEVC.DTS-HD.MA.TrueHD.7.1.Atmos-FGT
  172. Language                                 : Spanish
  173. Service kind                             : Complete Main
  174. Default                                  : No
  175. Forced                                   : No
  176. Original source medium                   : Blu-ray

  177. Audio #6
  178. ID                                       : 8
  179. ID in the original source medium         : 4354 (0x1102)
  180. Format                                   : AC-3
  181. Format/Info                              : Audio Coding 3
  182. Commercial name                          : Dolby Digital
  183. Codec ID                                 : A_AC3
  184. Duration                                 : 2 h 4 min
  185. Bit rate mode                            : Constant
  186. Bit rate                                 : 640 kb/s
  187. Channel(s)                               : 6 channels
  188. Channel layout                           : L R C LFE Ls Rs
  189. Sampling rate                            : 48.0 kHz
  190. Frame rate                               : 31.250 FPS (1536 SPF)
  191. Bit depth                                : 16 bits
  192. Compression mode                         : Lossy
  193. Stream size                              : 569 MiB (1%)
  194. Title                                    : The.Invisible.Man.2020.2160p.BluRay.REMUX.HEVC.DTS-HD.MA.TrueHD.7.1.Atmos-FGT
  195. Language                                 : French
  196. Service kind                             : Complete Main
  197. Default                                  : No
  198. Forced                                   : No
  199. Original source medium                   : Blu-ray

  200. Audio #7
  201. ID                                       : 9
  202. ID in the original source medium         : 4355 (0x1103)
  203. Format                                   : AC-3
  204. Format/Info                              : Audio Coding 3
  205. Commercial name                          : Dolby Digital
  206. Codec ID                                 : A_AC3
  207. Duration                                 : 2 h 4 min
  208. Bit rate mode                            : Constant
  209. Bit rate                                 : 192 kb/s
  210. Channel(s)                               : 2 channels
  211. Channel layout                           : L R
  212. Sampling rate                            : 48.0 kHz
  213. Frame rate                               : 31.250 FPS (1536 SPF)
  214. Bit depth                                : 16 bits
  215. Compression mode                         : Lossy
  216. Stream size                              : 171 MiB (0%)
  217. Title                                    : The.Invisible.Man.2020.2160p.BluRay.REMUX.HEVC.DTS-HD.MA.TrueHD.7.1.Atmos-FGT
  218. Language                                 : English
  219. Service kind                             : Complete Main
  220. Default                                  : No
  221. Forced                                   : No
  222. Original source medium                   : Blu-ray

  223. Text #1
  224. ID                                       : 10
  225. Format                                   : UTF-8
  226. Codec ID                                 : S_TEXT/UTF8
  227. Codec ID/Info                            : UTF-8 Plain Text
  228. Duration                                 : 1 h 49 min
  229. Bit rate                                 : 32 b/s
  230. Count of elements                        : 866
  231. Stream size                              : 25.7 KiB (0%)
  232. Title                                    : English-SRT
  233. Language                                 : English
  234. Default                                  : Yes
  235. Forced                                   : No

  236. Text #2
  237. ID                                       : 11
  238. ID in the original source medium         : 4768 (0x12A0)
  239. Format                                   : PGS
  240. Muxing mode                              : zlib
  241. Codec ID                                 : S_HDMV/PGS
  242. Codec ID/Info                            : Picture based subtitle format used on BDs/HD-DVDs
  243. Duration                                 : 1 h 50 min
  244. Bit rate                                 : 24.4 kb/s
  245. Count of elements                        : 2096
  246. Stream size                              : 19.2 MiB (0%)
  247. Title                                    : English-PGS
  248. Language                                 : English
  249. Default                                  : No
  250. Forced                                   : No
  251. Original source medium                   : Blu-ray

  252. Text #3
  253. ID                                       : 12
  254. ID in the original source medium         : 4769 (0x12A1)
  255. Format                                   : PGS
  256. Muxing mode                              : zlib
  257. Codec ID                                 : S_HDMV/PGS
  258. Codec ID/Info                            : Picture based subtitle format used on BDs/HD-DVDs
  259. Duration                                 : 2 h 3 min
  260. Bit rate                                 : 17.0 kb/s
  261. Count of elements                        : 1792
  262. Stream size                              : 15.0 MiB (0%)
  263. Title                                    : Spanish-PGS
  264. Language                                 : Spanish
  265. Default                                  : No
  266. Forced                                   : No
  267. Original source medium                   : Blu-ray

  268. Text #4
  269. ID                                       : 13
  270. ID in the original source medium         : 4770 (0x12A2)
  271. Format                                   : PGS
  272. Muxing mode                              : zlib
  273. Codec ID                                 : S_HDMV/PGS
  274. Codec ID/Info                            : Picture based subtitle format used on BDs/HD-DVDs
  275. Duration                                 : 2 h 1 min
  276. Bit rate                                 : 18.9 kb/s
  277. Count of elements                        : 1752
  278. Stream size                              : 16.4 MiB (0%)
  279. Title                                    : French-PGS
  280. Language                                 : French
  281. Default                                  : No
  282. Forced                                   : No
  283. Original source medium                   : Blu-ray

  284. Text #5
  285. ID                                       : 14
  286. ID in the original source medium         : 4771 (0x12A3)
  287. Format                                   : PGS
  288. Muxing mode                              : zlib
  289. Codec ID                                 : S_HDMV/PGS
  290. Codec ID/Info                            : Picture based subtitle format used on BDs/HD-DVDs
  291. Duration                                 : 2 h 3 min
  292. Bit rate                                 : 610 b/s
  293. Count of elements                        : 52
  294. Stream size                              : 551 KiB (0%)
  295. Title                                    : Spanish-PGS
  296. Language                                 : Spanish
  297. Default                                  : No
  298. Forced                                   : No
  299. Original source medium                   : Blu-ray

  300. Text #6
  301. ID                                       : 15
  302. ID in the original source medium         : 4772 (0x12A4)
  303. Format                                   : PGS
  304. Muxing mode                              : zlib
  305. Codec ID                                 : S_HDMV/PGS
  306. Codec ID/Info                            : Picture based subtitle format used on BDs/HD-DVDs
  307. Duration                                 : 2 h 1 min
  308. Bit rate                                 : 654 b/s
  309. Count of elements                        : 44
  310. Stream size                              : 582 KiB (0%)
  311. Title                                    : French-FORCED-PGS
  312. Language                                 : French
  313. Default                                  : No
  314. Forced                                   : No
  315. Original source medium                   : Blu-ray

  316. Menu
  317. 00:00:00.000                             : en:Chapter 01
  318. 00:11:05.748                             : en:Chapter 02
  319. 00:16:08.884                             : en:Chapter 03
  320. 00:19:16.321                             : en:Chapter 04
  321. 00:25:27.609                             : en:Chapter 05
  322. 00:35:51.858                             : en:Chapter 06
  323. 00:39:50.179                             : en:Chapter 07
  324. 00:46:35.459                             : en:Chapter 08
  325. 00:52:41.783                             : en:Chapter 09
  326. 01:01:21.678                             : en:Chapter 10
  327. 01:08:59.426                             : en:Chapter 11
  328. 01:14:49.735                             : en:Chapter 12
  329. 01:19:23.925                             : en:Chapter 13
  330. 01:24:46.372                             : en:Chapter 14
  331. 01:30:25.336                             : en:Chapter 15
  332. 01:35:24.927                             : en:Chapter 16
  333. 01:39:33.300                             : en:Chapter 17
  334. 01:43:04.094                             : en:Chapter 18
  335. 01:48:54.319                             : en:Chapter 19
  336. 01:53:38.812                             : en:Chapter 20
复制代码

隐形人/隐形客 The.Invisible.Man.2020.2160p.BluRay.REMUX.HEVC.DTS-HD.MA.TrueHD.7.1.Atmos-FGT 73.38GB-2.png 隐形人/隐形客 The.Invisible.Man.2020.2160p.BluRay.REMUX.HEVC.DTS-HD.MA.TrueHD.7.1.Atmos-FGT 73.38GB-3.png 隐形人/隐形客 The.Invisible.Man.2020.2160p.BluRay.REMUX.HEVC.DTS-HD.MA.TrueHD.7.1.Atmos-FGT 73.38GB-4.png






回复

使用道具 举报

发表于 2020-5-22 10:25:06 | 显示全部楼层
   看着应该不错的,哈
回复 支持 反对

使用道具 举报

懒得打字嘛,点击右侧快捷回复 【右侧内容,后台自定义】
您需要登录后才可以回帖 登录 | 立即加入

本版积分规则

现在加入蓝光电影网,注册一个账号
上个主题 下个主题 快速回复 收藏帖子 返回列表 客服中心 搜索

手机版|小黑屋| 蓝光电影网 |网站地图 

Copyright © 2015-2019 Comsenz Inc.  Template by 蓝光电影论坛 All Rights Reserved.

Powered by 蓝光电影网 X3.4

特别声明:本站所有资源均由网上收集而来,版权归原影音公司所有,如果侵犯了你的权益,请通知我们,我们会及时删除侵权内容.

快速回复 返回顶部 返回列表