找回密码

蓝光电影网

查看: 276|回复: 5

[8bit.SDR] 世界之战/世界大战 War.of.the.Worlds.2005.2160p.BluRay.x264.8bit.SDR.DTS-HD.MA.TrueHD.7.1.Atmos-SWTYBLZ 53.51GB

[复制链接]

 成长值: 26155

发表于 2020-5-21 13:41:31 | 显示全部楼层 |阅读模式
世界之战/世界大战 War.of.the.Worlds.2005.2160p.BluRay.x264.8bit.SDR.DTS-HD.MA.TrueHD.7.1.Atmos-SWTYBLZ 53.51GB-1.png

译  名 世界之战 / 世界大战 / 宇宙战争 / 强战世界 / 星际战争
片  名 War of the Worlds
年  代 2005
产  地 美国
类  别 科幻 / 惊悚 / 灾难
语  言 英语
上映日期 2005-06-29(美国) / 2005-08-25(中国大陆)
IMDb评分  6.5/10 from 404246 users
IMDb链接  https://www.imdb.com/title/tt0407304
豆瓣评分 6.6/10 from 67340 users
豆瓣链接 https://movie.douban.com/subject/1309044/
片  长 116分钟
导  演 史蒂文·斯皮尔伯格 Steven Spielberg
编  剧 乔什·弗莱德曼 Josh Friedman / 大卫·凯普 David Koepp / 赫伯特·乔治·威尔斯 H.G. Wells
主  演 汤姆·克鲁斯 Tom Cruise
       达科塔·范宁 Dakota Fanning
       米兰达·奥图 Miranda Otto
       贾斯汀·查特文 Justin Chatwin
       蒂姆·罗宾斯 Tim Robbins
       瑞克·冈萨雷斯 Rick Gonzalez
       尤尔·瓦斯克斯 Yul Vazquez
       莱尼·维尼托 Lenny Venito
       丽萨·安·沃尔特 Lisa Ann Walter
       安·鲁滨逊 Ann Robinson
       吉恩·巴瑞 Gene Barry
       大卫·阿伦·伯施理 David Alan Basche
       罗兹·亚布拉姆斯 Roz Abrams
       迈克尔·布朗李 Michael Brownlee
       卡米莉亚·莫内特 Camillia Monet
       艾米·莱安 Amy Ryan
       丹尼·霍奇 Danny Hoch


标  签 科幻 | 灾难 | 美国 | 斯皮尔伯格 | 汤姆·克鲁斯 | 美国电影 | TomCruise | StevenSpielberg

简  介  

  雷?费瑞尔(汤姆?克鲁斯 Tom Cruise 饰)和妻子离婚了,一儿一女都跟母亲生活——因为他的的贪玩懒散,疏忽责任,这个家庭才如此支离破碎。一场外星人入侵的灾难却让他们重新建立起亲密的的关系。
  这天妻子繁忙,只好把儿女交给雷照顾。电闪雷鸣天色灰暗,一切好像有些异样。 果然,马路上赫然一个庞大的三脚飞行器掘地而起,邪恶的火星人光顾了这个本来平静的小镇。人们四处逃亡,雷也带着女儿奔走逃命,开始了生死历险。当局想尽办法对付外星人,却屡屡失败,整个世界都陷入了恐慌当中。
  有了父爱的本能,平日吊儿郎当的父亲变得英勇顽强,保护儿女成了他支撑他的动力和信念。

获奖情况  

  第78届奥斯卡金像奖(2006)
  最佳视觉效果(提名) 巴勃罗·赫尔曼 / 丹尼斯·穆伦 / 兰迪·杜特拉 / 丹尼尔·萨迪克
  最佳混音(提名) 安迪·尼尔森 / 安娜·贝尔莫 / 朗·贾金斯
  最佳音效剪辑(提名) 理查德·金

  第15届MTV电影奖(2006)
  MTV电影奖 最佳惊恐戏表演(提名) 达科塔·范宁
  1. Video
  2. ID                                       : 1
  3. Format                                   : AVC
  4. Format/Info                              : Advanced Video Codec
  5. Format profile                           : High@L4
  6. Format settings                          : CABAC / 5 Ref Frames
  7. Format settings, CABAC                   : Yes
  8. Format settings, Reference frames        : 5 frames
  9. Codec ID                                 : V_MPEG4/ISO/AVC
  10. Duration                                 : 1 h 56 min
  11. Bit rate                                 : 56.1 Mb/s
  12. Width                                    : 3 840 pixels
  13. Height                                   : 2 160 pixels
  14. Display aspect ratio                     : 16:9
  15. Frame rate mode                          : Constant
  16. Frame rate                               : 23.976 (24000/1001/189150) FPS
  17. Color space                              : YUV
  18. Chroma subsampling                       : 4:2:0
  19. Bit depth                                : 8 bits
  20. Scan type                                : Progressive
  21. Bits/(Pixel*Frame)                       : 0.282
  22. Stream size                              : 45.2 GiB (85%)
  23. Title                                    : War.of.the.Worlds.2005.2160p.BluRay.x264.8bit.SDR.DTS-HD.MA.TrueHD.7.1.Atmos-SWTYBLZ
  24. Writing library                          : x264 core 157 r2935 545de2f
  25. Encoding settings                        : cabac=1 / ref=5 / deblock=1:-1:-1 / analyse=0x3:0x113 / me=umh / subme=10 / psy=1 / psy_rd=1.00:0.15 / mixed_ref=1 / me_range=48 / chroma_me=1 / trellis=2 / 8x8dct=1 / cqm=0 / deadzone=21,11 / fast_pskip=1 / chroma_qp_offset=-3 / threads=36 / lookahead_threads=3 / sliced_threads=0 / nr=0 / decimate=0 / interlaced=0 / bluray_compat=0 / constrained_intra=0 / bframes=3 / b_pyramid=2 / b_adapt=2 / b_bias=0 / direct=3 / weightb=1 / open_gop=0 / weightp=2 / keyint=250 / keyint_min=23 / scenecut=40 / intra_refresh=0 / rc_lookahead=50 / rc=crf / mbtree=1 / crf=21.0 / qcomp=0.60 / qpmin=0 / qpmax=69 / qpstep=4 / ip_ratio=1.40 / aq=1:1.00
  26. Default                                  : Yes
  27. Forced                                   : No

  28. Audio #1
  29. ID                                       : 2
  30. Format                                   : MLP FBA 16-ch
  31. Format/Info                              : Meridian Lossless Packing FBA with 16-channel presentation
  32. Commercial name                          : Dolby TrueHD with Dolby Atmos
  33. Codec ID                                 : A_TRUEHD
  34. Duration                                 : 1 h 56 min
  35. Bit rate mode                            : Variable
  36. Bit rate                                 : 4 432 kb/s
  37. Maximum bit rate                         : 6 816 kb/s
  38. Channel(s)                               : 8 channels
  39. Channel layout                           : L R C LFE Ls Rs Lb Rb
  40. Sampling rate                            : 48.0 kHz
  41. Frame rate                               : 1 200.000 FPS (40 SPF)
  42. Compression mode                         : Lossless
  43. Stream size                              : 3.61 GiB (7%)
  44. Title                                    : War.of.the.Worlds.2005.2160p.BluRay.x264.8bit.SDR.DTS-HD.MA.TrueHD.7.1.Atmos-SWTYBLZ
  45. Language                                 : English
  46. Default                                  : Yes
  47. Forced                                   : No
  48. Number of dynamic objects                : 11
  49. Bed channel count                        : 1 channel
  50. Bed channel configuration                : LFE

  51. Audio #2
  52. ID                                       : 3
  53. Format                                   : DTS XLL
  54. Format/Info                              : Digital Theater Systems
  55. Commercial name                          : DTS-HD Master Audio
  56. Codec ID                                 : A_DTS
  57. Duration                                 : 1 h 56 min
  58. Bit rate mode                            : Variable
  59. Bit rate                                 : 4 491 kb/s
  60. Channel(s)                               : 8 channels
  61. Channel layout                           : C L R LFE Lb Rb Lss Rss
  62. Sampling rate                            : 48.0 kHz
  63. Frame rate                               : 93.750 FPS (512 SPF)
  64. Bit depth                                : 24 bits
  65. Compression mode                         : Lossless
  66. Stream size                              : 3.66 GiB (7%)
  67. Title                                    : War.of.the.Worlds.2005.2160p.BluRay.x264.8bit.SDR.DTS-HD.MA.TrueHD.7.1.Atmos-SWTYBLZ
  68. Language                                 : English
  69. Default                                  : No
  70. Forced                                   : No

  71. Audio #3
  72. ID                                       : 4
  73. Format                                   : AC-3
  74. Format/Info                              : Audio Coding 3
  75. Commercial name                          : Dolby Digital
  76. Codec ID                                 : A_AC3
  77. Duration                                 : 1 h 56 min
  78. Bit rate mode                            : Constant
  79. Bit rate                                 : 640 kb/s
  80. Channel(s)                               : 6 channels
  81. Channel layout                           : L R C LFE Ls Rs
  82. Sampling rate                            : 48.0 kHz
  83. Frame rate                               : 31.250 FPS (1536 SPF)
  84. Compression mode                         : Lossy
  85. Stream size                              : 533 MiB (1%)
  86. Title                                    : War.of.the.Worlds.2005.2160p.BluRay.x264.8bit.SDR.DTS-HD.MA.TrueHD.7.1.Atmos-SWTYBLZ
  87. Language                                 : English
  88. Service kind                             : Complete Main
  89. Default                                  : No
  90. Forced                                   : No

  91. Text #1
  92. ID                                       : 5
  93. Format                                   : UTF-8
  94. Codec ID                                 : S_TEXT/UTF8
  95. Codec ID/Info                            : UTF-8 Plain Text
  96. Duration                                 : 1 h 48 min
  97. Bit rate                                 : 46 b/s
  98. Count of elements                        : 1117
  99. Stream size                              : 37.1 KiB (0%)
  100. Title                                    : English-SRT
  101. Language                                 : English
  102. Default                                  : Yes
  103. Forced                                   : No

  104. Text #2
  105. ID                                       : 6
  106. Format                                   : PGS
  107. Muxing mode                              : zlib
  108. Codec ID                                 : S_HDMV/PGS
  109. Codec ID/Info                            : Picture based subtitle format used on BDs/HD-DVDs
  110. Duration                                 : 1 h 48 min
  111. Bit rate                                 : 29.4 kb/s
  112. Count of elements                        : 2238
  113. Stream size                              : 22.8 MiB (0%)
  114. Title                                    : English-PGS
  115. Language                                 : English
  116. Default                                  : No
  117. Forced                                   : No

  118. Text #3
  119. ID                                       : 7
  120. Format                                   : PGS
  121. Muxing mode                              : zlib
  122. Codec ID                                 : S_HDMV/PGS
  123. Codec ID/Info                            : Picture based subtitle format used on BDs/HD-DVDs
  124. Duration                                 : 1 h 48 min
  125. Bit rate                                 : 32.2 kb/s
  126. Count of elements                        : 2448
  127. Stream size                              : 24.9 MiB (0%)
  128. Title                                    : English-SDH-PGS
  129. Language                                 : English
  130. Default                                  : No
  131. Forced                                   : No

  132. Text #4
  133. ID                                       : 8
  134. Format                                   : PGS
  135. Muxing mode                              : zlib
  136. Codec ID                                 : S_HDMV/PGS
  137. Codec ID/Info                            : Picture based subtitle format used on BDs/HD-DVDs
  138. Duration                                 : 1 h 55 min
  139. Bit rate                                 : 17.6 kb/s
  140. Count of elements                        : 2250
  141. Stream size                              : 14.5 MiB (0%)
  142. Title                                    : Chinese-PGS
  143. Language                                 : Chinese
  144. Default                                  : No
  145. Forced                                   : No

  146. Text #5
  147. ID                                       : 9
  148. Format                                   : PGS
  149. Muxing mode                              : zlib
  150. Codec ID                                 : S_HDMV/PGS
  151. Codec ID/Info                            : Picture based subtitle format used on BDs/HD-DVDs
  152. Duration                                 : 1 h 55 min
  153. Bit rate                                 : 22.0 kb/s
  154. Count of elements                        : 2208
  155. Stream size                              : 18.1 MiB (0%)
  156. Title                                    : Chinese-PGS
  157. Language                                 : Chinese
  158. Default                                  : No
  159. Forced                                   : No

  160. Text #6
  161. ID                                       : 10
  162. Format                                   : PGS
  163. Muxing mode                              : zlib
  164. Codec ID                                 : S_HDMV/PGS
  165. Codec ID/Info                            : Picture based subtitle format used on BDs/HD-DVDs
  166. Duration                                 : 1 h 55 min
  167. Bit rate                                 : 18.8 kb/s
  168. Count of elements                        : 2246
  169. Stream size                              : 15.4 MiB (0%)
  170. Title                                    : Chinese-PGS
  171. Language                                 : Chinese
  172. Default                                  : No
  173. Forced                                   : No

  174. Text #7
  175. ID                                       : 11
  176. Format                                   : PGS
  177. Muxing mode                              : zlib
  178. Codec ID                                 : S_HDMV/PGS
  179. Codec ID/Info                            : Picture based subtitle format used on BDs/HD-DVDs
  180. Duration                                 : 1 h 55 min
  181. Bit rate                                 : 22.3 kb/s
  182. Count of elements                        : 2134
  183. Stream size                              : 18.3 MiB (0%)
  184. Title                                    : Czech-PGS
  185. Language                                 : Czech
  186. Default                                  : No
  187. Forced                                   : No

  188. Text #8
  189. ID                                       : 12
  190. Format                                   : PGS
  191. Muxing mode                              : zlib
  192. Codec ID                                 : S_HDMV/PGS
  193. Codec ID/Info                            : Picture based subtitle format used on BDs/HD-DVDs
  194. Duration                                 : 1 h 55 min
  195. Bit rate                                 : 19.1 kb/s
  196. Count of elements                        : 1476
  197. Stream size                              : 15.7 MiB (0%)
  198. Title                                    : Danish-PGS
  199. Language                                 : Danish
  200. Default                                  : No
  201. Forced                                   : No

  202. Text #9
  203. ID                                       : 13
  204. Format                                   : PGS
  205. Muxing mode                              : zlib
  206. Codec ID                                 : S_HDMV/PGS
  207. Codec ID/Info                            : Picture based subtitle format used on BDs/HD-DVDs
  208. Duration                                 : 1 h 55 min
  209. Bit rate                                 : 15.9 kb/s
  210. Count of elements                        : 1444
  211. Stream size                              : 13.1 MiB (0%)
  212. Title                                    : Dutch-PGS
  213. Language                                 : Dutch
  214. Default                                  : No
  215. Forced                                   : No

  216. Text #10
  217. ID                                       : 14
  218. Format                                   : PGS
  219. Muxing mode                              : zlib
  220. Codec ID                                 : S_HDMV/PGS
  221. Codec ID/Info                            : Picture based subtitle format used on BDs/HD-DVDs
  222. Duration                                 : 1 h 55 min
  223. Bit rate                                 : 20.0 kb/s
  224. Count of elements                        : 1756
  225. Stream size                              : 16.5 MiB (0%)
  226. Title                                    : Finnish-PGS
  227. Language                                 : Finnish
  228. Default                                  : No
  229. Forced                                   : No

  230. Text #11
  231. ID                                       : 15
  232. Format                                   : PGS
  233. Muxing mode                              : zlib
  234. Codec ID                                 : S_HDMV/PGS
  235. Codec ID/Info                            : Picture based subtitle format used on BDs/HD-DVDs
  236. Duration                                 : 1 h 48 min
  237. Bit rate                                 : 18.8 kb/s
  238. Count of elements                        : 1690
  239. Stream size                              : 14.6 MiB (0%)
  240. Title                                    : French-PGS
  241. Language                                 : French
  242. Default                                  : No
  243. Forced                                   : No

  244. Text #12
  245. ID                                       : 16
  246. Format                                   : PGS
  247. Muxing mode                              : zlib
  248. Codec ID                                 : S_HDMV/PGS
  249. Codec ID/Info                            : Picture based subtitle format used on BDs/HD-DVDs
  250. Duration                                 : 1 h 55 min
  251. Bit rate                                 : 26.7 kb/s
  252. Count of elements                        : 2258
  253. Stream size                              : 22.0 MiB (0%)
  254. Title                                    : German-PGS
  255. Language                                 : German
  256. Default                                  : No
  257. Forced                                   : No

  258. Text #13
  259. ID                                       : 17
  260. Format                                   : PGS
  261. Muxing mode                              : zlib
  262. Codec ID                                 : S_HDMV/PGS
  263. Codec ID/Info                            : Picture based subtitle format used on BDs/HD-DVDs
  264. Duration                                 : 1 h 55 min
  265. Bit rate                                 : 26.7 kb/s
  266. Count of elements                        : 2032
  267. Stream size                              : 21.9 MiB (0%)
  268. Title                                    : Greek-PGS
  269. Language                                 : Greek
  270. Default                                  : No
  271. Forced                                   : No

  272. Text #14
  273. ID                                       : 18
  274. Format                                   : PGS
  275. Muxing mode                              : zlib
  276. Codec ID                                 : S_HDMV/PGS
  277. Codec ID/Info                            : Picture based subtitle format used on BDs/HD-DVDs
  278. Duration                                 : 1 h 55 min
  279. Bit rate                                 : 19.6 kb/s
  280. Count of elements                        : 2232
  281. Stream size                              : 16.1 MiB (0%)
  282. Title                                    : Hindi-PGS
  283. Language                                 : Hindi
  284. Default                                  : No
  285. Forced                                   : No

  286. Text #15
  287. ID                                       : 19
  288. Format                                   : PGS
  289. Muxing mode                              : zlib
  290. Codec ID                                 : S_HDMV/PGS
  291. Codec ID/Info                            : Picture based subtitle format used on BDs/HD-DVDs
  292. Duration                                 : 1 h 55 min
  293. Bit rate                                 : 26.5 kb/s
  294. Count of elements                        : 2204
  295. Stream size                              : 21.8 MiB (0%)
  296. Title                                    : Hungarian-PGS
  297. Language                                 : Hungarian
  298. Default                                  : No
  299. Forced                                   : No

  300. Text #16
  301. ID                                       : 20
  302. Format                                   : PGS
  303. Muxing mode                              : zlib
  304. Codec ID                                 : S_HDMV/PGS
  305. Codec ID/Info                            : Picture based subtitle format used on BDs/HD-DVDs
  306. Duration                                 : 1 h 55 min
  307. Bit rate                                 : 25.7 kb/s
  308. Count of elements                        : 2220
  309. Stream size                              : 21.1 MiB (0%)
  310. Title                                    : Indonesian-PGS
  311. Language                                 : Indonesian
  312. Default                                  : No
  313. Forced                                   : No

  314. Text #17
  315. ID                                       : 21
  316. Format                                   : PGS
  317. Muxing mode                              : zlib
  318. Codec ID                                 : S_HDMV/PGS
  319. Codec ID/Info                            : Picture based subtitle format used on BDs/HD-DVDs
  320. Duration                                 : 1 h 55 min
  321. Bit rate                                 : 25.7 kb/s
  322. Count of elements                        : 2206
  323. Stream size                              : 21.1 MiB (0%)
  324. Title                                    : Italian-PGS
  325. Language                                 : Italian
  326. Default                                  : No
  327. Forced                                   : No

  328. Text #18
  329. ID                                       : 22
  330. Format                                   : PGS
  331. Muxing mode                              : zlib
  332. Codec ID                                 : S_HDMV/PGS
  333. Codec ID/Info                            : Picture based subtitle format used on BDs/HD-DVDs
  334. Duration                                 : 1 h 48 min
  335. Bit rate                                 : 16.3 kb/s
  336. Count of elements                        : 1740
  337. Stream size                              : 12.6 MiB (0%)
  338. Title                                    : Japanese-PGS
  339. Language                                 : Japanese
  340. Default                                  : No
  341. Forced                                   : No

  342. Text #19
  343. ID                                       : 23
  344. Format                                   : PGS
  345. Muxing mode                              : zlib
  346. Codec ID                                 : S_HDMV/PGS
  347. Codec ID/Info                            : Picture based subtitle format used on BDs/HD-DVDs
  348. Duration                                 : 1 h 55 min
  349. Bit rate                                 : 11.3 kb/s
  350. Count of elements                        : 2100
  351. Stream size                              : 9.27 MiB (0%)
  352. Title                                    : Korean-PGS
  353. Language                                 : Korean
  354. Default                                  : No
  355. Forced                                   : No

  356. Text #20
  357. ID                                       : 24
  358. Format                                   : PGS
  359. Muxing mode                              : zlib
  360. Codec ID                                 : S_HDMV/PGS
  361. Codec ID/Info                            : Picture based subtitle format used on BDs/HD-DVDs
  362. Duration                                 : 1 h 55 min
  363. Bit rate                                 : 27.4 kb/s
  364. Count of elements                        : 2230
  365. Stream size                              : 22.5 MiB (0%)
  366. Title                                    : Malay-PGS
  367. Language                                 : Malay
  368. Default                                  : No
  369. Forced                                   : No

  370. Text #21
  371. ID                                       : 25
  372. Format                                   : PGS
  373. Muxing mode                              : zlib
  374. Codec ID                                 : S_HDMV/PGS
  375. Codec ID/Info                            : Picture based subtitle format used on BDs/HD-DVDs
  376. Duration                                 : 1 h 55 min
  377. Bit rate                                 : 17.3 kb/s
  378. Count of elements                        : 1786
  379. Stream size                              : 14.3 MiB (0%)
  380. Title                                    : Norwegian-PGS
  381. Language                                 : Norwegian
  382. Default                                  : No
  383. Forced                                   : No

  384. Text #22
  385. ID                                       : 26
  386. Format                                   : PGS
  387. Muxing mode                              : zlib
  388. Codec ID                                 : S_HDMV/PGS
  389. Codec ID/Info                            : Picture based subtitle format used on BDs/HD-DVDs
  390. Duration                                 : 1 h 55 min
  391. Bit rate                                 : 23.7 kb/s
  392. Count of elements                        : 2190
  393. Stream size                              : 19.5 MiB (0%)
  394. Title                                    : Polish-PGS
  395. Language                                 : Polish
  396. Default                                  : No
  397. Forced                                   : No

  398. Text #23
  399. ID                                       : 27
  400. Format                                   : PGS
  401. Muxing mode                              : zlib
  402. Codec ID                                 : S_HDMV/PGS
  403. Codec ID/Info                            : Picture based subtitle format used on BDs/HD-DVDs
  404. Duration                                 : 1 h 49 min
  405. Bit rate                                 : 22.7 kb/s
  406. Count of elements                        : 2026
  407. Stream size                              : 17.7 MiB (0%)
  408. Title                                    : Portuguese-PGS
  409. Language                                 : Portuguese
  410. Default                                  : No
  411. Forced                                   : No

  412. Text #24
  413. ID                                       : 28
  414. Format                                   : PGS
  415. Muxing mode                              : zlib
  416. Codec ID                                 : S_HDMV/PGS
  417. Codec ID/Info                            : Picture based subtitle format used on BDs/HD-DVDs
  418. Duration                                 : 1 h 55 min
  419. Bit rate                                 : 25.0 kb/s
  420. Count of elements                        : 2212
  421. Stream size                              : 20.6 MiB (0%)
  422. Title                                    : Romanian-PGS
  423. Language                                 : Romanian
  424. Default                                  : No
  425. Forced                                   : No

  426. Text #25
  427. ID                                       : 29
  428. Format                                   : PGS
  429. Muxing mode                              : zlib
  430. Codec ID                                 : S_HDMV/PGS
  431. Codec ID/Info                            : Picture based subtitle format used on BDs/HD-DVDs
  432. Duration                                 : 1 h 55 min
  433. Bit rate                                 : 28.4 kb/s
  434. Count of elements                        : 2218
  435. Stream size                              : 23.4 MiB (0%)
  436. Title                                    : Russian-PGS
  437. Language                                 : Russian
  438. Default                                  : No
  439. Forced                                   : No

  440. Text #26
  441. ID                                       : 30
  442. Format                                   : PGS
  443. Muxing mode                              : zlib
  444. Codec ID                                 : S_HDMV/PGS
  445. Codec ID/Info                            : Picture based subtitle format used on BDs/HD-DVDs
  446. Duration                                 : 1 h 55 min
  447. Bit rate                                 : 24.2 kb/s
  448. Count of elements                        : 2250
  449. Stream size                              : 19.9 MiB (0%)
  450. Title                                    : Spanish-PGS
  451. Language                                 : Spanish
  452. Default                                  : No
  453. Forced                                   : No

  454. Text #27
  455. ID                                       : 31
  456. Format                                   : PGS
  457. Muxing mode                              : zlib
  458. Codec ID                                 : S_HDMV/PGS
  459. Codec ID/Info                            : Picture based subtitle format used on BDs/HD-DVDs
  460. Duration                                 : 1 h 49 min
  461. Bit rate                                 : 24.4 kb/s
  462. Count of elements                        : 2144
  463. Stream size                              : 19.0 MiB (0%)
  464. Title                                    : Spanish-PGS
  465. Language                                 : Spanish
  466. Default                                  : No
  467. Forced                                   : No

  468. Text #28
  469. ID                                       : 32
  470. Format                                   : PGS
  471. Muxing mode                              : zlib
  472. Codec ID                                 : S_HDMV/PGS
  473. Codec ID/Info                            : Picture based subtitle format used on BDs/HD-DVDs
  474. Duration                                 : 1 h 55 min
  475. Bit rate                                 : 20.4 kb/s
  476. Count of elements                        : 1638
  477. Stream size                              : 16.8 MiB (0%)
  478. Title                                    : Swedish-PGS
  479. Language                                 : Swedish
  480. Default                                  : No
  481. Forced                                   : No

  482. Text #29
  483. ID                                       : 33
  484. Format                                   : PGS
  485. Muxing mode                              : zlib
  486. Codec ID                                 : S_HDMV/PGS
  487. Codec ID/Info                            : Picture based subtitle format used on BDs/HD-DVDs
  488. Duration                                 : 1 h 55 min
  489. Bit rate                                 : 16.3 kb/s
  490. Count of elements                        : 2162
  491. Stream size                              : 13.4 MiB (0%)
  492. Title                                    : Thai-PGS
  493. Language                                 : Thai
  494. Default                                  : No
  495. Forced                                   : No

  496. Menu
  497. 00:00:00.000                             : en:Earth Under Man
  498. 00:04:16.006                             : en:Eve Of The War
  499. 00:08:18.248                             : en:Coming Of The Invaders
  500. 00:13:17.380                             : en:In The Storm
  501. 00:19:19.867                             : en:The Machine Emerges
  502. 00:25:29.319                             : en:Heat-Ray
  503. 00:29:45.242                             : en:Escape
  504. 00:34:32.570                             : en:How We Reached Home
  505. 00:38:47.033                             : en:At The Window
  506. 00:43:53.256                             : en:Human Toll
  507. 00:49:03.732                             : en:Worst Of Man
  508. 00:55:17.105                             : en:Exodus
  509. 00:59:21.016                             : en:Hudson Ferry
  510. 01:04:44.172                             : en:The Fighting Begins
  511. 01:10:37.233                             : en:Harlan Ogilvy
  512. 01:15:53.299                             : en:Disturbing Revelations
  513. 01:20:28.991                             : en:Stillness
  514. 01:24:48.000                             : en:Days Of Imprisonment
  515. 01:29:03.964                             : en:Alone With Harlan
  516. 01:33:59.884                             : en:Under Foot
  517. 01:36:59.605                             : en:Earth Under Them
  518. 01:41:07.561                             : en:In Boston
  519. 01:45:27.404                             : en:Wreckage
  520. 01:49:42.034                             : en:End Credits
复制代码

世界之战/世界大战 War.of.the.Worlds.2005.2160p.BluRay.x264.8bit.SDR.DTS-HD.MA.TrueHD.7.1.Atmos-SWTYBLZ 53.51GB-2.png 世界之战/世界大战 War.of.the.Worlds.2005.2160p.BluRay.x264.8bit.SDR.DTS-HD.MA.TrueHD.7.1.Atmos-SWTYBLZ 53.51GB-3.png 世界之战/世界大战 War.of.the.Worlds.2005.2160p.BluRay.x264.8bit.SDR.DTS-HD.MA.TrueHD.7.1.Atmos-SWTYBLZ 53.51GB-4.png 世界之战/世界大战 War.of.the.Worlds.2005.2160p.BluRay.x264.8bit.SDR.DTS-HD.MA.TrueHD.7.1.Atmos-SWTYBLZ 53.51GB-5.png 世界之战/世界大战 War.of.the.Worlds.2005.2160p.BluRay.x264.8bit.SDR.DTS-HD.MA.TrueHD.7.1.Atmos-SWTYBLZ 53.51GB-6.png 世界之战/世界大战 War.of.the.Worlds.2005.2160p.BluRay.x264.8bit.SDR.DTS-HD.MA.TrueHD.7.1.Atmos-SWTYBLZ 53.51GB-7.png







回复

使用道具 举报

发表于 2020-5-21 16:16:33 | 显示全部楼层
靓汤拼尽全力也没补好斯皮尔伯格的锅
回复 支持 反对

使用道具 举报

发表于 2020-5-21 16:24:32 | 显示全部楼层
黑你帮我发六娃放屁u额
回复 支持 反对

使用道具 举报

发表于 2020-5-21 16:30:29 | 显示全部楼层

这个帖子不回对不起自己!我想我是一天也不能离开蓝光电影网
回复 支持 反对

使用道具 举报

发表于 2020-5-21 19:01:46 | 显示全部楼层

我看不错噢 谢谢楼主!蓝光电影网越来越好!
回复 支持 反对

使用道具 举报

发表于 2020-5-21 19:05:33 | 显示全部楼层
谢谢楼主
回复

使用道具 举报

懒得打字嘛,点击右侧快捷回复 【右侧内容,后台自定义】
您需要登录后才可以回帖 登录 | 立即加入

本版积分规则

现在加入蓝光电影网,注册一个账号
上个主题 下个主题 快速回复 收藏帖子 返回列表 客服中心 搜索

手机版|小黑屋| 蓝光电影网 |网站地图 

Copyright © 2015-2019 Comsenz Inc.  Template by 蓝光电影论坛 All Rights Reserved.

Powered by 蓝光电影网 X3.4

特别声明:本站所有资源均由网上收集而来,版权归原影音公司所有,如果侵犯了你的权益,请通知我们,我们会及时删除侵权内容.

快速回复 返回顶部 返回列表