找回密码

蓝光电影网

查看: 115|回复: 1

[10bit.SDR] 世界之战/世界大战 War.of.the.Worlds.2005.2160p.BluRay.x265.10bit.SDR.DTS-HD.MA.TrueHD.7.1.Atmos-SWTYBLZ 47.69GB

[复制链接]

 成长值: 26155

发表于 2020-5-21 13:38:08 | 显示全部楼层 |阅读模式
世界之战/世界大战 War.of.the.Worlds.2005.2160p.BluRay.x265.10bit.SDR.DTS-HD.MA.TrueHD.7.1.Atmos-SWTYBLZ 47.69GB-1.png

译  名 世界之战 / 世界大战 / 宇宙战争 / 强战世界 / 星际战争
片  名 War of the Worlds
年  代 2005
产  地 美国
类  别 科幻 / 惊悚 / 灾难
语  言 英语
上映日期 2005-06-29(美国) / 2005-08-25(中国大陆)
IMDb评分  6.5/10 from 404246 users
IMDb链接  https://www.imdb.com/title/tt0407304
豆瓣评分 6.6/10 from 67340 users
豆瓣链接 https://movie.douban.com/subject/1309044/
片  长 116分钟
导  演 史蒂文·斯皮尔伯格 Steven Spielberg
编  剧 乔什·弗莱德曼 Josh Friedman / 大卫·凯普 David Koepp / 赫伯特·乔治·威尔斯 H.G. Wells
主  演 汤姆·克鲁斯 Tom Cruise
       达科塔·范宁 Dakota Fanning
       米兰达·奥图 Miranda Otto
       贾斯汀·查特文 Justin Chatwin
       蒂姆·罗宾斯 Tim Robbins
       瑞克·冈萨雷斯 Rick Gonzalez
       尤尔·瓦斯克斯 Yul Vazquez
       莱尼·维尼托 Lenny Venito
       丽萨·安·沃尔特 Lisa Ann Walter
       安·鲁滨逊 Ann Robinson
       吉恩·巴瑞 Gene Barry
       大卫·阿伦·伯施理 David Alan Basche
       罗兹·亚布拉姆斯 Roz Abrams
       迈克尔·布朗李 Michael Brownlee
       卡米莉亚·莫内特 Camillia Monet
       艾米·莱安 Amy Ryan
       丹尼·霍奇 Danny Hoch


标  签 科幻 | 灾难 | 美国 | 斯皮尔伯格 | 汤姆·克鲁斯 | 美国电影 | TomCruise | StevenSpielberg

简  介  

  雷?费瑞尔(汤姆?克鲁斯 Tom Cruise 饰)和妻子离婚了,一儿一女都跟母亲生活——因为他的的贪玩懒散,疏忽责任,这个家庭才如此支离破碎。一场外星人入侵的灾难却让他们重新建立起亲密的的关系。
  这天妻子繁忙,只好把儿女交给雷照顾。电闪雷鸣天色灰暗,一切好像有些异样。 果然,马路上赫然一个庞大的三脚飞行器掘地而起,邪恶的火星人光顾了这个本来平静的小镇。人们四处逃亡,雷也带着女儿奔走逃命,开始了生死历险。当局想尽办法对付外星人,却屡屡失败,整个世界都陷入了恐慌当中。
  有了父爱的本能,平日吊儿郎当的父亲变得英勇顽强,保护儿女成了他支撑他的动力和信念。

获奖情况  

  第78届奥斯卡金像奖(2006)
  最佳视觉效果(提名) 巴勃罗·赫尔曼 / 丹尼斯·穆伦 / 兰迪·杜特拉 / 丹尼尔·萨迪克
  最佳混音(提名) 安迪·尼尔森 / 安娜·贝尔莫 / 朗·贾金斯
  最佳音效剪辑(提名) 理查德·金

  第15届MTV电影奖(2006)
  MTV电影奖 最佳惊恐戏表演(提名) 达科塔·范宁
  1. Video
  2. ID                                       : 1
  3. Format                                   : HEVC
  4. Format/Info                              : High Efficiency Video Coding
  5. Format profile                           : Main High@L4@High
  6. Codec ID                                 : V_MPEGH/ISO/HEVC
  7. Duration                                 : 1 h 56 min
  8. Bit rate                                 : 48.5 Mb/s
  9. Width                                    : 3 840 pixels
  10. Height                                   : 2 160 pixels
  11. Display aspect ratio                     : 16:9
  12. Frame rate mode                          : Constant
  13. Frame rate                               : 23.976 (24000/1001/189150) FPS
  14. Color space                              : YUV
  15. Chroma subsampling                       : 4:2:0
  16. Bit depth                                : 10 bits
  17. Bits/(Pixel*Frame)                       : 0.244
  18. Stream size                              : 39.5 GiB (83%)
  19. Title                                    : War.of.the.Worlds.2005.2160p.BluRay.x265.10bit.SDR.DTS-HD.MA.TrueHD.7.1.Atmos-SWTYBLZ
  20. Writing library                          : x265 3.0ed72af837053:[Windows][GCC 8.2.0][64 bit] 10bit
  21. Encoding settings                        : cpuid=1111039 / frame-threads=6 / numa-pools=40 / wpp / no-pmode / no-pme / no-psnr / no-ssim / log-level=2 / input-csp=1 / input-res=3840x2160 / interlace=0 / total-frames=167635 / level-idc=51 / high-tier=1 / uhd-bd=0 / ref=3 / no-allow-non-conformance / repeat-headers / annexb / aud / hrd / info / hash=0 / no-temporal-layers / no-open-gop / min-keyint=1 / keyint=24 / gop-lookahead=0 / bframes=4 / b-adapt=2 / b-pyramid / bframe-bias=0 / rc-lookahead=25 / lookahead-slices=4 / scenecut=40 / radl=0 / no-splice / no-intra-refresh / ctu=64 / min-cu-size=8 / no-rect / no-amp / max-tu-size=32 / tu-inter-depth=1 / tu-intra-depth=1 / limit-tu=0 / rdoq-level=0 / dynamic-rd=0.00 / no-ssim-rd / signhide / no-tskip / nr-intra=0 / nr-inter=0 / no-constrained-intra / strong-intra-smoothing / max-merge=2 / limit-refs=3 / no-limit-modes / me=1 / subme=2 / merange=57 / temporal-mvp / weightp / no-weightb / no-analyze-src-pics / deblock=0:0 / no-sao / no-sao-non-deblock / rd=3 / no-early-skip / rskip / no-fast-intra / no-tskip-fast / no-cu-lossless / no-b-intra / no-splitrd-skip / rdpenalty=0 / psy-rd=2.00 / psy-rdoq=0.00 / no-rd-refine / no-lossless / cbqpoffs=0 / crqpoffs=0 / rc=crf / crf=19.0 / qcomp=0.60 / qpstep=4 / stats-write=0 / stats-read=0 / vbv-maxrate=160000 / vbv-bufsize=160000 / vbv-init=0.9 / crf-max=0.0 / crf-min=0.0 / ipratio=1.40 / pbratio=1.30 / aq-mode=1 / aq-strength=1.00 / cutree / zone-count=0 / no-strict-cbr / qg-size=32 / no-rc-grain / qpmax=69 / qpmin=0 / no-const-vbv / sar=1 / overscan=0 / videoformat=5 / range=0 / colorprim=2 / transfer=2 / colormatrix=2 / chromaloc=0 / display-window=0 / max-cll=0,0 / min-luma=0 / max-luma=1023 / log2-max-poc-lsb=8 / vui-timing-info / vui-hrd-info / slices=1 / opt-qp-pps / opt-ref-list-length-pps / no-multi-pass-opt-rps / scenecut-bias=0.05 / no-opt-cu-delta-qp / no-aq-motion / no-hdr / no-hdr-opt / no-dhdr10-opt / no-idr-recovery-sei / analysis-reuse-level=5 / scale-factor=0 / refine-intra=0 / refine-inter=0 / refine-mv=0 / refine-ctu-distortion=0 / no-limit-sao / ctu-info=0 / no-lowpass-dct / refine-analysis-type=0 / copy-pic=1 / max-ausize-factor=1.0 / no-dynamic-refine / no-single-sei / no-hevc-aq / qp-adaptation-range=1.00
  22. Default                                  : Yes
  23. Forced                                   : No

  24. Audio #1
  25. ID                                       : 2
  26. Format                                   : MLP FBA 16-ch
  27. Format/Info                              : Meridian Lossless Packing FBA with 16-channel presentation
  28. Commercial name                          : Dolby TrueHD with Dolby Atmos
  29. Codec ID                                 : A_TRUEHD
  30. Duration                                 : 1 h 56 min
  31. Bit rate mode                            : Variable
  32. Bit rate                                 : 4 432 kb/s
  33. Maximum bit rate                         : 6 816 kb/s
  34. Channel(s)                               : 8 channels
  35. Channel layout                           : L R C LFE Ls Rs Lb Rb
  36. Sampling rate                            : 48.0 kHz
  37. Frame rate                               : 1 200.000 FPS (40 SPF)
  38. Compression mode                         : Lossless
  39. Stream size                              : 3.61 GiB (8%)
  40. Title                                    : War.of.the.Worlds.2005.2160p.BluRay.x265.10bit.SDR.DTS-HD.MA.TrueHD.7.1.Atmos-SWTYBLZ
  41. Language                                 : English
  42. Default                                  : Yes
  43. Forced                                   : No
  44. Number of dynamic objects                : 11
  45. Bed channel count                        : 1 channel
  46. Bed channel configuration                : LFE

  47. Audio #2
  48. ID                                       : 3
  49. Format                                   : DTS XLL
  50. Format/Info                              : Digital Theater Systems
  51. Commercial name                          : DTS-HD Master Audio
  52. Codec ID                                 : A_DTS
  53. Duration                                 : 1 h 56 min
  54. Bit rate mode                            : Variable
  55. Bit rate                                 : 4 491 kb/s
  56. Channel(s)                               : 8 channels
  57. Channel layout                           : C L R LFE Lb Rb Lss Rss
  58. Sampling rate                            : 48.0 kHz
  59. Frame rate                               : 93.750 FPS (512 SPF)
  60. Bit depth                                : 24 bits
  61. Compression mode                         : Lossless
  62. Stream size                              : 3.66 GiB (8%)
  63. Title                                    : War.of.the.Worlds.2005.2160p.BluRay.x265.10bit.SDR.DTS-HD.MA.TrueHD.7.1.Atmos-SWTYBLZ
  64. Language                                 : English
  65. Default                                  : No
  66. Forced                                   : No

  67. Audio #3
  68. ID                                       : 4
  69. Format                                   : AC-3
  70. Format/Info                              : Audio Coding 3
  71. Commercial name                          : Dolby Digital
  72. Codec ID                                 : A_AC3
  73. Duration                                 : 1 h 56 min
  74. Bit rate mode                            : Constant
  75. Bit rate                                 : 640 kb/s
  76. Channel(s)                               : 6 channels
  77. Channel layout                           : L R C LFE Ls Rs
  78. Sampling rate                            : 48.0 kHz
  79. Frame rate                               : 31.250 FPS (1536 SPF)
  80. Compression mode                         : Lossy
  81. Stream size                              : 533 MiB (1%)
  82. Title                                    : War.of.the.Worlds.2005.2160p.BluRay.x265.10bit.SDR.DTS-HD.MA.TrueHD.7.1.Atmos-SWTYBLZ
  83. Language                                 : English
  84. Service kind                             : Complete Main
  85. Default                                  : No
  86. Forced                                   : No

  87. Text #1
  88. ID                                       : 5
  89. Format                                   : UTF-8
  90. Codec ID                                 : S_TEXT/UTF8
  91. Codec ID/Info                            : UTF-8 Plain Text
  92. Duration                                 : 1 h 48 min
  93. Bit rate                                 : 46 b/s
  94. Count of elements                        : 1117
  95. Stream size                              : 37.1 KiB (0%)
  96. Title                                    : English-SRT
  97. Language                                 : English
  98. Default                                  : Yes
  99. Forced                                   : No

  100. Text #2
  101. ID                                       : 6
  102. Format                                   : PGS
  103. Muxing mode                              : zlib
  104. Codec ID                                 : S_HDMV/PGS
  105. Codec ID/Info                            : Picture based subtitle format used on BDs/HD-DVDs
  106. Duration                                 : 1 h 48 min
  107. Bit rate                                 : 29.4 kb/s
  108. Count of elements                        : 2238
  109. Stream size                              : 22.8 MiB (0%)
  110. Title                                    : English-PGS
  111. Language                                 : English
  112. Default                                  : No
  113. Forced                                   : No

  114. Text #3
  115. ID                                       : 7
  116. Format                                   : PGS
  117. Muxing mode                              : zlib
  118. Codec ID                                 : S_HDMV/PGS
  119. Codec ID/Info                            : Picture based subtitle format used on BDs/HD-DVDs
  120. Duration                                 : 1 h 48 min
  121. Bit rate                                 : 32.2 kb/s
  122. Count of elements                        : 2448
  123. Stream size                              : 24.9 MiB (0%)
  124. Title                                    : English-SDH-PGS
  125. Language                                 : English
  126. Default                                  : No
  127. Forced                                   : No

  128. Text #4
  129. ID                                       : 8
  130. Format                                   : PGS
  131. Muxing mode                              : zlib
  132. Codec ID                                 : S_HDMV/PGS
  133. Codec ID/Info                            : Picture based subtitle format used on BDs/HD-DVDs
  134. Duration                                 : 1 h 55 min
  135. Bit rate                                 : 17.6 kb/s
  136. Count of elements                        : 2250
  137. Stream size                              : 14.5 MiB (0%)
  138. Title                                    : Chinese-PGS
  139. Language                                 : Chinese
  140. Default                                  : No
  141. Forced                                   : No

  142. Text #5
  143. ID                                       : 9
  144. Format                                   : PGS
  145. Muxing mode                              : zlib
  146. Codec ID                                 : S_HDMV/PGS
  147. Codec ID/Info                            : Picture based subtitle format used on BDs/HD-DVDs
  148. Duration                                 : 1 h 55 min
  149. Bit rate                                 : 22.0 kb/s
  150. Count of elements                        : 2208
  151. Stream size                              : 18.1 MiB (0%)
  152. Title                                    : Chinese-PGS
  153. Language                                 : Chinese
  154. Default                                  : No
  155. Forced                                   : No

  156. Text #6
  157. ID                                       : 10
  158. Format                                   : PGS
  159. Muxing mode                              : zlib
  160. Codec ID                                 : S_HDMV/PGS
  161. Codec ID/Info                            : Picture based subtitle format used on BDs/HD-DVDs
  162. Duration                                 : 1 h 55 min
  163. Bit rate                                 : 18.8 kb/s
  164. Count of elements                        : 2246
  165. Stream size                              : 15.4 MiB (0%)
  166. Title                                    : Chinese-PGS
  167. Language                                 : Chinese
  168. Default                                  : No
  169. Forced                                   : No

  170. Text #7
  171. ID                                       : 11
  172. Format                                   : PGS
  173. Muxing mode                              : zlib
  174. Codec ID                                 : S_HDMV/PGS
  175. Codec ID/Info                            : Picture based subtitle format used on BDs/HD-DVDs
  176. Duration                                 : 1 h 55 min
  177. Bit rate                                 : 22.3 kb/s
  178. Count of elements                        : 2134
  179. Stream size                              : 18.3 MiB (0%)
  180. Title                                    : Czech-PGS
  181. Language                                 : Czech
  182. Default                                  : No
  183. Forced                                   : No

  184. Text #8
  185. ID                                       : 12
  186. Format                                   : PGS
  187. Muxing mode                              : zlib
  188. Codec ID                                 : S_HDMV/PGS
  189. Codec ID/Info                            : Picture based subtitle format used on BDs/HD-DVDs
  190. Duration                                 : 1 h 55 min
  191. Bit rate                                 : 19.1 kb/s
  192. Count of elements                        : 1476
  193. Stream size                              : 15.7 MiB (0%)
  194. Title                                    : Danish-PGS
  195. Language                                 : Danish
  196. Default                                  : No
  197. Forced                                   : No

  198. Text #9
  199. ID                                       : 13
  200. Format                                   : PGS
  201. Muxing mode                              : zlib
  202. Codec ID                                 : S_HDMV/PGS
  203. Codec ID/Info                            : Picture based subtitle format used on BDs/HD-DVDs
  204. Duration                                 : 1 h 55 min
  205. Bit rate                                 : 15.9 kb/s
  206. Count of elements                        : 1444
  207. Stream size                              : 13.1 MiB (0%)
  208. Title                                    : Dutch-PGS
  209. Language                                 : Dutch
  210. Default                                  : No
  211. Forced                                   : No

  212. Text #10
  213. ID                                       : 14
  214. Format                                   : PGS
  215. Muxing mode                              : zlib
  216. Codec ID                                 : S_HDMV/PGS
  217. Codec ID/Info                            : Picture based subtitle format used on BDs/HD-DVDs
  218. Duration                                 : 1 h 55 min
  219. Bit rate                                 : 20.0 kb/s
  220. Count of elements                        : 1756
  221. Stream size                              : 16.5 MiB (0%)
  222. Title                                    : Finnish-PGS
  223. Language                                 : Finnish
  224. Default                                  : No
  225. Forced                                   : No

  226. Text #11
  227. ID                                       : 15
  228. Format                                   : PGS
  229. Muxing mode                              : zlib
  230. Codec ID                                 : S_HDMV/PGS
  231. Codec ID/Info                            : Picture based subtitle format used on BDs/HD-DVDs
  232. Duration                                 : 1 h 48 min
  233. Bit rate                                 : 18.8 kb/s
  234. Count of elements                        : 1690
  235. Stream size                              : 14.6 MiB (0%)
  236. Title                                    : French-PGS
  237. Language                                 : French
  238. Default                                  : No
  239. Forced                                   : No

  240. Text #12
  241. ID                                       : 16
  242. Format                                   : PGS
  243. Muxing mode                              : zlib
  244. Codec ID                                 : S_HDMV/PGS
  245. Codec ID/Info                            : Picture based subtitle format used on BDs/HD-DVDs
  246. Duration                                 : 1 h 55 min
  247. Bit rate                                 : 26.7 kb/s
  248. Count of elements                        : 2258
  249. Stream size                              : 22.0 MiB (0%)
  250. Title                                    : German-PGS
  251. Language                                 : German
  252. Default                                  : No
  253. Forced                                   : No

  254. Text #13
  255. ID                                       : 17
  256. Format                                   : PGS
  257. Muxing mode                              : zlib
  258. Codec ID                                 : S_HDMV/PGS
  259. Codec ID/Info                            : Picture based subtitle format used on BDs/HD-DVDs
  260. Duration                                 : 1 h 55 min
  261. Bit rate                                 : 26.7 kb/s
  262. Count of elements                        : 2032
  263. Stream size                              : 21.9 MiB (0%)
  264. Title                                    : Greek-PGS
  265. Language                                 : Greek
  266. Default                                  : No
  267. Forced                                   : No

  268. Text #14
  269. ID                                       : 18
  270. Format                                   : PGS
  271. Muxing mode                              : zlib
  272. Codec ID                                 : S_HDMV/PGS
  273. Codec ID/Info                            : Picture based subtitle format used on BDs/HD-DVDs
  274. Duration                                 : 1 h 55 min
  275. Bit rate                                 : 19.6 kb/s
  276. Count of elements                        : 2232
  277. Stream size                              : 16.1 MiB (0%)
  278. Title                                    : Hindi-PGS
  279. Language                                 : Hindi
  280. Default                                  : No
  281. Forced                                   : No

  282. Text #15
  283. ID                                       : 19
  284. Format                                   : PGS
  285. Muxing mode                              : zlib
  286. Codec ID                                 : S_HDMV/PGS
  287. Codec ID/Info                            : Picture based subtitle format used on BDs/HD-DVDs
  288. Duration                                 : 1 h 55 min
  289. Bit rate                                 : 26.5 kb/s
  290. Count of elements                        : 2204
  291. Stream size                              : 21.8 MiB (0%)
  292. Title                                    : Hungarian-PGS
  293. Language                                 : Hungarian
  294. Default                                  : No
  295. Forced                                   : No

  296. Text #16
  297. ID                                       : 20
  298. Format                                   : PGS
  299. Muxing mode                              : zlib
  300. Codec ID                                 : S_HDMV/PGS
  301. Codec ID/Info                            : Picture based subtitle format used on BDs/HD-DVDs
  302. Duration                                 : 1 h 55 min
  303. Bit rate                                 : 25.7 kb/s
  304. Count of elements                        : 2220
  305. Stream size                              : 21.1 MiB (0%)
  306. Title                                    : Indonesian-PGS
  307. Language                                 : Indonesian
  308. Default                                  : No
  309. Forced                                   : No

  310. Text #17
  311. ID                                       : 21
  312. Format                                   : PGS
  313. Muxing mode                              : zlib
  314. Codec ID                                 : S_HDMV/PGS
  315. Codec ID/Info                            : Picture based subtitle format used on BDs/HD-DVDs
  316. Duration                                 : 1 h 55 min
  317. Bit rate                                 : 25.7 kb/s
  318. Count of elements                        : 2206
  319. Stream size                              : 21.1 MiB (0%)
  320. Title                                    : Italian-PGS
  321. Language                                 : Italian
  322. Default                                  : No
  323. Forced                                   : No

  324. Text #18
  325. ID                                       : 22
  326. Format                                   : PGS
  327. Muxing mode                              : zlib
  328. Codec ID                                 : S_HDMV/PGS
  329. Codec ID/Info                            : Picture based subtitle format used on BDs/HD-DVDs
  330. Duration                                 : 1 h 48 min
  331. Bit rate                                 : 16.3 kb/s
  332. Count of elements                        : 1740
  333. Stream size                              : 12.6 MiB (0%)
  334. Title                                    : Japanese-PGS
  335. Language                                 : Japanese
  336. Default                                  : No
  337. Forced                                   : No

  338. Text #19
  339. ID                                       : 23
  340. Format                                   : PGS
  341. Muxing mode                              : zlib
  342. Codec ID                                 : S_HDMV/PGS
  343. Codec ID/Info                            : Picture based subtitle format used on BDs/HD-DVDs
  344. Duration                                 : 1 h 55 min
  345. Bit rate                                 : 11.3 kb/s
  346. Count of elements                        : 2100
  347. Stream size                              : 9.27 MiB (0%)
  348. Title                                    : Korean-PGS
  349. Language                                 : Korean
  350. Default                                  : No
  351. Forced                                   : No

  352. Text #20
  353. ID                                       : 24
  354. Format                                   : PGS
  355. Muxing mode                              : zlib
  356. Codec ID                                 : S_HDMV/PGS
  357. Codec ID/Info                            : Picture based subtitle format used on BDs/HD-DVDs
  358. Duration                                 : 1 h 55 min
  359. Bit rate                                 : 27.4 kb/s
  360. Count of elements                        : 2230
  361. Stream size                              : 22.5 MiB (0%)
  362. Title                                    : Malay-PGS
  363. Language                                 : Malay
  364. Default                                  : No
  365. Forced                                   : No

  366. Text #21
  367. ID                                       : 25
  368. Format                                   : PGS
  369. Muxing mode                              : zlib
  370. Codec ID                                 : S_HDMV/PGS
  371. Codec ID/Info                            : Picture based subtitle format used on BDs/HD-DVDs
  372. Duration                                 : 1 h 55 min
  373. Bit rate                                 : 17.3 kb/s
  374. Count of elements                        : 1786
  375. Stream size                              : 14.3 MiB (0%)
  376. Title                                    : Norwegian-PGS
  377. Language                                 : Norwegian
  378. Default                                  : No
  379. Forced                                   : No

  380. Text #22
  381. ID                                       : 26
  382. Format                                   : PGS
  383. Muxing mode                              : zlib
  384. Codec ID                                 : S_HDMV/PGS
  385. Codec ID/Info                            : Picture based subtitle format used on BDs/HD-DVDs
  386. Duration                                 : 1 h 55 min
  387. Bit rate                                 : 23.7 kb/s
  388. Count of elements                        : 2190
  389. Stream size                              : 19.5 MiB (0%)
  390. Title                                    : Polish-PGS
  391. Language                                 : Polish
  392. Default                                  : No
  393. Forced                                   : No

  394. Text #23
  395. ID                                       : 27
  396. Format                                   : PGS
  397. Muxing mode                              : zlib
  398. Codec ID                                 : S_HDMV/PGS
  399. Codec ID/Info                            : Picture based subtitle format used on BDs/HD-DVDs
  400. Duration                                 : 1 h 49 min
  401. Bit rate                                 : 22.7 kb/s
  402. Count of elements                        : 2026
  403. Stream size                              : 17.7 MiB (0%)
  404. Title                                    : Portuguese-PGS
  405. Language                                 : Portuguese
  406. Default                                  : No
  407. Forced                                   : No

  408. Text #24
  409. ID                                       : 28
  410. Format                                   : PGS
  411. Muxing mode                              : zlib
  412. Codec ID                                 : S_HDMV/PGS
  413. Codec ID/Info                            : Picture based subtitle format used on BDs/HD-DVDs
  414. Duration                                 : 1 h 55 min
  415. Bit rate                                 : 25.0 kb/s
  416. Count of elements                        : 2212
  417. Stream size                              : 20.6 MiB (0%)
  418. Title                                    : Romanian-PGS
  419. Language                                 : Romanian
  420. Default                                  : No
  421. Forced                                   : No

  422. Text #25
  423. ID                                       : 29
  424. Format                                   : PGS
  425. Muxing mode                              : zlib
  426. Codec ID                                 : S_HDMV/PGS
  427. Codec ID/Info                            : Picture based subtitle format used on BDs/HD-DVDs
  428. Duration                                 : 1 h 55 min
  429. Bit rate                                 : 28.4 kb/s
  430. Count of elements                        : 2218
  431. Stream size                              : 23.4 MiB (0%)
  432. Title                                    : Russian-PGS
  433. Language                                 : Russian
  434. Default                                  : No
  435. Forced                                   : No

  436. Text #26
  437. ID                                       : 30
  438. Format                                   : PGS
  439. Muxing mode                              : zlib
  440. Codec ID                                 : S_HDMV/PGS
  441. Codec ID/Info                            : Picture based subtitle format used on BDs/HD-DVDs
  442. Duration                                 : 1 h 55 min
  443. Bit rate                                 : 24.2 kb/s
  444. Count of elements                        : 2250
  445. Stream size                              : 19.9 MiB (0%)
  446. Title                                    : Spanish-PGS
  447. Language                                 : Spanish
  448. Default                                  : No
  449. Forced                                   : No

  450. Text #27
  451. ID                                       : 31
  452. Format                                   : PGS
  453. Muxing mode                              : zlib
  454. Codec ID                                 : S_HDMV/PGS
  455. Codec ID/Info                            : Picture based subtitle format used on BDs/HD-DVDs
  456. Duration                                 : 1 h 49 min
  457. Bit rate                                 : 24.4 kb/s
  458. Count of elements                        : 2144
  459. Stream size                              : 19.0 MiB (0%)
  460. Title                                    : Spanish-PGS
  461. Language                                 : Spanish
  462. Default                                  : No
  463. Forced                                   : No

  464. Text #28
  465. ID                                       : 32
  466. Format                                   : PGS
  467. Muxing mode                              : zlib
  468. Codec ID                                 : S_HDMV/PGS
  469. Codec ID/Info                            : Picture based subtitle format used on BDs/HD-DVDs
  470. Duration                                 : 1 h 55 min
  471. Bit rate                                 : 20.4 kb/s
  472. Count of elements                        : 1638
  473. Stream size                              : 16.8 MiB (0%)
  474. Title                                    : Swedish-PGS
  475. Language                                 : Swedish
  476. Default                                  : No
  477. Forced                                   : No

  478. Text #29
  479. ID                                       : 33
  480. Format                                   : PGS
  481. Muxing mode                              : zlib
  482. Codec ID                                 : S_HDMV/PGS
  483. Codec ID/Info                            : Picture based subtitle format used on BDs/HD-DVDs
  484. Duration                                 : 1 h 55 min
  485. Bit rate                                 : 16.3 kb/s
  486. Count of elements                        : 2162
  487. Stream size                              : 13.4 MiB (0%)
  488. Title                                    : Thai-PGS
  489. Language                                 : Thai
  490. Default                                  : No
  491. Forced                                   : No

  492. Menu
  493. 00:00:00.000                             : en:Earth Under Man
  494. 00:04:16.006                             : en:Eve Of The War
  495. 00:08:18.248                             : en:Coming Of The Invaders
  496. 00:13:17.380                             : en:In The Storm
  497. 00:19:19.867                             : en:The Machine Emerges
  498. 00:25:29.319                             : en:Heat-Ray
  499. 00:29:45.242                             : en:Escape
  500. 00:34:32.570                             : en:How We Reached Home
  501. 00:38:47.033                             : en:At The Window
  502. 00:43:53.256                             : en:Human Toll
  503. 00:49:03.732                             : en:Worst Of Man
  504. 00:55:17.105                             : en:Exodus
  505. 00:59:21.016                             : en:Hudson Ferry
  506. 01:04:44.172                             : en:The Fighting Begins
  507. 01:10:37.233                             : en:Harlan Ogilvy
  508. 01:15:53.299                             : en:Disturbing Revelations
  509. 01:20:28.991                             : en:Stillness
  510. 01:24:48.000                             : en:Days Of Imprisonment
  511. 01:29:03.964                             : en:Alone With Harlan
  512. 01:33:59.884                             : en:Under Foot
  513. 01:36:59.605                             : en:Earth Under Them
  514. 01:41:07.561                             : en:In Boston
  515. 01:45:27.404                             : en:Wreckage
  516. 01:49:42.034                             : en:End Credits
复制代码

世界之战/世界大战 War.of.the.Worlds.2005.2160p.BluRay.x265.10bit.SDR.DTS-HD.MA.TrueHD.7.1.Atmos-SWTYBLZ 47.69GB-2.png 世界之战/世界大战 War.of.the.Worlds.2005.2160p.BluRay.x265.10bit.SDR.DTS-HD.MA.TrueHD.7.1.Atmos-SWTYBLZ 47.69GB-3.png 世界之战/世界大战 War.of.the.Worlds.2005.2160p.BluRay.x265.10bit.SDR.DTS-HD.MA.TrueHD.7.1.Atmos-SWTYBLZ 47.69GB-4.png 世界之战/世界大战 War.of.the.Worlds.2005.2160p.BluRay.x265.10bit.SDR.DTS-HD.MA.TrueHD.7.1.Atmos-SWTYBLZ 47.69GB-5.png 世界之战/世界大战 War.of.the.Worlds.2005.2160p.BluRay.x265.10bit.SDR.DTS-HD.MA.TrueHD.7.1.Atmos-SWTYBLZ 47.69GB-6.png 世界之战/世界大战 War.of.the.Worlds.2005.2160p.BluRay.x265.10bit.SDR.DTS-HD.MA.TrueHD.7.1.Atmos-SWTYBLZ 47.69GB-7.png






回复

使用道具 举报

发表于 2 小时前 | 显示全部楼层
好东西必须收藏
回复 支持 反对

使用道具 举报

懒得打字嘛,点击右侧快捷回复 【右侧内容,后台自定义】
您需要登录后才可以回帖 登录 | 立即加入

本版积分规则

现在加入蓝光电影网,注册一个账号
上个主题 下个主题 快速回复 收藏帖子 返回列表 客服中心 搜索

手机版|小黑屋| 蓝光电影网 |网站地图 

Copyright © 2015-2019 Comsenz Inc.  Template by 蓝光电影论坛 All Rights Reserved.

Powered by 蓝光电影网 X3.4

特别声明:本站所有资源均由网上收集而来,版权归原影音公司所有,如果侵犯了你的权益,请通知我们,我们会及时删除侵权内容.

快速回复 返回顶部 返回列表