找回密码

蓝光电影网

查看: 234|回复: 8

[REMUX.HEVC] 世界之战/世界大战 War.of.the.Worlds.2005.2160p.BluRay.REMUX.HEVC.DTS-HD.MA.TrueHD.7.1.Atmos-FGT 62.41GB

[复制链接]

 成长值: 26155

发表于 2020-5-20 22:20:33 | 显示全部楼层 |阅读模式
世界之战/世界大战 War.of.the.Worlds.2005.2160p.BluRay.REMUX.HEVC.DTS-HD.MA.TrueHD.7.1.Atmos-FGT 62.41GB-1.png

译  名 世界之战 / 世界大战 / 宇宙战争 / 强战世界 / 星际战争
片  名 War of the Worlds
年  代 2005
产  地 美国
类  别 科幻 / 惊悚 / 灾难
语  言 英语
上映日期 2005-06-29(美国) / 2005-08-25(中国大陆)
IMDb评分  6.5/10 from 404246 users
IMDb链接  https://www.imdb.com/title/tt0407304
豆瓣评分 6.6/10 from 67340 users
豆瓣链接 https://movie.douban.com/subject/1309044/
片  长 116分钟
导  演 史蒂文·斯皮尔伯格 Steven Spielberg
编  剧 乔什·弗莱德曼 Josh Friedman / 大卫·凯普 David Koepp / 赫伯特·乔治·威尔斯 H.G. Wells
主  演 汤姆·克鲁斯 Tom Cruise
       达科塔·范宁 Dakota Fanning
       米兰达·奥图 Miranda Otto
       贾斯汀·查特文 Justin Chatwin
       蒂姆·罗宾斯 Tim Robbins
       瑞克·冈萨雷斯 Rick Gonzalez
       尤尔·瓦斯克斯 Yul Vazquez
       莱尼·维尼托 Lenny Venito
       丽萨·安·沃尔特 Lisa Ann Walter
       安·鲁滨逊 Ann Robinson
       吉恩·巴瑞 Gene Barry
       大卫·阿伦·伯施理 David Alan Basche
       罗兹·亚布拉姆斯 Roz Abrams
       迈克尔·布朗李 Michael Brownlee
       卡米莉亚·莫内特 Camillia Monet
       艾米·莱安 Amy Ryan
       丹尼·霍奇 Danny Hoch


标  签 科幻 | 灾难 | 美国 | 斯皮尔伯格 | 汤姆·克鲁斯 | 美国电影 | TomCruise | StevenSpielberg

简  介  

  雷?费瑞尔(汤姆?克鲁斯 Tom Cruise 饰)和妻子离婚了,一儿一女都跟母亲生活——因为他的的贪玩懒散,疏忽责任,这个家庭才如此支离破碎。一场外星人入侵的灾难却让他们重新建立起亲密的的关系。
  这天妻子繁忙,只好把儿女交给雷照顾。电闪雷鸣天色灰暗,一切好像有些异样。 果然,马路上赫然一个庞大的三脚飞行器掘地而起,邪恶的火星人光顾了这个本来平静的小镇。人们四处逃亡,雷也带着女儿奔走逃命,开始了生死历险。当局想尽办法对付外星人,却屡屡失败,整个世界都陷入了恐慌当中。
  有了父爱的本能,平日吊儿郎当的父亲变得英勇顽强,保护儿女成了他支撑他的动力和信念。

获奖情况  

  第78届奥斯卡金像奖(2006)
  最佳视觉效果(提名) 巴勃罗·赫尔曼 / 丹尼斯·穆伦 / 兰迪·杜特拉 / 丹尼尔·萨迪克
  最佳混音(提名) 安迪·尼尔森 / 安娜·贝尔莫 / 朗·贾金斯
  最佳音效剪辑(提名) 理查德·金

  第15届MTV电影奖(2006)
  MTV电影奖 最佳惊恐戏表演(提名) 达科塔·范宁
  1. Video #1
  2. ID                                       : 1
  3. ID in the original source medium         : 4113 (0x1011)
  4. Format                                   : HEVC
  5. Format/Info                              : High Efficiency Video Coding
  6. Format profile                           : Main High@L4@High
  7. HDR format                               : SMPTE ST 2086, HDR10 compatible
  8. Codec ID                                 : V_MPEGH/ISO/HEVC
  9. Duration                                 : 1 h 56 min
  10. Bit rate                                 : 55.3 Mb/s
  11. Width                                    : 3 840 pixels
  12. Height                                   : 2 160 pixels
  13. Display aspect ratio                     : 16:9
  14. Frame rate mode                          : Constant
  15. Frame rate                               : 23.976 (24000/1001/189150) FPS
  16. Color space                              : YUV
  17. Chroma subsampling                       : 4:2:0 (Type 2)
  18. Bit depth                                : 10 bits
  19. Bits/(Pixel*Frame)                       : 0.278
  20. Stream size                              : 45.0 GiB (72%)
  21. Title                                    : War.of.the.Worlds.2005.2160p.BluRay.REMUX.HEVC.DTS-HD.MA.TrueHD.7.1.Atmos-FGT
  22. Language                                 : English
  23. Default                                  : Yes
  24. Forced                                   : No
  25. Color range                              : Limited
  26. Color primaries                          : BT.2020
  27. Transfer characteristics                 : PQ
  28. Matrix coefficients                      : BT.2020 non-constant
  29. Mastering display color primaries        : Display P3
  30. Mastering display luminance              : min: 0.0001 cd/m2, max: 1000 cd/m2
  31. Maximum Content Light Level              : 993 cd/m2
  32. Maximum Frame-Average Light Level        : 419 cd/m2
  33. Original source medium                   : Blu-ray

  34. Video #2
  35. ID                                       : 2
  36. ID in the original source medium         : 4117 (0x1015)
  37. Format                                   : HEVC
  38. Format/Info                              : High Efficiency Video Coding
  39. Format profile                           : Main High@L4@High
  40. HDR format                               : SMPTE ST 2086, HDR10 compatible
  41. Codec ID                                 : V_MPEGH/ISO/HEVC
  42. Duration                                 : 1 h 56 min
  43. Bit rate                                 : 4 270 kb/s
  44. Width                                    : 1 920 pixels
  45. Height                                   : 1 080 pixels
  46. Display aspect ratio                     : 16:9
  47. Frame rate mode                          : Constant
  48. Frame rate                               : 23.976 (24000/1001/189150) FPS
  49. Color space                              : YUV
  50. Chroma subsampling                       : 4:2:0 (Type 2)
  51. Bit depth                                : 10 bits
  52. Bits/(Pixel*Frame)                       : 0.086
  53. Stream size                              : 3.48 GiB (6%)
  54. Title                                    : War.of.the.Worlds.2005.2160p.BluRay.REMUX.HEVC.DTS-HD.MA.TrueHD.7.1.Atmos-FGT
  55. Language                                 : English
  56. Default                                  : No
  57. Forced                                   : No
  58. Color range                              : Limited
  59. Color primaries                          : BT.2020
  60. Transfer characteristics                 : PQ
  61. Matrix coefficients                      : BT.2020 non-constant
  62. Mastering display color primaries        : Display P3
  63. Mastering display luminance              : min: 0.0001 cd/m2, max: 1000 cd/m2
  64. Original source medium                   : Blu-ray

  65. Audio #1
  66. ID                                       : 3
  67. ID in the original source medium         : 4352 (0x1100)
  68. Format                                   : MLP FBA 16-ch
  69. Format/Info                              : Meridian Lossless Packing FBA with 16-channel presentation
  70. Commercial name                          : Dolby TrueHD with Dolby Atmos
  71. Codec ID                                 : A_TRUEHD
  72. Duration                                 : 1 h 56 min
  73. Bit rate mode                            : Variable
  74. Bit rate                                 : 4 432 kb/s
  75. Maximum bit rate                         : 6 816 kb/s
  76. Channel(s)                               : 8 channels
  77. Channel layout                           : L R C LFE Ls Rs Lb Rb
  78. Sampling rate                            : 48.0 kHz
  79. Frame rate                               : 1 200.000 FPS (40 SPF)
  80. Compression mode                         : Lossless
  81. Stream size                              : 3.61 GiB (6%)
  82. Title                                    : War.of.the.Worlds.2005.2160p.BluRay.REMUX.HEVC.DTS-HD.MA.TrueHD.7.1.Atmos-FGT
  83. Language                                 : English
  84. Default                                  : Yes
  85. Forced                                   : No
  86. Original source medium                   : Blu-ray
  87. Number of dynamic objects                : 11
  88. Bed channel count                        : 1 channel
  89. Bed channel configuration                : LFE

  90. Audio #2
  91. ID                                       : 4
  92. Format                                   : DTS XLL
  93. Format/Info                              : Digital Theater Systems
  94. Commercial name                          : DTS-HD Master Audio
  95. Codec ID                                 : A_DTS
  96. Duration                                 : 1 h 56 min
  97. Bit rate mode                            : Variable
  98. Bit rate                                 : 4 491 kb/s
  99. Channel(s)                               : 8 channels
  100. Channel layout                           : C L R LFE Lb Rb Lss Rss
  101. Sampling rate                            : 48.0 kHz
  102. Frame rate                               : 93.750 FPS (512 SPF)
  103. Bit depth                                : 24 bits
  104. Compression mode                         : Lossless
  105. Stream size                              : 3.66 GiB (6%)
  106. Title                                    : War.of.the.Worlds.2005.2160p.BluRay.REMUX.HEVC.DTS-HD.MA.TrueHD.7.1.Atmos-FGT
  107. Language                                 : English
  108. Default                                  : No
  109. Forced                                   : No

  110. Audio #3
  111. ID                                       : 5
  112. ID in the original source medium         : 4352 (0x1100)
  113. Format                                   : AC-3
  114. Format/Info                              : Audio Coding 3
  115. Commercial name                          : Dolby Digital
  116. Codec ID                                 : A_AC3
  117. Duration                                 : 1 h 56 min
  118. Bit rate mode                            : Constant
  119. Bit rate                                 : 640 kb/s
  120. Channel(s)                               : 6 channels
  121. Channel layout                           : L R C LFE Ls Rs
  122. Sampling rate                            : 48.0 kHz
  123. Frame rate                               : 31.250 FPS (1536 SPF)
  124. Bit depth                                : 16 bits
  125. Compression mode                         : Lossy
  126. Stream size                              : 533 MiB (1%)
  127. Title                                    : War.of.the.Worlds.2005.2160p.BluRay.REMUX.HEVC.DTS-HD.MA.TrueHD.7.1.Atmos-FGT
  128. Language                                 : English
  129. Service kind                             : Complete Main
  130. Default                                  : No
  131. Forced                                   : No
  132. Original source medium                   : Blu-ray

  133. Audio #4
  134. ID                                       : 6
  135. ID in the original source medium         : 4353 (0x1101)
  136. Format                                   : AC-3
  137. Format/Info                              : Audio Coding 3
  138. Commercial name                          : Dolby Digital
  139. Codec ID                                 : A_AC3
  140. Duration                                 : 1 h 56 min
  141. Bit rate mode                            : Constant
  142. Bit rate                                 : 640 kb/s
  143. Channel(s)                               : 6 channels
  144. Channel layout                           : L R C LFE Ls Rs
  145. Sampling rate                            : 48.0 kHz
  146. Frame rate                               : 31.250 FPS (1536 SPF)
  147. Bit depth                                : 16 bits
  148. Compression mode                         : Lossy
  149. Stream size                              : 533 MiB (1%)
  150. Title                                    : War.of.the.Worlds.2005.2160p.BluRay.REMUX.HEVC.DTS-HD.MA.TrueHD.7.1.Atmos-FGT
  151. Language                                 : Czech
  152. Service kind                             : Complete Main
  153. Default                                  : No
  154. Forced                                   : No
  155. Original source medium                   : Blu-ray

  156. Audio #5
  157. ID                                       : 7
  158. ID in the original source medium         : 4354 (0x1102)
  159. Format                                   : AC-3
  160. Format/Info                              : Audio Coding 3
  161. Commercial name                          : Dolby Digital
  162. Codec ID                                 : A_AC3
  163. Duration                                 : 1 h 56 min
  164. Bit rate mode                            : Constant
  165. Bit rate                                 : 640 kb/s
  166. Channel(s)                               : 6 channels
  167. Channel layout                           : L R C LFE Ls Rs
  168. Sampling rate                            : 48.0 kHz
  169. Frame rate                               : 31.250 FPS (1536 SPF)
  170. Bit depth                                : 16 bits
  171. Compression mode                         : Lossy
  172. Stream size                              : 533 MiB (1%)
  173. Title                                    : War.of.the.Worlds.2005.2160p.BluRay.REMUX.HEVC.DTS-HD.MA.TrueHD.7.1.Atmos-FGT
  174. Language                                 : German
  175. Service kind                             : Complete Main
  176. Default                                  : No
  177. Forced                                   : No
  178. Original source medium                   : Blu-ray

  179. Audio #6
  180. ID                                       : 8
  181. ID in the original source medium         : 4355 (0x1103)
  182. Format                                   : AC-3
  183. Format/Info                              : Audio Coding 3
  184. Commercial name                          : Dolby Digital
  185. Codec ID                                 : A_AC3
  186. Duration                                 : 1 h 56 min
  187. Bit rate mode                            : Constant
  188. Bit rate                                 : 640 kb/s
  189. Channel(s)                               : 6 channels
  190. Channel layout                           : L R C LFE Ls Rs
  191. Sampling rate                            : 48.0 kHz
  192. Frame rate                               : 31.250 FPS (1536 SPF)
  193. Bit depth                                : 16 bits
  194. Compression mode                         : Lossy
  195. Stream size                              : 533 MiB (1%)
  196. Title                                    : War.of.the.Worlds.2005.2160p.BluRay.REMUX.HEVC.DTS-HD.MA.TrueHD.7.1.Atmos-FGT
  197. Language                                 : Spanish
  198. Service kind                             : Complete Main
  199. Default                                  : No
  200. Forced                                   : No
  201. Original source medium                   : Blu-ray

  202. Audio #7
  203. ID                                       : 9
  204. ID in the original source medium         : 4356 (0x1104)
  205. Format                                   : AC-3
  206. Format/Info                              : Audio Coding 3
  207. Commercial name                          : Dolby Digital
  208. Codec ID                                 : A_AC3
  209. Duration                                 : 1 h 56 min
  210. Bit rate mode                            : Constant
  211. Bit rate                                 : 640 kb/s
  212. Channel(s)                               : 6 channels
  213. Channel layout                           : L R C LFE Ls Rs
  214. Sampling rate                            : 48.0 kHz
  215. Frame rate                               : 31.250 FPS (1536 SPF)
  216. Bit depth                                : 16 bits
  217. Compression mode                         : Lossy
  218. Stream size                              : 533 MiB (1%)
  219. Title                                    : War.of.the.Worlds.2005.2160p.BluRay.REMUX.HEVC.DTS-HD.MA.TrueHD.7.1.Atmos-FGT
  220. Language                                 : Spanish
  221. Service kind                             : Complete Main
  222. Default                                  : No
  223. Forced                                   : No
  224. Original source medium                   : Blu-ray

  225. Audio #8
  226. ID                                       : 10
  227. ID in the original source medium         : 4357 (0x1105)
  228. Format                                   : AC-3
  229. Format/Info                              : Audio Coding 3
  230. Commercial name                          : Dolby Digital
  231. Codec ID                                 : A_AC3
  232. Duration                                 : 1 h 56 min
  233. Bit rate mode                            : Constant
  234. Bit rate                                 : 640 kb/s
  235. Channel(s)                               : 6 channels
  236. Channel layout                           : L R C LFE Ls Rs
  237. Sampling rate                            : 48.0 kHz
  238. Frame rate                               : 31.250 FPS (1536 SPF)
  239. Bit depth                                : 16 bits
  240. Compression mode                         : Lossy
  241. Stream size                              : 533 MiB (1%)
  242. Title                                    : War.of.the.Worlds.2005.2160p.BluRay.REMUX.HEVC.DTS-HD.MA.TrueHD.7.1.Atmos-FGT
  243. Language                                 : French
  244. Service kind                             : Complete Main
  245. Default                                  : No
  246. Forced                                   : No
  247. Original source medium                   : Blu-ray

  248. Audio #9
  249. ID                                       : 11
  250. ID in the original source medium         : 4358 (0x1106)
  251. Format                                   : AC-3
  252. Format/Info                              : Audio Coding 3
  253. Commercial name                          : Dolby Digital
  254. Codec ID                                 : A_AC3
  255. Duration                                 : 1 h 56 min
  256. Bit rate mode                            : Constant
  257. Bit rate                                 : 640 kb/s
  258. Channel(s)                               : 6 channels
  259. Channel layout                           : L R C LFE Ls Rs
  260. Sampling rate                            : 48.0 kHz
  261. Frame rate                               : 31.250 FPS (1536 SPF)
  262. Bit depth                                : 16 bits
  263. Compression mode                         : Lossy
  264. Stream size                              : 533 MiB (1%)
  265. Title                                    : War.of.the.Worlds.2005.2160p.BluRay.REMUX.HEVC.DTS-HD.MA.TrueHD.7.1.Atmos-FGT
  266. Language                                 : Italian
  267. Service kind                             : Complete Main
  268. Default                                  : No
  269. Forced                                   : No
  270. Original source medium                   : Blu-ray

  271. Audio #10
  272. ID                                       : 12
  273. ID in the original source medium         : 4359 (0x1107)
  274. Format                                   : AC-3
  275. Format/Info                              : Audio Coding 3
  276. Commercial name                          : Dolby Digital
  277. Codec ID                                 : A_AC3
  278. Duration                                 : 1 h 56 min
  279. Bit rate mode                            : Constant
  280. Bit rate                                 : 640 kb/s
  281. Channel(s)                               : 6 channels
  282. Channel layout                           : L R C LFE Ls Rs
  283. Sampling rate                            : 48.0 kHz
  284. Frame rate                               : 31.250 FPS (1536 SPF)
  285. Bit depth                                : 16 bits
  286. Compression mode                         : Lossy
  287. Stream size                              : 533 MiB (1%)
  288. Title                                    : War.of.the.Worlds.2005.2160p.BluRay.REMUX.HEVC.DTS-HD.MA.TrueHD.7.1.Atmos-FGT
  289. Language                                 : Japanese
  290. Service kind                             : Complete Main
  291. Default                                  : No
  292. Forced                                   : No
  293. Original source medium                   : Blu-ray

  294. Audio #11
  295. ID                                       : 13
  296. ID in the original source medium         : 4360 (0x1108)
  297. Format                                   : AC-3
  298. Format/Info                              : Audio Coding 3
  299. Commercial name                          : Dolby Digital
  300. Codec ID                                 : A_AC3
  301. Duration                                 : 1 h 56 min
  302. Bit rate mode                            : Constant
  303. Bit rate                                 : 640 kb/s
  304. Channel(s)                               : 6 channels
  305. Channel layout                           : L R C LFE Ls Rs
  306. Sampling rate                            : 48.0 kHz
  307. Frame rate                               : 31.250 FPS (1536 SPF)
  308. Bit depth                                : 16 bits
  309. Compression mode                         : Lossy
  310. Stream size                              : 533 MiB (1%)
  311. Title                                    : War.of.the.Worlds.2005.2160p.BluRay.REMUX.HEVC.DTS-HD.MA.TrueHD.7.1.Atmos-FGT
  312. Language                                 : Hungarian
  313. Service kind                             : Complete Main
  314. Default                                  : No
  315. Forced                                   : No
  316. Original source medium                   : Blu-ray

  317. Audio #12
  318. ID                                       : 14
  319. ID in the original source medium         : 4361 (0x1109)
  320. Format                                   : AC-3
  321. Format/Info                              : Audio Coding 3
  322. Commercial name                          : Dolby Digital
  323. Codec ID                                 : A_AC3
  324. Duration                                 : 1 h 56 min
  325. Bit rate mode                            : Constant
  326. Bit rate                                 : 224 kb/s
  327. Channel(s)                               : 2 channels
  328. Channel layout                           : L R
  329. Sampling rate                            : 48.0 kHz
  330. Frame rate                               : 31.250 FPS (1536 SPF)
  331. Bit depth                                : 16 bits
  332. Compression mode                         : Lossy
  333. Stream size                              : 187 MiB (0%)
  334. Title                                    : War.of.the.Worlds.2005.2160p.BluRay.REMUX.HEVC.DTS-HD.MA.TrueHD.7.1.Atmos-FGT
  335. Language                                 : Polish
  336. Service kind                             : Complete Main
  337. Default                                  : No
  338. Forced                                   : No
  339. Original source medium                   : Blu-ray

  340. Audio #13
  341. ID                                       : 15
  342. ID in the original source medium         : 4362 (0x110A)
  343. Format                                   : AC-3
  344. Format/Info                              : Audio Coding 3
  345. Commercial name                          : Dolby Digital
  346. Codec ID                                 : A_AC3
  347. Duration                                 : 1 h 56 min
  348. Bit rate mode                            : Constant
  349. Bit rate                                 : 640 kb/s
  350. Channel(s)                               : 6 channels
  351. Channel layout                           : L R C LFE Ls Rs
  352. Sampling rate                            : 48.0 kHz
  353. Frame rate                               : 31.250 FPS (1536 SPF)
  354. Bit depth                                : 16 bits
  355. Compression mode                         : Lossy
  356. Stream size                              : 533 MiB (1%)
  357. Title                                    : War.of.the.Worlds.2005.2160p.BluRay.REMUX.HEVC.DTS-HD.MA.TrueHD.7.1.Atmos-FGT
  358. Language                                 : Portuguese
  359. Service kind                             : Complete Main
  360. Default                                  : No
  361. Forced                                   : No
  362. Original source medium                   : Blu-ray

  363. Audio #14
  364. ID                                       : 16
  365. ID in the original source medium         : 4363 (0x110B)
  366. Format                                   : AC-3
  367. Format/Info                              : Audio Coding 3
  368. Commercial name                          : Dolby Digital
  369. Codec ID                                 : A_AC3
  370. Duration                                 : 1 h 56 min
  371. Bit rate mode                            : Constant
  372. Bit rate                                 : 640 kb/s
  373. Channel(s)                               : 6 channels
  374. Channel layout                           : L R C LFE Ls Rs
  375. Sampling rate                            : 48.0 kHz
  376. Frame rate                               : 31.250 FPS (1536 SPF)
  377. Bit depth                                : 16 bits
  378. Compression mode                         : Lossy
  379. Stream size                              : 533 MiB (1%)
  380. Title                                    : War.of.the.Worlds.2005.2160p.BluRay.REMUX.HEVC.DTS-HD.MA.TrueHD.7.1.Atmos-FGT
  381. Language                                 : Russian
  382. Service kind                             : Complete Main
  383. Default                                  : No
  384. Forced                                   : No
  385. Original source medium                   : Blu-ray

  386. Audio #15
  387. ID                                       : 17
  388. ID in the original source medium         : 4364 (0x110C)
  389. Format                                   : AC-3
  390. Format/Info                              : Audio Coding 3
  391. Commercial name                          : Dolby Digital
  392. Codec ID                                 : A_AC3
  393. Duration                                 : 1 h 56 min
  394. Bit rate mode                            : Constant
  395. Bit rate                                 : 640 kb/s
  396. Channel(s)                               : 6 channels
  397. Channel layout                           : L R C LFE Ls Rs
  398. Sampling rate                            : 48.0 kHz
  399. Frame rate                               : 31.250 FPS (1536 SPF)
  400. Bit depth                                : 16 bits
  401. Compression mode                         : Lossy
  402. Stream size                              : 533 MiB (1%)
  403. Title                                    : War.of.the.Worlds.2005.2160p.BluRay.REMUX.HEVC.DTS-HD.MA.TrueHD.7.1.Atmos-FGT
  404. Language                                 : Thai
  405. Service kind                             : Complete Main
  406. Default                                  : No
  407. Forced                                   : No
  408. Original source medium                   : Blu-ray

  409. Text #1
  410. ID                                       : 18
  411. Format                                   : UTF-8
  412. Codec ID                                 : S_TEXT/UTF8
  413. Codec ID/Info                            : UTF-8 Plain Text
  414. Duration                                 : 1 h 48 min
  415. Bit rate                                 : 46 b/s
  416. Count of elements                        : 1117
  417. Stream size                              : 37.1 KiB (0%)
  418. Title                                    : English-SRT
  419. Language                                 : English
  420. Default                                  : Yes
  421. Forced                                   : No

  422. Text #2
  423. ID                                       : 19
  424. ID in the original source medium         : 4768 (0x12A0)
  425. Format                                   : PGS
  426. Muxing mode                              : zlib
  427. Codec ID                                 : S_HDMV/PGS
  428. Codec ID/Info                            : Picture based subtitle format used on BDs/HD-DVDs
  429. Duration                                 : 1 h 48 min
  430. Bit rate                                 : 29.4 kb/s
  431. Count of elements                        : 2238
  432. Stream size                              : 22.8 MiB (0%)
  433. Title                                    : English-PGS
  434. Language                                 : English
  435. Default                                  : No
  436. Forced                                   : No
  437. Original source medium                   : Blu-ray

  438. Text #3
  439. ID                                       : 20
  440. ID in the original source medium         : 4769 (0x12A1)
  441. Format                                   : PGS
  442. Muxing mode                              : zlib
  443. Codec ID                                 : S_HDMV/PGS
  444. Codec ID/Info                            : Picture based subtitle format used on BDs/HD-DVDs
  445. Duration                                 : 1 h 48 min
  446. Bit rate                                 : 32.2 kb/s
  447. Count of elements                        : 2448
  448. Stream size                              : 24.9 MiB (0%)
  449. Title                                    : English-SDH-PGS
  450. Language                                 : English
  451. Default                                  : No
  452. Forced                                   : No
  453. Original source medium                   : Blu-ray

  454. Text #4
  455. ID                                       : 21
  456. ID in the original source medium         : 4770 (0x12A2)
  457. Format                                   : PGS
  458. Muxing mode                              : zlib
  459. Codec ID                                 : S_HDMV/PGS
  460. Codec ID/Info                            : Picture based subtitle format used on BDs/HD-DVDs
  461. Duration                                 : 1 h 55 min
  462. Bit rate                                 : 17.6 kb/s
  463. Count of elements                        : 2250
  464. Stream size                              : 14.5 MiB (0%)
  465. Title                                    : Chinese-PGS
  466. Language                                 : Chinese
  467. Default                                  : No
  468. Forced                                   : No
  469. Original source medium                   : Blu-ray

  470. Text #5
  471. ID                                       : 22
  472. ID in the original source medium         : 4771 (0x12A3)
  473. Format                                   : PGS
  474. Muxing mode                              : zlib
  475. Codec ID                                 : S_HDMV/PGS
  476. Codec ID/Info                            : Picture based subtitle format used on BDs/HD-DVDs
  477. Duration                                 : 1 h 55 min
  478. Bit rate                                 : 22.3 kb/s
  479. Count of elements                        : 2134
  480. Stream size                              : 18.3 MiB (0%)
  481. Title                                    : Czech-PGS
  482. Language                                 : Czech
  483. Default                                  : No
  484. Forced                                   : No
  485. Original source medium                   : Blu-ray

  486. Text #6
  487. ID                                       : 23
  488. ID in the original source medium         : 4772 (0x12A4)
  489. Format                                   : PGS
  490. Muxing mode                              : zlib
  491. Codec ID                                 : S_HDMV/PGS
  492. Codec ID/Info                            : Picture based subtitle format used on BDs/HD-DVDs
  493. Duration                                 : 1 h 55 min
  494. Bit rate                                 : 19.1 kb/s
  495. Count of elements                        : 1476
  496. Stream size                              : 15.7 MiB (0%)
  497. Title                                    : Danish-PGS
  498. Language                                 : Danish
  499. Default                                  : No
  500. Forced                                   : No
  501. Original source medium                   : Blu-ray

  502. Text #7
  503. ID                                       : 24
  504. ID in the original source medium         : 4773 (0x12A5)
  505. Format                                   : PGS
  506. Muxing mode                              : zlib
  507. Codec ID                                 : S_HDMV/PGS
  508. Codec ID/Info                            : Picture based subtitle format used on BDs/HD-DVDs
  509. Duration                                 : 1 h 55 min
  510. Bit rate                                 : 26.7 kb/s
  511. Count of elements                        : 2258
  512. Stream size                              : 22.0 MiB (0%)
  513. Title                                    : German-PGS
  514. Language                                 : German
  515. Default                                  : No
  516. Forced                                   : No
  517. Original source medium                   : Blu-ray

  518. Text #8
  519. ID                                       : 25
  520. ID in the original source medium         : 4774 (0x12A6)
  521. Format                                   : PGS
  522. Muxing mode                              : zlib
  523. Codec ID                                 : S_HDMV/PGS
  524. Codec ID/Info                            : Picture based subtitle format used on BDs/HD-DVDs
  525. Duration                                 : 1 h 55 min
  526. Bit rate                                 : 26.7 kb/s
  527. Count of elements                        : 2032
  528. Stream size                              : 21.9 MiB (0%)
  529. Title                                    : Greek-PGS
  530. Language                                 : Greek
  531. Default                                  : No
  532. Forced                                   : No
  533. Original source medium                   : Blu-ray

  534. Text #9
  535. ID                                       : 26
  536. ID in the original source medium         : 4775 (0x12A7)
  537. Format                                   : PGS
  538. Muxing mode                              : zlib
  539. Codec ID                                 : S_HDMV/PGS
  540. Codec ID/Info                            : Picture based subtitle format used on BDs/HD-DVDs
  541. Duration                                 : 1 h 55 min
  542. Bit rate                                 : 24.2 kb/s
  543. Count of elements                        : 2250
  544. Stream size                              : 19.9 MiB (0%)
  545. Title                                    : Spanish-PGS
  546. Language                                 : Spanish
  547. Default                                  : No
  548. Forced                                   : No
  549. Original source medium                   : Blu-ray

  550. Text #10
  551. ID                                       : 27
  552. ID in the original source medium         : 4776 (0x12A8)
  553. Format                                   : PGS
  554. Muxing mode                              : zlib
  555. Codec ID                                 : S_HDMV/PGS
  556. Codec ID/Info                            : Picture based subtitle format used on BDs/HD-DVDs
  557. Duration                                 : 1 h 49 min
  558. Bit rate                                 : 24.4 kb/s
  559. Count of elements                        : 2144
  560. Stream size                              : 19.0 MiB (0%)
  561. Title                                    : Spanish-PGS
  562. Language                                 : Spanish
  563. Default                                  : No
  564. Forced                                   : No
  565. Original source medium                   : Blu-ray

  566. Text #11
  567. ID                                       : 28
  568. ID in the original source medium         : 4777 (0x12A9)
  569. Format                                   : PGS
  570. Muxing mode                              : zlib
  571. Codec ID                                 : S_HDMV/PGS
  572. Codec ID/Info                            : Picture based subtitle format used on BDs/HD-DVDs
  573. Duration                                 : 1 h 48 min
  574. Bit rate                                 : 18.8 kb/s
  575. Count of elements                        : 1690
  576. Stream size                              : 14.6 MiB (0%)
  577. Title                                    : French-PGS
  578. Language                                 : French
  579. Default                                  : No
  580. Forced                                   : No
  581. Original source medium                   : Blu-ray

  582. Text #12
  583. ID                                       : 29
  584. ID in the original source medium         : 4778 (0x12AA)
  585. Format                                   : PGS
  586. Muxing mode                              : zlib
  587. Codec ID                                 : S_HDMV/PGS
  588. Codec ID/Info                            : Picture based subtitle format used on BDs/HD-DVDs
  589. Duration                                 : 1 h 55 min
  590. Bit rate                                 : 25.7 kb/s
  591. Count of elements                        : 2206
  592. Stream size                              : 21.1 MiB (0%)
  593. Title                                    : Italian-PGS
  594. Language                                 : Italian
  595. Default                                  : No
  596. Forced                                   : No
  597. Original source medium                   : Blu-ray

  598. Text #13
  599. ID                                       : 30
  600. ID in the original source medium         : 4779 (0x12AB)
  601. Format                                   : PGS
  602. Muxing mode                              : zlib
  603. Codec ID                                 : S_HDMV/PGS
  604. Codec ID/Info                            : Picture based subtitle format used on BDs/HD-DVDs
  605. Duration                                 : 1 h 48 min
  606. Bit rate                                 : 16.3 kb/s
  607. Count of elements                        : 1740
  608. Stream size                              : 12.6 MiB (0%)
  609. Title                                    : Japanese-PGS
  610. Language                                 : Japanese
  611. Default                                  : No
  612. Forced                                   : No
  613. Original source medium                   : Blu-ray

  614. Text #14
  615. ID                                       : 31
  616. ID in the original source medium         : 4780 (0x12AC)
  617. Format                                   : PGS
  618. Muxing mode                              : zlib
  619. Codec ID                                 : S_HDMV/PGS
  620. Codec ID/Info                            : Picture based subtitle format used on BDs/HD-DVDs
  621. Duration                                 : 1 h 55 min
  622. Bit rate                                 : 11.3 kb/s
  623. Count of elements                        : 2100
  624. Stream size                              : 9.27 MiB (0%)
  625. Title                                    : Korean-PGS
  626. Language                                 : Korean
  627. Default                                  : No
  628. Forced                                   : No
  629. Original source medium                   : Blu-ray

  630. Text #15
  631. ID                                       : 32
  632. ID in the original source medium         : 4781 (0x12AD)
  633. Format                                   : PGS
  634. Muxing mode                              : zlib
  635. Codec ID                                 : S_HDMV/PGS
  636. Codec ID/Info                            : Picture based subtitle format used on BDs/HD-DVDs
  637. Duration                                 : 1 h 55 min
  638. Bit rate                                 : 26.5 kb/s
  639. Count of elements                        : 2204
  640. Stream size                              : 21.8 MiB (0%)
  641. Title                                    : Hungarian-PGS
  642. Language                                 : Hungarian
  643. Default                                  : No
  644. Forced                                   : No
  645. Original source medium                   : Blu-ray

  646. Text #16
  647. ID                                       : 33
  648. ID in the original source medium         : 4782 (0x12AE)
  649. Format                                   : PGS
  650. Muxing mode                              : zlib
  651. Codec ID                                 : S_HDMV/PGS
  652. Codec ID/Info                            : Picture based subtitle format used on BDs/HD-DVDs
  653. Duration                                 : 1 h 55 min
  654. Bit rate                                 : 18.8 kb/s
  655. Count of elements                        : 2246
  656. Stream size                              : 15.4 MiB (0%)
  657. Title                                    : Chinese-PGS
  658. Language                                 : Chinese
  659. Default                                  : No
  660. Forced                                   : No
  661. Original source medium                   : Blu-ray

  662. Text #17
  663. ID                                       : 34
  664. ID in the original source medium         : 4783 (0x12AF)
  665. Format                                   : PGS
  666. Muxing mode                              : zlib
  667. Codec ID                                 : S_HDMV/PGS
  668. Codec ID/Info                            : Picture based subtitle format used on BDs/HD-DVDs
  669. Duration                                 : 1 h 55 min
  670. Bit rate                                 : 15.9 kb/s
  671. Count of elements                        : 1444
  672. Stream size                              : 13.1 MiB (0%)
  673. Title                                    : Dutch-PGS
  674. Language                                 : Dutch
  675. Default                                  : No
  676. Forced                                   : No
  677. Original source medium                   : Blu-ray

  678. Text #18
  679. ID                                       : 35
  680. ID in the original source medium         : 4784 (0x12B0)
  681. Format                                   : PGS
  682. Muxing mode                              : zlib
  683. Codec ID                                 : S_HDMV/PGS
  684. Codec ID/Info                            : Picture based subtitle format used on BDs/HD-DVDs
  685. Duration                                 : 1 h 55 min
  686. Bit rate                                 : 17.3 kb/s
  687. Count of elements                        : 1786
  688. Stream size                              : 14.3 MiB (0%)
  689. Title                                    : Norwegian-PGS
  690. Language                                 : Norwegian
  691. Default                                  : No
  692. Forced                                   : No
  693. Original source medium                   : Blu-ray

  694. Text #19
  695. ID                                       : 36
  696. ID in the original source medium         : 4785 (0x12B1)
  697. Format                                   : PGS
  698. Muxing mode                              : zlib
  699. Codec ID                                 : S_HDMV/PGS
  700. Codec ID/Info                            : Picture based subtitle format used on BDs/HD-DVDs
  701. Duration                                 : 1 h 55 min
  702. Bit rate                                 : 23.7 kb/s
  703. Count of elements                        : 2190
  704. Stream size                              : 19.5 MiB (0%)
  705. Title                                    : Polish-PGS
  706. Language                                 : Polish
  707. Default                                  : No
  708. Forced                                   : No
  709. Original source medium                   : Blu-ray

  710. Text #20
  711. ID                                       : 37
  712. ID in the original source medium         : 4786 (0x12B2)
  713. Format                                   : PGS
  714. Muxing mode                              : zlib
  715. Codec ID                                 : S_HDMV/PGS
  716. Codec ID/Info                            : Picture based subtitle format used on BDs/HD-DVDs
  717. Duration                                 : 1 h 49 min
  718. Bit rate                                 : 22.7 kb/s
  719. Count of elements                        : 2026
  720. Stream size                              : 17.7 MiB (0%)
  721. Title                                    : Portuguese-PGS
  722. Language                                 : Portuguese
  723. Default                                  : No
  724. Forced                                   : No
  725. Original source medium                   : Blu-ray

  726. Text #21
  727. ID                                       : 38
  728. ID in the original source medium         : 4787 (0x12B3)
  729. Format                                   : PGS
  730. Muxing mode                              : zlib
  731. Codec ID                                 : S_HDMV/PGS
  732. Codec ID/Info                            : Picture based subtitle format used on BDs/HD-DVDs
  733. Duration                                 : 1 h 55 min
  734. Bit rate                                 : 28.4 kb/s
  735. Count of elements                        : 2218
  736. Stream size                              : 23.4 MiB (0%)
  737. Title                                    : Russian-PGS
  738. Language                                 : Russian
  739. Default                                  : No
  740. Forced                                   : No
  741. Original source medium                   : Blu-ray

  742. Text #22
  743. ID                                       : 39
  744. ID in the original source medium         : 4788 (0x12B4)
  745. Format                                   : PGS
  746. Muxing mode                              : zlib
  747. Codec ID                                 : S_HDMV/PGS
  748. Codec ID/Info                            : Picture based subtitle format used on BDs/HD-DVDs
  749. Duration                                 : 1 h 55 min
  750. Bit rate                                 : 25.0 kb/s
  751. Count of elements                        : 2212
  752. Stream size                              : 20.6 MiB (0%)
  753. Title                                    : Romanian-PGS
  754. Language                                 : Romanian
  755. Default                                  : No
  756. Forced                                   : No
  757. Original source medium                   : Blu-ray

  758. Text #23
  759. ID                                       : 40
  760. ID in the original source medium         : 4789 (0x12B5)
  761. Format                                   : PGS
  762. Muxing mode                              : zlib
  763. Codec ID                                 : S_HDMV/PGS
  764. Codec ID/Info                            : Picture based subtitle format used on BDs/HD-DVDs
  765. Duration                                 : 1 h 55 min
  766. Bit rate                                 : 22.0 kb/s
  767. Count of elements                        : 2208
  768. Stream size                              : 18.1 MiB (0%)
  769. Title                                    : Chinese-PGS
  770. Language                                 : Chinese
  771. Default                                  : No
  772. Forced                                   : No
  773. Original source medium                   : Blu-ray

  774. Text #24
  775. ID                                       : 41
  776. ID in the original source medium         : 4790 (0x12B6)
  777. Format                                   : PGS
  778. Muxing mode                              : zlib
  779. Codec ID                                 : S_HDMV/PGS
  780. Codec ID/Info                            : Picture based subtitle format used on BDs/HD-DVDs
  781. Duration                                 : 1 h 55 min
  782. Bit rate                                 : 20.0 kb/s
  783. Count of elements                        : 1756
  784. Stream size                              : 16.5 MiB (0%)
  785. Title                                    : Finnish-PGS
  786. Language                                 : Finnish
  787. Default                                  : No
  788. Forced                                   : No
  789. Original source medium                   : Blu-ray

  790. Text #25
  791. ID                                       : 42
  792. ID in the original source medium         : 4791 (0x12B7)
  793. Format                                   : PGS
  794. Muxing mode                              : zlib
  795. Codec ID                                 : S_HDMV/PGS
  796. Codec ID/Info                            : Picture based subtitle format used on BDs/HD-DVDs
  797. Duration                                 : 1 h 55 min
  798. Bit rate                                 : 20.4 kb/s
  799. Count of elements                        : 1638
  800. Stream size                              : 16.8 MiB (0%)
  801. Title                                    : Swedish-PGS
  802. Language                                 : Swedish
  803. Default                                  : No
  804. Forced                                   : No
  805. Original source medium                   : Blu-ray

  806. Text #26
  807. ID                                       : 43
  808. ID in the original source medium         : 4792 (0x12B8)
  809. Format                                   : PGS
  810. Muxing mode                              : zlib
  811. Codec ID                                 : S_HDMV/PGS
  812. Codec ID/Info                            : Picture based subtitle format used on BDs/HD-DVDs
  813. Duration                                 : 1 h 55 min
  814. Bit rate                                 : 16.3 kb/s
  815. Count of elements                        : 2162
  816. Stream size                              : 13.4 MiB (0%)
  817. Title                                    : Thai-PGS
  818. Language                                 : Thai
  819. Default                                  : No
  820. Forced                                   : No
  821. Original source medium                   : Blu-ray

  822. Menu
  823. 00:00:00.000                             : en:Chapter 01
  824. 00:04:16.005                             : en:Chapter 02
  825. 00:08:18.247                             : en:Chapter 03
  826. 00:13:17.379                             : en:Chapter 04
  827. 00:19:19.741                             : en:Chapter 05
  828. 00:25:29.277                             : en:Chapter 06
  829. 00:29:44.949                             : en:Chapter 07
  830. 00:34:32.570                             : en:Chapter 08
  831. 00:38:47.033                             : en:Chapter 09
  832. 00:43:53.255                             : en:Chapter 10
  833. 00:49:03.649                             : en:Chapter 11
  834. 00:55:17.022                             : en:Chapter 12
  835. 00:59:21.015                             : en:Chapter 13
  836. 01:04:44.171                             : en:Chapter 14
  837. 01:10:37.233                             : en:Chapter 15
  838. 01:15:53.048                             : en:Chapter 16
  839. 01:20:28.990                             : en:Chapter 17
  840. 01:24:47.791                             : en:Chapter 18
  841. 01:29:03.963                             : en:Chapter 19
  842. 01:33:59.884                             : en:Chapter 20
  843. 01:36:59.605                             : en:Chapter 21
  844. 01:41:07.186                             : en:Chapter 22
  845. 01:45:27.404                             : en:Chapter 23
  846. 01:49:42.242                             : en:Chapter 24
复制代码

世界之战/世界大战 War.of.the.Worlds.2005.2160p.BluRay.REMUX.HEVC.DTS-HD.MA.TrueHD.7.1.Atmos-FGT 62.41GB-2.png 世界之战/世界大战 War.of.the.Worlds.2005.2160p.BluRay.REMUX.HEVC.DTS-HD.MA.TrueHD.7.1.Atmos-FGT 62.41GB-3.png 世界之战/世界大战 War.of.the.Worlds.2005.2160p.BluRay.REMUX.HEVC.DTS-HD.MA.TrueHD.7.1.Atmos-FGT 62.41GB-4.png






回复

使用道具 举报

发表于 2020-5-21 01:01:21 | 显示全部楼层
楼主发贴辛苦了,谢谢楼主分享!我觉得蓝光电影网是注册对了!
回复 支持 反对

使用道具 举报

发表于 2020-5-21 08:30:45 | 显示全部楼层
楼主发贴辛苦了,谢谢楼主分享!我觉得蓝光电影网是注册对了!
回复 支持 反对

使用道具 举报

 成长值: 2970

发表于 2020-5-21 10:39:27 | 显示全部楼层
谢谢楼主无私分享。
回复 支持 反对

使用道具 举报

发表于 2020-5-21 10:48:45 | 显示全部楼层
楼主发贴辛苦了,谢谢楼主分享!我觉得蓝光电影网是注册对了!
回复 支持 反对

使用道具 举报

 成长值: 160

发表于 2020-5-23 13:47:22 | 显示全部楼层
谢谢楼主的分享!!!
回复 支持 反对

使用道具 举报

发表于 2020-5-23 22:42:58 | 显示全部楼层

我看不错噢 谢谢楼主!蓝光电影网越来越好!
回复 支持 反对

使用道具 举报

发表于 2020-5-23 23:15:14 | 显示全部楼层
楼主发贴辛苦了,谢谢楼主分享!我觉得蓝光电影网是注册对了!
回复 支持 反对

使用道具 举报

发表于 6 天前 | 显示全部楼层

这东西我收了!谢谢楼主!蓝光电影网真好!
回复 支持 反对

使用道具 举报

懒得打字嘛,点击右侧快捷回复 【右侧内容,后台自定义】
您需要登录后才可以回帖 登录 | 立即加入

本版积分规则

现在加入蓝光电影网,注册一个账号
上个主题 下个主题 快速回复 收藏帖子 返回列表 客服中心 搜索

手机版|小黑屋| 蓝光电影网 |网站地图 

Copyright © 2015-2019 Comsenz Inc.  Template by 蓝光电影论坛 All Rights Reserved.

Powered by 蓝光电影网 X3.4

特别声明:本站所有资源均由网上收集而来,版权归原影音公司所有,如果侵犯了你的权益,请通知我们,我们会及时删除侵权内容.

快速回复 返回顶部 返回列表