找回密码

蓝光电影网

查看: 615|回复: 24

[8bit.SDR] 1/2的魔法 Onward.2020.2160p.BluRay.x264.8bit.SDR.DTS-HD.MA.TrueHD.7.1.Atmos-SWTYBLZ 25.19GB

[复制链接]

 成长值: 26125

发表于 2020-5-17 22:15:10 | 显示全部楼层 |阅读模式
1/2的魔法 Onward.2020.2160p.BluRay.x264.8bit.SDR.DTS-HD.MA.TrueHD.7.1.Atmos-SWTYBLZ 25.19GB-1.png

译  名 1 / 2的魔法 / ?的魔法 / 二分之一的魔法 / 勇往直前 / 向前 / 觅法奇程 / 魔法环游记
片  名 Onward
年  代 2020
产  地 美国
类  别 喜剧 / 动画 / 奇幻 / 冒险
语  言 英语
上映日期 2020-02-21(柏林电影节) / 2020-03-06(美国)
IMDb评分  7.5/10 from 52609 users
IMDb链接  https://www.imdb.com/title/tt7146812
豆瓣评分 7.9/10 from 22403 users
豆瓣链接 https://movie.douban.com/subject/30401849/
片  长 102分钟
导  演 丹·斯坎隆 Dan Scanlon
编  剧 丹·斯坎隆 Dan Scanlon / 基思·布宁 Keith Bunin
主  演 汤姆·赫兰德 Tom Holland
       克里斯·帕拉特 Chris Pratt
       茱莉亚·路易斯-德瑞弗斯 Julia Louis-Dreyfus
       奥克塔维亚·斯宾瑟 Octavia Spencer
       梅尔·罗德里格斯 Mel Rodriguez
       凯尔·柏海莫 Kyle Bornheimer
       丽娜·维特 Lena Waithe
       黄阿丽 Ali Wong
       格蕾·德丽斯勒 Grey DeLisle
       崔茜·尤玛 Tracey Ullman
       维尔摩·瓦尔德拉玛 Wilmer Valderrama
       乔治·普萨拉 George Psarras
       约翰·拉岑贝格 John Ratzenberger


标  签 动画 | 皮克斯 | 迪士尼 | 美国 | 魔法 | 奇幻 | 2020 | 魔幻

简  介  

  影片设定在一个由精灵、巨魔和灵魂等组成的郊外幻想世界,在那里独角兽在垃圾桶中穿行,像是有着糖果条纹的负鼠。影片提供了一个前提,即魔法是真实的,但它早已被现代技术所遗忘和取代。一对十几岁的兄弟,在他们尚不更事时父亲便已离世,他们决定进入这个幻想世界,与父亲共度最后一个神奇的日子。霍兰德配音弟弟伊安、帕拉特配音聒噪的哥哥、德瑞弗斯配音兄弟二人的母亲、斯宾瑟则会利用其声线的优势。
  1. Video
  2. ID                                       : 1
  3. Format                                   : AVC
  4. Format/Info                              : Advanced Video Codec
  5. Format profile                           : High@L4
  6. Format settings                          : CABAC / 7 Ref Frames
  7. Format settings, CABAC                   : Yes
  8. Format settings, Reference frames        : 7 frames
  9. Codec ID                                 : V_MPEG4/ISO/AVC
  10. Duration                                 : 1 h 42 min
  11. Bit rate                                 : 22.6 Mb/s
  12. Width                                    : 3 840 pixels
  13. Height                                   : 1 608 pixels
  14. Display aspect ratio                     : 2.40:1
  15. Frame rate mode                          : Constant
  16. Frame rate                               : 23.976 (24000/1001/189150) FPS
  17. Color space                              : YUV
  18. Chroma subsampling                       : 4:2:0
  19. Bit depth                                : 8 bits
  20. Scan type                                : Progressive
  21. Bits/(Pixel*Frame)                       : 0.153
  22. Stream size                              : 16.2 GiB (64%)
  23. Title                                    : Onward.2020.2160p.BluRay.x264.8bit.SDR.DTS-HD.MA.TrueHD.7.1.Atmos-SWTYBLZ
  24. Writing library                          : x264 core 157 r2935 545de2f
  25. Encoding settings                        : cabac=1 / ref=7 / deblock=1:1:1 / analyse=0x3:0x113 / me=umh / subme=10 / psy=1 / psy_rd=0.40:0.00 / mixed_ref=1 / me_range=48 / chroma_me=1 / trellis=2 / 8x8dct=1 / cqm=0 / deadzone=21,11 / fast_pskip=1 / chroma_qp_offset=-2 / threads=48 / lookahead_threads=5 / sliced_threads=0 / nr=0 / decimate=0 / interlaced=0 / bluray_compat=0 / constrained_intra=0 / bframes=5 / b_pyramid=2 / b_adapt=2 / b_bias=0 / direct=3 / weightb=1 / open_gop=0 / weightp=2 / keyint=250 / keyint_min=23 / scenecut=40 / intra_refresh=0 / rc_lookahead=50 / rc=crf / mbtree=1 / crf=16.0 / qcomp=0.60 / qpmin=0 / qpmax=69 / qpstep=4 / ip_ratio=1.40 / aq=1:0.60
  26. Default                                  : Yes
  27. Forced                                   : No

  28. Audio #1
  29. ID                                       : 2
  30. Format                                   : MLP FBA 16-ch
  31. Format/Info                              : Meridian Lossless Packing FBA with 16-channel presentation
  32. Commercial name                          : Dolby TrueHD with Dolby Atmos
  33. Codec ID                                 : A_TRUEHD
  34. Duration                                 : 1 h 42 min
  35. Bit rate mode                            : Variable
  36. Bit rate                                 : 7 021 kb/s
  37. Maximum bit rate                         : 10.9 Mb/s
  38. Channel(s)                               : 8 channels
  39. Channel layout                           : L R C LFE Ls Rs Lb Rb
  40. Sampling rate                            : 48.0 kHz
  41. Frame rate                               : 1 200.000 FPS (40 SPF)
  42. Compression mode                         : Lossless
  43. Stream size                              : 5.02 GiB (20%)
  44. Title                                    : Onward.2020.2160p.BluRay.x264.8bit.SDR.DTS-HD.MA.TrueHD.7.1.Atmos-SWTYBLZ
  45. Language                                 : English
  46. Default                                  : Yes
  47. Forced                                   : No
  48. Number of dynamic objects                : 13
  49. Bed channel count                        : 1 channel
  50. Bed channel configuration                : LFE

  51. Audio #2
  52. ID                                       : 3
  53. Format                                   : DTS XLL
  54. Format/Info                              : Digital Theater Systems
  55. Commercial name                          : DTS-HD Master Audio
  56. Codec ID                                 : A_DTS
  57. Duration                                 : 1 h 42 min
  58. Bit rate mode                            : Variable
  59. Bit rate                                 : 4 700 kb/s
  60. Channel(s)                               : 8 channels
  61. Channel layout                           : C L R LFE Lb Rb Lss Rss
  62. Sampling rate                            : 48.0 kHz
  63. Frame rate                               : 93.750 FPS (512 SPF)
  64. Bit depth                                : 24 bits
  65. Compression mode                         : Lossless
  66. Stream size                              : 3.36 GiB (13%)
  67. Title                                    : Onward.2020.2160p.BluRay.x264.8bit.SDR.DTS-HD.MA.TrueHD.7.1.Atmos-SWTYBLZ
  68. Language                                 : English
  69. Default                                  : No
  70. Forced                                   : No

  71. Audio #3
  72. ID                                       : 4
  73. Format                                   : AC-3
  74. Format/Info                              : Audio Coding 3
  75. Commercial name                          : Dolby Digital
  76. Codec ID                                 : A_AC3
  77. Duration                                 : 1 h 42 min
  78. Bit rate mode                            : Constant
  79. Bit rate                                 : 640 kb/s
  80. Channel(s)                               : 6 channels
  81. Channel layout                           : L R C LFE Ls Rs
  82. Sampling rate                            : 48.0 kHz
  83. Frame rate                               : 31.250 FPS (1536 SPF)
  84. Bit depth                                : 16 bits
  85. Compression mode                         : Lossy
  86. Stream size                              : 469 MiB (2%)
  87. Title                                    : Onward.2020.2160p.BluRay.x264.8bit.SDR.DTS-HD.MA.TrueHD.7.1.Atmos-SWTYBLZ
  88. Language                                 : English
  89. Service kind                             : Complete Main
  90. Default                                  : No
  91. Forced                                   : No

  92. Text #1
  93. ID                                       : 5
  94. Format                                   : UTF-8
  95. Codec ID                                 : S_TEXT/UTF8
  96. Codec ID/Info                            : UTF-8 Plain Text
  97. Duration                                 : 1 h 35 min
  98. Bit rate                                 : 68 b/s
  99. Count of elements                        : 1631
  100. Stream size                              : 47.7 KiB (0%)
  101. Title                                    : English-SRT
  102. Language                                 : English
  103. Default                                  : Yes
  104. Forced                                   : No

  105. Text #2
  106. ID                                       : 6
  107. Format                                   : PGS
  108. Muxing mode                              : zlib
  109. Codec ID                                 : S_HDMV/PGS
  110. Codec ID/Info                            : Picture based subtitle format used on BDs/HD-DVDs
  111. Duration                                 : 1 h 31 min
  112. Bit rate                                 : 41.5 kb/s
  113. Count of elements                        : 2716
  114. Stream size                              : 27.2 MiB (0%)
  115. Title                                    : English-PGS
  116. Language                                 : English
  117. Default                                  : No
  118. Forced                                   : No

  119. Text #3
  120. ID                                       : 7
  121. Format                                   : PGS
  122. Muxing mode                              : zlib
  123. Codec ID                                 : S_HDMV/PGS
  124. Codec ID/Info                            : Picture based subtitle format used on BDs/HD-DVDs
  125. Duration                                 : 1 h 41 min
  126. Bit rate                                 : 47.4 kb/s
  127. Count of elements                        : 3814
  128. Stream size                              : 34.3 MiB (0%)
  129. Title                                    : English-SDH-PGS
  130. Language                                 : English
  131. Default                                  : No
  132. Forced                                   : No

  133. Text #4
  134. ID                                       : 8
  135. Format                                   : PGS
  136. Muxing mode                              : zlib
  137. Codec ID                                 : S_HDMV/PGS
  138. Codec ID/Info                            : Picture based subtitle format used on BDs/HD-DVDs
  139. Duration                                 : 1 h 41 min
  140. Bit rate                                 : 40.6 kb/s
  141. Count of elements                        : 2824
  142. Stream size                              : 29.4 MiB (0%)
  143. Title                                    : French-PGS
  144. Language                                 : French
  145. Default                                  : No
  146. Forced                                   : No

  147. Text #5
  148. ID                                       : 9
  149. Format                                   : PGS
  150. Muxing mode                              : zlib
  151. Codec ID                                 : S_HDMV/PGS
  152. Codec ID/Info                            : Picture based subtitle format used on BDs/HD-DVDs
  153. Duration                                 : 1 h 41 min
  154. Bit rate                                 : 36.7 kb/s
  155. Count of elements                        : 2788
  156. Stream size                              : 26.6 MiB (0%)
  157. Title                                    : Spanish-PGS
  158. Language                                 : Spanish
  159. Default                                  : No
  160. Forced                                   : No

  161. Menu
  162. 00:00:00.000                             : en:Chapter 01
  163. 00:02:30.025                             : en:Chapter 02
  164. 00:07:06.384                             : en:Chapter 03
  165. 00:08:14.327                             : en:Chapter 04
  166. 00:12:45.014                             : en:Chapter 05
  167. 00:14:53.726                             : en:Chapter 06
  168. 00:19:21.035                             : en:Chapter 07
  169. 00:23:46.049                             : en:Chapter 08
  170. 00:25:34.741                             : en:Chapter 09
  171. 00:26:11.111                             : en:Chapter 10
  172. 00:27:25.435                             : en:Chapter 11
  173. 00:30:02.133                             : en:Chapter 12
  174. 00:32:49.134                             : en:Chapter 13
  175. 00:34:43.623                             : en:Chapter 14
  176. 00:36:40.782                             : en:Chapter 15
  177. 00:40:41.981                             : en:Chapter 16
  178. 00:42:48.732                             : en:Chapter 17
  179. 00:44:02.139                             : en:Chapter 18
  180. 00:45:41.113                             : en:Chapter 19
  181. 00:47:49.158                             : en:Chapter 20
  182. 00:52:01.368                             : en:Chapter 21
  183. 00:55:12.142                             : en:Chapter 22
  184. 00:57:23.940                             : en:Chapter 23
  185. 01:02:23.322                             : en:Chapter 24
  186. 01:04:02.964                             : en:Chapter 25
  187. 01:07:13.070                             : en:Chapter 26
  188. 01:08:49.041                             : en:Chapter 27
  189. 01:10:06.160                             : en:Chapter 28
  190. 01:11:12.267                             : en:Chapter 29
  191. 01:13:13.055                             : en:Chapter 30
  192. 01:15:58.720                             : en:Chapter 31
  193. 01:17:37.027                             : en:Chapter 32
  194. 01:20:26.321                             : en:Chapter 33
  195. 01:25:01.262                             : en:Chapter 34
  196. 01:26:59.589                             : en:Chapter 35
  197. 01:30:10.780                             : en:Chapter 36
  198. 01:32:51.899                             : en:Chapter 37
复制代码

1/2的魔法 Onward.2020.2160p.BluRay.x264.8bit.SDR.DTS-HD.MA.TrueHD.7.1.Atmos-SWTYBLZ 25.19GB-2.png 1/2的魔法 Onward.2020.2160p.BluRay.x264.8bit.SDR.DTS-HD.MA.TrueHD.7.1.Atmos-SWTYBLZ 25.19GB-3.png 1/2的魔法 Onward.2020.2160p.BluRay.x264.8bit.SDR.DTS-HD.MA.TrueHD.7.1.Atmos-SWTYBLZ 25.19GB-4.png 1/2的魔法 Onward.2020.2160p.BluRay.x264.8bit.SDR.DTS-HD.MA.TrueHD.7.1.Atmos-SWTYBLZ 25.19GB-5.png 1/2的魔法 Onward.2020.2160p.BluRay.x264.8bit.SDR.DTS-HD.MA.TrueHD.7.1.Atmos-SWTYBLZ 25.19GB-6.png 1/2的魔法 Onward.2020.2160p.BluRay.x264.8bit.SDR.DTS-HD.MA.TrueHD.7.1.Atmos-SWTYBLZ 25.19GB-7.png 1/2的魔法 Onward.2020.2160p.BluRay.x264.8bit.SDR.DTS-HD.MA.TrueHD.7.1.Atmos-SWTYBLZ 25.19GB-8.png







回复

使用道具 举报

发表于 2020-5-18 01:43:50 | 显示全部楼层
楼主发贴辛苦了,谢谢楼主分享!我觉得蓝光电影网是注册对了!
回复 支持 反对

使用道具 举报

发表于 2020-5-18 02:14:31 | 显示全部楼层
楼主发贴辛苦了,谢谢楼主分享!我觉得蓝光电影网是注册对了!
回复 支持 反对

使用道具 举报

发表于 2020-5-18 03:46:07 | 显示全部楼层
楼主发贴辛苦了,谢谢楼主分享!我觉得蓝光电影网是注册评论,推荐就对了!
回复 支持 反对

使用道具 举报

发表于 2020-5-18 05:56:40 | 显示全部楼层
感谢分享
回复

使用道具 举报

发表于 2020-5-18 08:18:20 | 显示全部楼层

这东西我收了!谢谢楼主!蓝光电影网真好!
回复 支持 反对

使用道具 举报

发表于 2020-5-18 09:41:14 | 显示全部楼层

楼主太厉害了!楼主,电影应该很好看我觉得蓝光电影网真是个好地方!
回复 支持 反对

使用道具 举报

发表于 2020-5-18 09:48:29 | 显示全部楼层
楼主发贴辛苦了,谢谢楼主分享!我觉得蓝光电影网是注册对了!
回复 支持 反对

使用道具 举报

发表于 2020-5-18 10:36:27 | 显示全部楼层

我看不错噢 谢谢楼主!蓝光电影网越来越好!
回复 支持 反对

使用道具 举报

发表于 2020-5-18 11:25:48 | 显示全部楼层

我看不错噢 谢谢楼主!蓝光电影网越来越好!
回复 支持 反对

使用道具 举报

懒得打字嘛,点击右侧快捷回复 【右侧内容,后台自定义】
您需要登录后才可以回帖 登录 | 立即加入

本版积分规则

现在加入蓝光电影网,注册一个账号
上个主题 下个主题 快速回复 收藏帖子 返回列表 客服中心 搜索

手机版|小黑屋| 蓝光电影网 |网站地图 

Copyright © 2015-2019 Comsenz Inc.  Template by 蓝光电影论坛 All Rights Reserved.

Powered by 蓝光电影网 X3.4

特别声明:本站所有资源均由网上收集而来,版权归原影音公司所有,如果侵犯了你的权益,请通知我们,我们会及时删除侵权内容.

快速回复 返回顶部 返回列表