找回密码

蓝光电影网

查看: 540|回复: 23

[2160p-WEB] 纽约唯一活着的男孩/心跳纽约 The.Only.Living.Boy.In.New.York.2017.HDR.2160p.WEB.h265-WATCHER 9.36GB

[复制链接]

 成长值: 26125

发表于 2020-5-16 22:14:37 | 显示全部楼层 |阅读模式
纽约唯一活着的男孩/心跳纽约 The.Only.Living.Boy.In.New.York.2017.HDR.2160p.WEB.h265-WATCHER 9.36GB-1.png

译  名 纽约唯一活着的男孩 / 心跳纽约(港) / 纽约寂寞男孩(台)
片  名 The Only Living Boy in New York
年  代 2017
产  地 美国
类  别 剧情
语  言 英语
上映日期 2017-08-11(美国)
IMDb评分  6.3/10 from 10319 users
IMDb链接  https://www.imdb.com/title/tt0460890
豆瓣评分 6.4/10 from 2286 users
豆瓣链接 https://movie.douban.com/subject/1927366/
片  长 89分钟
导  演 马克·韦布 Marc Webb
编  剧 阿兰·里布 Allan Loeb
主  演 卡勒姆·特纳 Callum Turner
       杰夫·布里吉斯 Jeff Bridges
       凯特·贝金赛尔 Kate Beckinsale
       皮尔斯·布鲁斯南 Pierce Brosnan
       辛西娅·尼克松 Cynthia Nixon
       科雷西·克莱门斯 Kiersey Clemons
       泰特·多诺万 Tate Donovan
       华莱士·肖恩 Wallace Shawn
       安赫·道格 Anh Duong
       黛比·玛扎 Debi Mazar
       本·霍兰兹沃思 Ben Hollandsworth
       约翰·博尔格 John Bolger
       比尔·坎普 Bill Camp
       理查德·贝金斯 Richard Bekins
       赖恩·斯皮克曼 Ryan Speakman
       奥利弗·桑顿 Oliver Thornton
       亚历山大·索科维科夫 Alexander Sokovikov
       艾德·朱厄特 Ed Jewett
       艾米·霍恩 Amy Hohn
       詹姆斯·塞托 James Saito
       玛德赫·杰佛里 Madhur Jaffrey
       彼得·弗朗西斯·詹姆斯 Peter Francis James


标  签 美国 | 剧情 | 2017 | 纽约 | 爱情 | 文艺 | 青春 | 家庭

简  介  

  故事讲述充满文青气质的汤马大学毕业,从父亲的豪宅搬到小区生活,漂流在纽约大都会中,一日,汤马意外发现父亲有外遇,试图出手阻止但却情不自禁投入外遇的怀抱。汤马迷失在了偷情的快感与罪疚之中...
  1. Video
  2. ID                                       : 1
  3. Format                                   : HEVC
  4. Format/Info                              : High Efficiency Video Coding
  5. Format profile                           : Main High@L4@Main
  6. HDR format                               : SMPTE ST 2094 App 4, Version 0
  7. Codec ID                                 : V_MPEGH/ISO/HEVC
  8. Duration                                 : 1 h 28 min
  9. Bit rate                                 : 14.5 Mb/s
  10. Width                                    : 3 840 pixels
  11. Height                                   : 2 080 pixels
  12. Display aspect ratio                     : 1.85:1
  13. Frame rate mode                          : Constant
  14. Frame rate                               : 23.976 (24000/1001/189150) FPS
  15. Standard                                 : NTSC
  16. Color space                              : YUV
  17. Chroma subsampling                       : 4:2:0 (Type 2)
  18. Bit depth                                : 10 bits
  19. Bits/(Pixel*Frame)                       : 0.076
  20. Stream size                              : 8.96 GiB (96%)
  21. Default                                  : Yes
  22. Forced                                   : No
  23. Color range                              : Limited
  24. Color primaries                          : BT.2020
  25. Transfer characteristics                 : PQ
  26. Matrix coefficients                      : BT.2020 non-constant
  27. Mastering display color primaries        : Display P3
  28. Mastering display luminance              : min: 0.0001 cd/m2, max: 1000 cd/m2
  29. Maximum Content Light Level              : 2043 cd/m2
  30. Maximum Frame-Average Light Level        : 230 cd/m2

  31. Audio
  32. ID                                       : 2
  33. Format                                   : E-AC-3
  34. Format/Info                              : Enhanced AC-3
  35. Commercial name                          : Dolby Digital Plus
  36. Codec ID                                 : A_EAC3
  37. Duration                                 : 1 h 28 min
  38. Bit rate mode                            : Constant
  39. Bit rate                                 : 640 kb/s
  40. Channel(s)                               : 6 channels
  41. Channel layout                           : L R C LFE Ls Rs
  42. Sampling rate                            : 48.0 kHz
  43. Frame rate                               : 31.250 FPS (1536 SPF)
  44. Compression mode                         : Lossy
  45. Stream size                              : 405 MiB (4%)
  46. Title                                    : English
  47. Language                                 : English
  48. Service kind                             : Complete Main
  49. Default                                  : Yes
  50. Forced                                   : No

  51. Text
  52. ID                                       : 3
  53. Format                                   : UTF-8
  54. Codec ID                                 : S_TEXT/UTF8
  55. Codec ID/Info                            : UTF-8 Plain Text
  56. Duration                                 : 1 h 27 min
  57. Bit rate                                 : 67 b/s
  58. Count of elements                        : 1506
  59. Stream size                              : 42.9 KiB (0%)
  60. Title                                    : English [SDH]
  61. Language                                 : English
  62. Default                                  : No
  63. Forced                                   : No

  64. Menu
  65. 00:00:00.000                             : en:Amazon Studios
  66. 00:00:20.000                             : en:Something is missing from New York City
  67. 00:04:10.000                             : en:Title Sequence
  68. 00:04:16.000                             : en:Thomas meets his curious neighbor W.F. Gerald
  69. 00:07:22.000                             : en:Thomas shares a drink with Gerald
  70. 00:10:34.000                             : en:The safety blanket of a dinner party
  71. 00:12:50.000                             : en:Thomas takes Mimi to a show
  72. 00:16:45.000                             : en:Thomas has lunch with his father
  73. 00:18:30.000                             : en:Thomas tells Gerald how his lunch with his father went
  74. 00:20:18.000                             : en:"Then came Johanna"
  75. 00:23:23.000                             : en:Thomas shares his mother's condition with Gerald
  76. 00:24:33.000                             : en:Thomas follows the mystery woman to lunch
  77. 00:26:47.000                             : en:Thomas helps his mother look for a photograph
  78. 00:28:21.000                             : en:Thomas demands Johanna stop seeing Ethan
  79. 00:29:10.000                             : en:Gerald offers Thomas an alternative solution to end the affair
  80. 00:31:11.000                             : en:Thomas brings Mimi to his friend's wedding
  81. 00:34:20.000                             : en:Thomas and Johanna speak outside the wedding hall
  82. 00:37:15.000                             : en:Uncle Buster gives his wedding toast
  83. 00:40:20.000                             : en:Thomas tells Johanna about his goals and ambitions
  84. 00:42:14.000                             : en:Gerald gives Thomas feedback on his written story
  85. 00:44:41.000                             : en:Thomas meets his father at work
  86. 00:46:32.000                             : en:Thomas looks for Gerald in his apartment
  87. 00:50:27.000                             : en:Thomas asks Johanna to stop seeing Ethan
  88. 00:54:20.000                             : en:Thomas invites Gerald to his father's company party
  89. 00:55:41.000                             : en:Thomas introduces Mimi to Judith at the party
  90. 00:57:59.000                             : en:Johanna takes a smoke break
  91. 00:59:27.000                             : en:Mimi follows Thomas out of the party
  92. 01:05:15.000                             : en:Thomas rushes to his father's office to convey the truth
  93. 01:10:10.000                             : en:The story behind Gerald's story
  94. 01:15:50.000                             : en:Thomas returns to his mother
  95. 01:18:41.000                             : en:Ethan and Thomas take a wall in the park
  96. 01:20:53.000                             : en:Gerald reads his book to the audience
  97. 01:21:38.000                             : en:End Credits
复制代码

纽约唯一活着的男孩/心跳纽约 The.Only.Living.Boy.In.New.York.2017.HDR.2160p.WEB.h265-WATCHER 9.36GB-2.png 纽约唯一活着的男孩/心跳纽约 The.Only.Living.Boy.In.New.York.2017.HDR.2160p.WEB.h265-WATCHER 9.36GB-3.png 纽约唯一活着的男孩/心跳纽约 The.Only.Living.Boy.In.New.York.2017.HDR.2160p.WEB.h265-WATCHER 9.36GB-4.png







回复

使用道具 举报

发表于 2020-5-16 23:01:43 | 显示全部楼层
这都什么狗血电影,哎
回复 支持 反对

使用道具 举报

发表于 2020-5-16 23:47:18 | 显示全部楼层
凯特·贝金赛尔
回复 支持 反对

使用道具 举报

发表于 2020-5-17 00:50:36 | 显示全部楼层

楼主太厉害了!楼主,电影应该很好看我觉得蓝光电影网真是个好地方!
回复 支持 反对

使用道具 举报

发表于 2020-5-17 05:32:06 | 显示全部楼层

楼主太厉害了!楼主,电影应该很好看我觉得蓝光电影网真是个好地方!
回复 支持 反对

使用道具 举报

发表于 2020-5-17 07:42:33 | 显示全部楼层
感谢分享!
回复

使用道具 举报

发表于 2020-5-17 07:55:53 | 显示全部楼层

我看不错噢 谢谢楼主!蓝光电影网越来越好!
回复 支持 反对

使用道具 举报

发表于 2020-5-17 08:07:48 | 显示全部楼层
楼主发贴辛苦了,谢谢楼主分享!我觉得蓝光电影网是注册对了!
回复 支持 反对

使用道具 举报

发表于 2020-5-17 08:37:28 | 显示全部楼层
楼主发贴辛苦了,谢谢楼主分享!我觉得蓝光电影网是注册对了!
回复 支持 反对

使用道具 举报

发表于 2020-5-17 14:10:58 | 显示全部楼层
感谢分享,乐于下载!
回复 支持 反对

使用道具 举报

懒得打字嘛,点击右侧快捷回复 【右侧内容,后台自定义】
您需要登录后才可以回帖 登录 | 立即加入

本版积分规则

现在加入蓝光电影网,注册一个账号
上个主题 下个主题 快速回复 收藏帖子 返回列表 客服中心 搜索

手机版|小黑屋| 蓝光电影网 |网站地图 

Copyright © 2015-2019 Comsenz Inc.  Template by 蓝光电影论坛 All Rights Reserved.

Powered by 蓝光电影网 X3.4

特别声明:本站所有资源均由网上收集而来,版权归原影音公司所有,如果侵犯了你的权益,请通知我们,我们会及时删除侵权内容.

快速回复 返回顶部 返回列表