找回密码

蓝光电影网

查看: 1615|回复: 42
打印 上一主题 下一主题

[2160p-WEB] 生死之墙/危墙杀戮 The.Wall.2017.HDR.2160p.WEB.h265-WATCHER 9.40GB

[复制链接]

 成长值: 26155

跳转到指定楼层
1#
发表于 2020-5-11 15:55:05 | 只看该作者 |只看大图 回帖奖励 |倒序浏览 |阅读模式


译  名 生死之墙 / 危墙杀戮(港) / 危墙狙击(台)
片  名 The Wall
年  代 2017
产  地 美国
类  别 剧情 / 惊悚 / 战争
语  言 英语
上映日期 2017-05-12(美国)
IMDb评分  6.2/10 from 22444 users
IMDb链接  https://www.imdb.com/title/tt4218696
豆瓣评分 7.2/10 from 10343 users
豆瓣链接 https://movie.douban.com/subject/26761688/
片  长 90分钟
导  演 道格·里曼 Doug Liman
编  剧 德温·沃勒尔 Dwain Worrell
主  演 亚伦·泰勒-约翰逊 Aaron Taylor-Johnson
       约翰·塞纳 John Cena
       莱斯·纳克里 Laith Nakli


标  签 狙击 | 战争 | 美国 | 伊拉克战争 | 2017 | 动作 | 悬疑 | 剧情

简  介  

  故事围绕驻扎伊拉克的两名士兵展开,队友受伤,神秘狙击手的穷追不舍,矮墙铸成最后一道生命线。两人将何去何存?一场猫鼠游戏在所难免。
  1. Video
  2. ID                                       : 1
  3. Format                                   : HEVC
  4. Format/Info                              : High Efficiency Video Coding
  5. Format profile                           : Main High@L4@Main
  6. HDR format                               : SMPTE ST 2094 App 4, Version 0
  7. Codec ID                                 : V_MPEGH/ISO/HEVC
  8. Duration                                 : 1 h 29 min
  9. Bit rate                                 : 14.2 Mb/s
  10. Width                                    : 3 840 pixels
  11. Height                                   : 1 600 pixels
  12. Display aspect ratio                     : 2.40:1
  13. Frame rate mode                          : Constant
  14. Frame rate                               : 23.976 (24000/1001/189150) FPS
  15. Standard                                 : NTSC
  16. Color space                              : YUV
  17. Chroma subsampling                       : 4:2:0 (Type 2)
  18. Bit depth                                : 10 bits
  19. Bits/(Pixel*Frame)                       : 0.096
  20. Stream size                              : 8.89 GiB (96%)
  21. Default                                  : Yes
  22. Forced                                   : No
  23. Color range                              : Limited
  24. Color primaries                          : BT.2020
  25. Transfer characteristics                 : PQ
  26. Matrix coefficients                      : BT.2020 non-constant
  27. Mastering display color primaries        : Display P3
  28. Mastering display luminance              : min: 0.0001 cd/m2, max: 1000 cd/m2
  29. Maximum Content Light Level              : 2805 cd/m2
  30. Maximum Frame-Average Light Level        : 261 cd/m2

  31. Audio
  32. ID                                       : 2
  33. Format                                   : E-AC-3
  34. Format/Info                              : Enhanced AC-3
  35. Commercial name                          : Dolby Digital Plus
  36. Codec ID                                 : A_EAC3
  37. Duration                                 : 1 h 29 min
  38. Bit rate mode                            : Constant
  39. Bit rate                                 : 640 kb/s
  40. Channel(s)                               : 6 channels
  41. Channel layout                           : L R C LFE Ls Rs
  42. Sampling rate                            : 48.0 kHz
  43. Frame rate                               : 31.250 FPS (1536 SPF)
  44. Compression mode                         : Lossy
  45. Stream size                              : 410 MiB (4%)
  46. Title                                    : English
  47. Language                                 : English
  48. Service kind                             : Complete Main
  49. Default                                  : Yes
  50. Forced                                   : No

  51. Text
  52. ID                                       : 3
  53. Format                                   : UTF-8
  54. Codec ID                                 : S_TEXT/UTF8
  55. Codec ID/Info                            : UTF-8 Plain Text
  56. Duration                                 : 1 h 28 min
  57. Bit rate                                 : 50 b/s
  58. Count of elements                        : 1375
  59. Stream size                              : 32.7 KiB (0%)
  60. Title                                    : English [SDH]
  61. Language                                 : English
  62. Default                                  : No
  63. Forced                                   : No

  64. Menu
  65. 00:00:00.000                             : en:Amazon Studios
  66. 00:00:22.000                             : en:Mathews and Isaac keep an eye on an enemy encampment
  67. 00:03:35.000                             : en:Title Sequence
  68. 00:03:41.000                             : en:Matthews heads down the hill to scope out the situation
  69. 00:10:25.000                             : en:Isaac races down the hill to help his buddy
  70. 00:16:14.000                             : en:Isaac struggles to collect himself and get eyes on the shooter
  71. 00:23:27.000                             : en:Isaac receives a radio transmission
  72. 00:39:18.000                             : en:Issac agrees to play the shooter's game
  73. 00:45:38.000                             : en:The shooter gets inside Isaac's head
  74. 00:54:37.000                             : en:Isaac uses the brief windstorm to his advantage
  75. 01:00:52.000                             : en:Isaac tries to keep Juba distracted
  76. 01:07:44.000                             : en:Matthews makes his move
  77. 01:12:59.000                             : en:Isaac begins to unravel the riddle
  78. 01:16:46.000                             : en:Isaac turns the tables
  79. 01:25:16.000                             : en:End Credits
复制代码









分享到:  QQ好友和群QQ好友和群
收藏收藏
回复

使用道具 举报

推荐
发表于 2020-5-11 18:59:52 | 只看该作者

感谢楼主的无私分享!要想蓝光电影网好 就靠你我他
回复 支持 1 反对 0

使用道具 举报

2#
发表于 2020-5-11 16:21:18 | 只看该作者
楼主发贴辛苦了,谢谢楼主分享!我觉得蓝光电影网是注册对了!
回复 支持 反对

使用道具 举报

4#
发表于 2020-5-11 19:05:01 | 只看该作者
评分挺高啊,感谢分享,下了!
回复 支持 反对

使用道具 举报

5#
发表于 2020-5-11 20:15:32 | 只看该作者
楼主发贴辛苦了,谢谢楼主分享!我觉得蓝光电影网是注册对了!
回复 支持 反对

使用道具 举报

6#
发表于 2020-5-11 20:26:48 | 只看该作者
谢谢分享好片
回复 支持 反对

使用道具 举报

7#
发表于 2020-5-11 20:32:26 | 只看该作者
辛苦楼主了,盖楼中。
回复 支持 反对

使用道具 举报

8#
发表于 2020-5-11 21:38:45 | 只看该作者
小 女 骇 的 副 利 【 w w w . u k 5 . m e
回复 支持 反对

使用道具 举报

9#
发表于 2020-5-11 22:23:27 | 只看该作者
非常非常非常非常非常非常感谢
回复 支持 反对

使用道具 举报

10#
发表于 2020-5-11 23:05:09 | 只看该作者
这个真是太好了  支持了
回复 支持 反对

使用道具 举报

懒得打字嘛,点击右侧快捷回复 【右侧内容,后台自定义】
您需要登录后才可以回帖 登录 | 立即加入

本版积分规则

现在加入蓝光电影网,注册一个账号
上个主题 下个主题 快速回复 收藏帖子 返回列表 客服中心 搜索

手机版|小黑屋| 蓝光电影网 |网站地图 

Copyright © 2015-2019 Comsenz Inc.  Template by 蓝光电影论坛 All Rights Reserved.

Powered by 蓝光电影网 X3.4

特别声明:本站所有资源均由网上收集而来,版权归原影音公司所有,如果侵犯了你的权益,请通知我们,我们会及时删除侵权内容.

快速回复 返回顶部 返回列表