找回密码

蓝光电影网

查看: 766|回复: 28

[2160p-WEB] 旧金山的最后一个黑人/何处是吾家 The.Last.Black.Man.In.San.Francisco.2019.HDR.2160p.WEB.h265-WATCHER 12.70GB

[复制链接]

 成长值: 26125

发表于 2020-5-8 19:14:38 | 显示全部楼层 |阅读模式
p2547045101.jpg

译  名 旧金山的最后一个黑人 / 何处是吾家(港)
片  名 The Last Black Man in San Francisco
年  代 2019
产  地 美国
类  别 剧情
语  言 英语
上映日期 2019-01-26(圣丹斯电影节) / 2019-06-07(美国)
IMDb评分  7.3/10 from 10565 users
IMDb链接  https://www.imdb.com/title/tt4353250
豆瓣评分 7.0/10 from 993 users
豆瓣链接 https://movie.douban.com/subject/30211824/
片  长 120分钟
导  演 乔·塔尔博 Joe Talbot
编  剧 乔·塔尔博 Joe Talbot / 吉米·费尔斯 Jimmie Fails / 罗布·里彻特 Rob Richert
主  演 吉米·费尔斯 Jimmie Fails
       乔纳森·梅杰斯 Jonathan Majors
       丹尼·格洛弗 Danny Glover
       蒂琪娜·阿诺 Tichina Arnold
       罗布·摩根 Rob Morgan
       迈克·艾普斯 Mike Epps
       芬·维特洛克 Finn Wittrock
       索拉·伯奇 Thora Birch
       托尼娅·格兰茨 Tonya Glanz
       迈克尔·J·格温 Michael J. Gwynn
       杰克·汉森 Jake Hanson
       卡茜·亨德利 Cassie Hendry
       约翰·帕森斯 John Parsons


标  签 美国 | 剧情 | 2019 | 种族 | 黑人 | 独立 | 社会 | A24

简  介  

  故事围绕旧金山最后一个,也是即将消失的黑人社区展开。一个黑人男子(吉米·凡尔斯饰)和他的朋友(乔纳森·梅杰斯饰)为找回属于家族的归属感,他们决定买下属于自己家族的房子。

获奖情况  

  第35届圣丹斯电影节(2019)
  评审团大奖 剧情片(提名) 乔·塔尔博
  导演奖 剧情片 乔·塔尔博

  第72届洛迦诺国际电影节(2019)
  金豹奖(提名) 乔·塔尔博

  第72届美国导演工会奖(2020)
  最佳新人导演奖(提名) 乔·塔尔博

  第91届美国国家评论协会奖(2019)
  十佳独立电影

  第35届美国独立精神奖(2020)
  最佳处女作(提名)
  最佳男配角(提名) 乔纳森·梅杰斯
  值得关注新人奖(提名) 乔·塔尔博

  第29届哥谭独立电影奖(2019)
  独立电影人奖(提名) 乔·塔尔博
  年度突破演员(提名) 乔纳森·梅杰斯
  最佳剧本(提名) 吉米·费尔斯 / 罗布·里彻特 / 乔·塔尔博

  第40届波士顿影评人协会奖(2019)
  最佳处女作 乔·塔尔博
  最佳音乐(提名) Emile Mosseri

  第45届洛杉矶影评人协会奖(2019)
  新生代奖 吉米·费尔斯 / 乔·塔尔博 / 乔纳森·梅杰斯

  第32届芝加哥影评人协会奖(2019)
  最具突破导演(米洛斯·斯泰利克奖)(提名) 乔·塔尔博

  第23届美国在线影评人协会奖(2020)
  最佳新导演(提名) 乔·塔尔博
  1. Video
  2. ID                                       : 1
  3. Format                                   : HEVC
  4. Format/Info                              : High Efficiency Video Coding
  5. Format profile                           : Main High@L4@Main
  6. HDR format                               : SMPTE ST 2094 App 4, Version 0
  7. Codec ID                                 : V_MPEGH/ISO/HEVC
  8. Duration                                 : 2 h 0 min
  9. Bit rate                                 : 14.3 Mb/s
  10. Width                                    : 3 600 pixels
  11. Height                                   : 2 160 pixels
  12. Display aspect ratio                     : 5:3
  13. Frame rate mode                          : Constant
  14. Frame rate                               : 23.976 (24000/1001/189150) FPS
  15. Standard                                 : NTSC
  16. Color space                              : YUV
  17. Chroma subsampling                       : 4:2:0 (Type 2)
  18. Bit depth                                : 10 bits
  19. Bits/(Pixel*Frame)                       : 0.077
  20. Stream size                              : 12.0 GiB (96%)
  21. Default                                  : Yes
  22. Forced                                   : No
  23. Color range                              : Limited
  24. Color primaries                          : BT.2020
  25. Transfer characteristics                 : PQ
  26. Matrix coefficients                      : BT.2020 non-constant
  27. Mastering display color primaries        : Display P3
  28. Mastering display luminance              : min: 0.0001 cd/m2, max: 1000 cd/m2
  29. Maximum Content Light Level              : 359 cd/m2
  30. Maximum Frame-Average Light Level        : 157 cd/m2

  31. Audio
  32. ID                                       : 2
  33. Format                                   : E-AC-3
  34. Format/Info                              : Enhanced AC-3
  35. Commercial name                          : Dolby Digital Plus
  36. Codec ID                                 : A_EAC3
  37. Duration                                 : 2 h 0 min
  38. Bit rate mode                            : Constant
  39. Bit rate                                 : 640 kb/s
  40. Channel(s)                               : 6 channels
  41. Channel layout                           : L R C LFE Ls Rs
  42. Sampling rate                            : 48.0 kHz
  43. Frame rate                               : 31.250 FPS (1536 SPF)
  44. Compression mode                         : Lossy
  45. Stream size                              : 552 MiB (4%)
  46. Language                                 : English
  47. Service kind                             : Complete Main
  48. Default                                  : Yes
  49. Forced                                   : No

  50. Text
  51. ID                                       : 3
  52. Format                                   : UTF-8
  53. Codec ID                                 : S_TEXT/UTF8
  54. Codec ID/Info                            : UTF-8 Plain Text
  55. Duration                                 : 1 h 55 min
  56. Bit rate                                 : 53 b/s
  57. Count of elements                        : 1776
  58. Stream size                              : 45.4 KiB (0%)
  59. Title                                    : English
  60. Language                                 : English
  61. Default                                  : No
  62. Forced                                   : No
复制代码

旧金山的最后一个黑人/何处是吾家 The.Last.Black.Man.In.San.Francisco.2019.HDR.2160p.WEB.h265-WATCHER 12.70GB-1.png 旧金山的最后一个黑人/何处是吾家 The.Last.Black.Man.In.San.Francisco.2019.HDR.2160p.WEB.h265-WATCHER 12.70GB-2.png 旧金山的最后一个黑人/何处是吾家 The.Last.Black.Man.In.San.Francisco.2019.HDR.2160p.WEB.h265-WATCHER 12.70GB-3.png







回复

使用道具 举报

发表于 2020-5-8 21:30:03 | 显示全部楼层
楼主发贴辛苦了,谢谢楼主分享!我觉得蓝光电影网是注册对了!
回复 支持 反对

使用道具 举报

发表于 2020-5-8 21:40:35 | 显示全部楼层
楼主发贴辛苦了,谢谢楼主分享!我觉得蓝光电影网是注册对了!
回复 支持 反对

使用道具 举报

发表于 2020-5-8 22:44:10 | 显示全部楼层
感谢楼主分享好电影
回复 支持 反对

使用道具 举报

发表于 2020-5-8 23:28:14 | 显示全部楼层
小 女 骇 的 副 利 【 w w w . h u 9 . m e
回复 支持 反对

使用道具 举报

发表于 2020-5-9 01:00:38 | 显示全部楼层

这个帖子不回对不起自己!我想我是一天也不能离开蓝光电影网
回复 支持 反对

使用道具 举报

发表于 2020-5-9 01:53:27 | 显示全部楼层
楼主发贴辛苦了,谢谢楼主分享!我觉得蓝光电影网是注册对了!
回复 支持 反对

使用道具 举报

发表于 2020-5-9 07:04:27 | 显示全部楼层

楼主太厉害了!楼主,电影应该很好看我觉得蓝光电影网真是个好地方!
回复 支持 反对

使用道具 举报

发表于 2020-5-9 09:32:40 | 显示全部楼层
楼主发贴辛苦了,谢谢楼主分享!我觉得蓝光电影网是注册对了!
回复 支持 反对

使用道具 举报

发表于 2020-5-9 13:51:06 | 显示全部楼层
楼主发贴辛苦了,谢谢楼主分享!我觉得蓝光电影网是注册对了!
回复 支持 反对

使用道具 举报

懒得打字嘛,点击右侧快捷回复 【右侧内容,后台自定义】
您需要登录后才可以回帖 登录 | 立即加入

本版积分规则

现在加入蓝光电影网,注册一个账号
上个主题 下个主题 快速回复 收藏帖子 返回列表 客服中心 搜索

手机版|小黑屋| 蓝光电影网 |网站地图 

Copyright © 2015-2019 Comsenz Inc.  Template by 蓝光电影论坛 All Rights Reserved.

Powered by 蓝光电影网 X3.4

特别声明:本站所有资源均由网上收集而来,版权归原影音公司所有,如果侵犯了你的权益,请通知我们,我们会及时删除侵权内容.

快速回复 返回顶部 返回列表