找回密码

蓝光电影网

查看: 1116|回复: 2

[一拳超人/One-Punch Man 第一季][全12集打包][BD-MKV][1080P]

[复制链接]

 成长值: 27190

发表于 2020-5-3 17:28:54 | 显示全部楼层 |阅读模式
[一拳超人/One-Punch Man 第一季][全12集打包][BD-MKV][1080P]-1.jpg

译  名 一拳超人 / One-Punch Man / 一击男 / 一击超人

片  名 ワンパンマン

年  代 2015

产  地 日本

类  别 剧情 / 动作 / 动画

语  言 日语

上映日期 2015-10-04(日本)

IMDb评分 8.9/10 from 74183 users

IMDb链接 http://www.imdb.com/title/tt4508902

豆瓣评分 9.3/10 from 38657 users

豆瓣链接 https://movie.douban.com/subject/26339248/

集  数 12

片  长 24分钟

导  演 夏目真悟 Shingo Natsume

编  剧 铃木智寻 Tomohiro Suzuki / ONE

主  演 古川慎 Makoto Furukawa

      石川界人 Kaito Ishikawa

      梶裕贵 Yûki Kaji

      悠木碧 Aoi Yuki

      中村悠一 Yuuichi Nakamura

      山路和弘

      安元洋贵 Hiroki Yasumoto

      樱井孝宏 Takahiro Sakurai

      小西克幸 Katsuyuki Konishi

      宫野真守 Mamoru Miyano

      早见沙织 Saori Hayami

      津田健次郎 Kenjirô Tsuda

      高山南 Minami Takayama

      玄田哲章 Tesshô Genda

      上田耀司

      浪川大辅 Daisuke Namikawa

      日野聪 Satoshi Hino

      上田祐司 Yûji Ueda

      鸟海浩辅 Kosuke Toriumi

      羽多野涉 Wataru Hatano

      小野坂昌也 Masaya Onosaka

      细谷佳正 Hosoya Yoshimasa

      飞田展男 Nobuo Tobita

      内山昂辉 Koki Uchiyama

      小山力也 Rikiya Koyama

      关智一 Tomokazu Seki

      三木真一郎 Shinichirô Miki

      宫崎宽务

      泽城美雪 Miyuki Sawashiro

      石冢运升

      高木涉 Wataru Takagi

      森川智之 Toshiyuki Morikawa










简  介




  曾经,埼玉(古川慎 配音)只是一介平凡的上班族,某日,在偶然之中遇见了遭到变种螃蟹攻击的少年,心中升腾起了正义之感,对其出手相救。就此之后,埼玉幼年时代的英雄梦想在内心里死灰复燃,为了变得更加强大,埼玉开始了艰苦的训练,一晃眼数年过去,他仿佛脱胎换骨般的获得了异常强大的力量,但却付出了变成光头的代价。

由于埼玉的力量实在是过于强大,无论面对如何可怕的敌人,都只需一拳就能分出胜负。之后,埼玉遇见了名为杰诺斯(石川界人 配音)的改造人,后者在领略了埼玉的绝对强大之后拜其为师。与此同时,埼玉和杰诺斯报名加入了英雄协会,成为了真真正正有名有号的英雄,就此开始了打击罪恶之旅。




获奖情况




  第2届豆瓣电影年度榜单(2015)

  评分最高的动画剧集(提名)





  1. Video
  2. ID : 1
  3. Format : AVC
  4. Format/Info : Advanced Video Codec
  5. Format profile : High High@L4
  6. Format settings : CABAC / 4 Ref Frames
  7. Format settings, CABAC : Yes
  8. Format settings, ReFrames : 4 frames
  9. Codec ID : V_MPEG4/ISO/AVC
  10. Duration : 24 min 1 s
  11. Bit rate : 10.2 Mb/s
  12. Width : 1 920 pixels
  13. Height : 1 080 pixels
  14. Display aspect ratio : 16:9
  15. Frame rate mode : Constant
  16. Frame rate : 23.976 (24000/1001) FPS
  17. Color space : YUV
  18. Chroma subsampling : 4:2:0
  19. Bit depth : 10 bits
  20. Scan type : Progressive
  21. Bits/(Pixel*Frame) : 0.205
  22. Stream size : 1.71 GiB (82%)
  23. Writing library : x264 core 148 (DJATOM\'s build)
  24. Encoding settings : cabac=1 / ref=4 / deblock=1:1:-1 / analyse=0x3:0x113 / me=umh / subme=9 / psy=1 / fade_compensate=0.00 / psy_rd=1.00:0.00 / mixed_ref=1 / me_range=32 / chroma_me=1 / trellis=2 / 8x8dct=1 / cqm=0 / deadzone=21,11 / fast_pskip=1 / chroma_qp_offset=-2 / threads=12 / lookahead_threads=2 / sliced_threads=0 / nr=0 / decimate=1 / interlaced=0 / bluray_compat=0 / constrained_intra=0 / bframes=9 / b_pyramid=2 / b_adapt=2 / b_bias=0 / direct=1 / weightb=1 / open_gop=0 / weightp=2 / keyint=250 / keyint_min=23 / scenecut=40 / intra_refresh=0 / rc=crf / mbtree=0 / crf=15.0000 / qcomp=0.72 / qpmin=0 / qpmax=81 / qpstep=4 / ip_ratio=1.40 / pb_ratio=1.30 / aq=1:0.85
  25. Language : Japanese
  26. Default : Yes
  27. Forced : No
  28. Color range : Limited
  29. Color primaries : BT.709
  30. Transfer characteristics : BT.709
  31. Matrix coefficients : BT.709

  32. Audio #1
  33. ID : 2
  34. Format : FLAC
  35. Format/Info : Free Lossless Audio Codec
  36. Codec ID : A_FLAC
  37. Duration : 24 min 1 s
  38. Bit rate mode : Variable
  39. Bit rate : 770 kb/s
  40. Channel(s) : 2 channels
  41. Channel layout : L R
  42. Sampling rate : 48.0 kHz
  43. Frame rate : 11.719 FPS (4096 SPF)
  44. Bit depth : 16 bits
  45. Compression mode : Lossless
  46. Stream size : 132 MiB (6%)
  47. Writing library : libFLAC 1.3.1 (UTC 2014-11-25)
  48. Language : English
  49. Default : Yes
  50. Forced : No

  51. Audio #2
  52. ID : 3
  53. Format : FLAC
  54. Format/Info : Free Lossless Audio Codec
  55. Codec ID : A_FLAC
  56. Duration : 24 min 1 s
  57. Bit rate mode : Variable
  58. Bit rate : 1 472 kb/s
  59. Channel(s) : 2 channels
  60. Channel layout : L R
  61. Sampling rate : 48.0 kHz
  62. Frame rate : 11.719 FPS (4096 SPF)
  63. Bit depth : 24 bits
  64. Compression mode : Lossless
  65. Stream size : 253 MiB (12%)
  66. Writing library : libFLAC 1.2.1 (UTC 2007-09-17)
  67. Language : Japanese
  68. Default : No
  69. Forced : No

  70. Text #1
  71. ID : 4
  72. Format : ASS
  73. Codec ID : S_TEXT/ASS
  74. Codec ID/Info : Advanced Sub Station Alpha
  75. Duration : 19 min 42 s
  76. Bit rate : 59 b/s
  77. Count of elements : 97
  78. Compression mode : Lossless
  79. Stream size : 8.63 KiB (0%)
  80. Title : Signs & Songs
  81. Language : zxx
  82. Default : Yes
  83. Forced : No

  84. Text #2
  85. ID : 5
  86. Format : ASS
  87. Codec ID : S_TEXT/ASS
  88. Codec ID/Info : Advanced Sub Station Alpha
  89. Duration : 23 min 18 s
  90. Bit rate : 146 b/s
  91. Count of elements : 406
  92. Compression mode : Lossless
  93. Stream size : 25.0 KiB (0%)
  94. Title : Full Subtitles (SallySubs)
  95. Language : English
  96. Default : No
  97. Forced : No

  98. Menu
  99. 00:00:00.000 : en:Intro
  100. 00:00:51.051 : en:Part A
  101. 00:14:01.048 : en:Part B
  102. 00:20:17.424 : en:Ending
  103. 00:22:42.903 : en:Epilogue
复制代码




[一拳超人/One-Punch Man 第一季][全12集打包][BD-MKV][1080P]-2.jpg [一拳超人/One-Punch Man 第一季][全12集打包][BD-MKV][1080P]-3.jpg







回复

使用道具 举报

 成长值: 1015

发表于 2020-6-9 11:45:37 | 显示全部楼层
楼主发贴辛苦了,谢谢楼主分享!我觉得蓝光电影网是注册对了!
回复 支持 反对

使用道具 举报

发表于 2020-7-31 10:57:41 | 显示全部楼层
支持一下
回复

使用道具 举报

懒得打字嘛,点击右侧快捷回复 【右侧内容,后台自定义】
您需要登录后才可以回帖 登录 | 立即加入

本版积分规则

现在加入蓝光电影网,注册一个账号
上个主题 下个主题 快速回复 收藏帖子 返回列表 客服中心 搜索

手机版|小黑屋| 蓝光电影网 |网站地图 

Copyright © 2015-2019 Comsenz Inc.  Template by 蓝光电影论坛 All Rights Reserved.

Powered by 蓝光电影网 X3.4

特别声明:本站所有资源均由网上收集而来,版权归原影音公司所有,如果侵犯了你的权益,请通知我们,我们会及时删除侵权内容.

快速回复 返回顶部 返回列表