找回密码

蓝光电影网

查看: 567|回复: 9

[2160p-WEB] 缅因姐妹/把那个人击倒 Blow.The.Man.Down.2019.HDR.2160p.WEB.h265-WATCHER 10.03GB

[复制链接]

 成长值: 26155

发表于 2020-5-3 09:26:04 | 显示全部楼层 |阅读模式
缅因姐妹/把那个人击倒 Blow.The.Man.Down.2019.HDR.2160p.WEB.h265-WATCHER 10.03GB-1.png

译  名 缅因姐妹 / 把那个人击倒
片  名 Blow the Man Down
年  代 2019
产  地 美国
类  别 剧情 / 喜剧 / 悬疑
语  言 英语
上映日期 2019-04-26(翠贝卡电影节) / 2020-03-20(美国)
IMDb评分  6.3/10 from 2693 users
IMDb链接  https://www.imdb.com/title/tt8299768
豆瓣评分 6.1/10 from 1133 users
豆瓣链接 https://movie.douban.com/subject/33415979/
片  长 90分钟
导  演 Bridget Savage Cole / Danielle Krudy
编  剧 Bridget Savage Cole / Danielle Krudy
主  演 摩根·塞勒 Morgan Saylor
       苏菲·洛 Sophie Lowe
       玛格·马丁戴尔 Margo Martindale
       琼·斯奎布 June Squibb
       马塞林·休格特 Marceline Hugot
       安妮特·奥图 Annette O'Toole
       威尔·布里顿 Will Brittain
       欧文·伯克 Owen Burke
       亚当·W·梅耶森 Adam W. Mayerson
       艾邦·摩斯-巴克拉赫 Ebon Moss-Bachrach
       戴维·普里多摩尔 David Pridemore
       盖尔·兰金 Gayle Rankin
       斯基普·萨德思 Skipp Sudduth
       Mark S. Cartier
       David Coffin
       Meredith Holzman
       Thomas Kee


标  签 女性 | 悬疑 | 美国 | 剧情 | 喜剧 | 美国电影 | 社会 | 2019

简  介  

  玛丽·贝丝(Mary Beth)和普里西拉·康诺利(Priscilla Connolly)试图掩盖误杀一名危险男子的行径。 为了隐瞒自己的罪行,姐妹们必须深入了解家乡的犯罪活动,揭露该镇最黑暗的秘密。

获奖情况  

  第35届美国独立精神奖(2020)
  最佳处女作剧本(提名) 布丽吉特·萨维奇·科勒 / 丹妮拉·克鲁蒂
  1. Video
  2. ID                                       : 1
  3. Format                                   : HEVC
  4. Format/Info                              : High Efficiency Video Coding
  5. Format profile                           : Main High@L4@Main
  6. HDR format                               : SMPTE ST 2094 App 4, Version 0
  7. Codec ID                                 : V_MPEGH/ISO/HEVC
  8. Duration                                 : 1 h 31 min
  9. Bit rate                                 : 14.9 Mb/s
  10. Width                                    : 3 840 pixels
  11. Height                                   : 2 080 pixels
  12. Display aspect ratio                     : 1.85:1
  13. Frame rate mode                          : Constant
  14. Frame rate                               : 23.976 (24000/1001/189150) FPS
  15. Standard                                 : NTSC
  16. Color space                              : YUV
  17. Chroma subsampling                       : 4:2:0 (Type 2)
  18. Bit depth                                : 10 bits
  19. Bits/(Pixel*Frame)                       : 0.078
  20. Stream size                              : 9.50 GiB (96%)
  21. Default                                  : Yes
  22. Forced                                   : No
  23. Color range                              : Limited
  24. Color primaries                          : BT.2020
  25. Transfer characteristics                 : PQ
  26. Matrix coefficients                      : BT.2020 non-constant
  27. Mastering display color primaries        : Display P3
  28. Mastering display luminance              : min: 0.0001 cd/m2, max: 1000 cd/m2
  29. Maximum Content Light Level              : 285 cd/m2
  30. Maximum Frame-Average Light Level        : 54 cd/m2

  31. Audio
  32. ID                                       : 2
  33. Format                                   : E-AC-3
  34. Format/Info                              : Enhanced AC-3
  35. Commercial name                          : Dolby Digital Plus
  36. Codec ID                                 : A_EAC3
  37. Duration                                 : 1 h 31 min
  38. Bit rate mode                            : Constant
  39. Bit rate                                 : 640 kb/s
  40. Channel(s)                               : 6 channels
  41. Channel layout                           : L R C LFE Ls Rs
  42. Sampling rate                            : 48.0 kHz
  43. Frame rate                               : 31.250 FPS (1536 SPF)
  44. Compression mode                         : Lossy
  45. Stream size                              : 419 MiB (4%)
  46. Title                                    : English
  47. Language                                 : English
  48. Service kind                             : Complete Main
  49. Default                                  : Yes
  50. Forced                                   : No

  51. Text #1
  52. ID                                       : 3
  53. Format                                   : UTF-8
  54. Codec ID                                 : S_TEXT/UTF8
  55. Codec ID/Info                            : UTF-8 Plain Text
  56. Duration                                 : 1 h 30 min
  57. Bit rate                                 : 56 b/s
  58. Count of elements                        : 1368
  59. Stream size                              : 37.7 KiB (0%)
  60. Title                                    : English [SDH]
  61. Language                                 : English
  62. Default                                  : No
  63. Forced                                   : No

  64. Text #2
  65. ID                                       : 4
  66. Format                                   : UTF-8
  67. Codec ID                                 : S_TEXT/UTF8
  68. Codec ID/Info                            : UTF-8 Plain Text
  69. Duration                                 : 1 h 29 min
  70. Bit rate                                 : 37 b/s
  71. Count of elements                        : 785
  72. Stream size                              : 24.2 KiB (0%)
  73. Title                                    : Castilian [Full]
  74. Language                                 : Spanish
  75. Default                                  : No
  76. Forced                                   : No

  77. Text #3
  78. ID                                       : 5
  79. Format                                   : UTF-8
  80. Codec ID                                 : S_TEXT/UTF8
  81. Codec ID/Info                            : UTF-8 Plain Text
  82. Duration                                 : 1 h 28 min
  83. Bit rate                                 : 37 b/s
  84. Count of elements                        : 787
  85. Stream size                              : 24.1 KiB (0%)
  86. Title                                    : Spanish [Full]
  87. Language                                 : Spanish
  88. Default                                  : No
  89. Forced                                   : No

  90. Text #4
  91. ID                                       : 6
  92. Format                                   : UTF-8
  93. Codec ID                                 : S_TEXT/UTF8
  94. Codec ID/Info                            : UTF-8 Plain Text
  95. Duration                                 : 1 h 28 min
  96. Bit rate                                 : 40 b/s
  97. Count of elements                        : 759
  98. Stream size                              : 26.0 KiB (0%)
  99. Title                                    : French [Full]
  100. Language                                 : French
  101. Default                                  : No
  102. Forced                                   : No

  103. Text #5
  104. ID                                       : 7
  105. Format                                   : UTF-8
  106. Codec ID                                 : S_TEXT/UTF8
  107. Codec ID/Info                            : UTF-8 Plain Text
  108. Duration                                 : 1 h 28 min
  109. Bit rate                                 : 37 b/s
  110. Count of elements                        : 777
  111. Stream size                              : 24.4 KiB (0%)
  112. Title                                    : German [Full]
  113. Language                                 : German
  114. Default                                  : No
  115. Forced                                   : No

  116. Text #6
  117. ID                                       : 8
  118. Format                                   : UTF-8
  119. Codec ID                                 : S_TEXT/UTF8
  120. Codec ID/Info                            : UTF-8 Plain Text
  121. Duration                                 : 1 h 29 min
  122. Bit rate                                 : 38 b/s
  123. Count of elements                        : 784
  124. Stream size                              : 25.4 KiB (0%)
  125. Title                                    : Italian [Full]
  126. Language                                 : Italian
  127. Default                                  : No
  128. Forced                                   : No

  129. Text #7
  130. ID                                       : 9
  131. Format                                   : UTF-8
  132. Codec ID                                 : S_TEXT/UTF8
  133. Codec ID/Info                            : UTF-8 Plain Text
  134. Duration                                 : 1 h 28 min
  135. Bit rate                                 : 40 b/s
  136. Count of elements                        : 784
  137. Stream size                              : 26.2 KiB (0%)
  138. Title                                    : Brazilian Portuguese [Full]
  139. Language                                 : Portuguese
  140. Default                                  : No
  141. Forced                                   : No

  142. Text #8
  143. ID                                       : 10
  144. Format                                   : UTF-8
  145. Codec ID                                 : S_TEXT/UTF8
  146. Codec ID/Info                            : UTF-8 Plain Text
  147. Duration                                 : 1 h 28 min
  148. Bit rate                                 : 37 b/s
  149. Count of elements                        : 776
  150. Stream size                              : 24.2 KiB (0%)
  151. Title                                    : Polish [Full]
  152. Language                                 : Polish
  153. Default                                  : No
  154. Forced                                   : No

  155. Text #9
  156. ID                                       : 11
  157. Format                                   : UTF-8
  158. Codec ID                                 : S_TEXT/UTF8
  159. Codec ID/Info                            : UTF-8 Plain Text
  160. Duration                                 : 1 h 28 min
  161. Bit rate                                 : 39 b/s
  162. Count of elements                        : 786
  163. Stream size                              : 25.9 KiB (0%)
  164. Title                                    : Turkish [Full]
  165. Language                                 : Turkish
  166. Default                                  : No
  167. Forced                                   : No

  168. Text #10
  169. ID                                       : 12
  170. Format                                   : UTF-8
  171. Codec ID                                 : S_TEXT/UTF8
  172. Codec ID/Info                            : UTF-8 Plain Text
  173. Duration                                 : 1 h 28 min
  174. Bit rate                                 : 39 b/s
  175. Count of elements                        : 782
  176. Stream size                              : 25.6 KiB (0%)
  177. Title                                    : Swedish [Full]
  178. Language                                 : Swedish
  179. Default                                  : No
  180. Forced                                   : No

  181. Text #11
  182. ID                                       : 13
  183. Format                                   : UTF-8
  184. Codec ID                                 : S_TEXT/UTF8
  185. Codec ID/Info                            : UTF-8 Plain Text
  186. Duration                                 : 1 h 28 min
  187. Bit rate                                 : 39 b/s
  188. Count of elements                        : 780
  189. Stream size                              : 25.3 KiB (0%)
  190. Title                                    : Danish [Full]
  191. Language                                 : Danish
  192. Default                                  : No
  193. Forced                                   : No

  194. Text #12
  195. ID                                       : 14
  196. Format                                   : UTF-8
  197. Codec ID                                 : S_TEXT/UTF8
  198. Codec ID/Info                            : UTF-8 Plain Text
  199. Duration                                 : 1 h 29 min
  200. Bit rate                                 : 37 b/s
  201. Count of elements                        : 783
  202. Stream size                              : 24.4 KiB (0%)
  203. Title                                    : Finnish [Full]
  204. Language                                 : Finnish
  205. Default                                  : No
  206. Forced                                   : No

  207. Text #13
  208. ID                                       : 15
  209. Format                                   : UTF-8
  210. Codec ID                                 : S_TEXT/UTF8
  211. Codec ID/Info                            : UTF-8 Plain Text
  212. Duration                                 : 1 h 28 min
  213. Bit rate                                 : 36 b/s
  214. Count of elements                        : 762
  215. Stream size                              : 23.9 KiB (0%)
  216. Title                                    : Dutch [Full]
  217. Language                                 : Dutch
  218. Default                                  : No
  219. Forced                                   : No

  220. Text #14
  221. ID                                       : 16
  222. Format                                   : UTF-8
  223. Codec ID                                 : S_TEXT/UTF8
  224. Codec ID/Info                            : UTF-8 Plain Text
  225. Duration                                 : 1 h 28 min
  226. Bit rate                                 : 33 b/s
  227. Count of elements                        : 778
  228. Stream size                              : 22.0 KiB (0%)
  229. Title                                    : Norwegian (Bokm?l) [Full]
  230. Language                                 : Norwegian Bokmal
  231. Default                                  : No
  232. Forced                                   : No

  233. Text #15
  234. ID                                       : 17
  235. Format                                   : UTF-8
  236. Codec ID                                 : S_TEXT/UTF8
  237. Codec ID/Info                            : UTF-8 Plain Text
  238. Duration                                 : 1 h 29 min
  239. Bit rate                                 : 65 b/s
  240. Count of elements                        : 789
  241. Stream size                              : 42.4 KiB (0%)
  242. Title                                    : Russian [Full]
  243. Language                                 : Russian
  244. Default                                  : No
  245. Forced                                   : No

  246. Text #16
  247. ID                                       : 18
  248. Format                                   : UTF-8
  249. Codec ID                                 : S_TEXT/UTF8
  250. Codec ID/Info                            : UTF-8 Plain Text
  251. Duration                                 : 1 h 29 min
  252. Bit rate                                 : 57 b/s
  253. Count of elements                        : 789
  254. Stream size                              : 37.8 KiB (0%)
  255. Title                                    : Hebrew [Full]
  256. Language                                 : Hebrew
  257. Default                                  : No
  258. Forced                                   : No

  259. Text #17
  260. ID                                       : 19
  261. Format                                   : UTF-8
  262. Codec ID                                 : S_TEXT/UTF8
  263. Codec ID/Info                            : UTF-8 Plain Text
  264. Duration                                 : 1 h 29 min
  265. Bit rate                                 : 60 b/s
  266. Count of elements                        : 789
  267. Stream size                              : 39.6 KiB (0%)
  268. Title                                    : Arabic [Full]
  269. Language                                 : Arabic
  270. Default                                  : No
  271. Forced                                   : No

  272. Text #18
  273. ID                                       : 20
  274. Format                                   : UTF-8
  275. Codec ID                                 : S_TEXT/UTF8
  276. Codec ID/Info                            : UTF-8 Plain Text
  277. Duration                                 : 1 h 29 min
  278. Bit rate                                 : 103 b/s
  279. Count of elements                        : 788
  280. Stream size                              : 67.5 KiB (0%)
  281. Title                                    : Hindi [Full]
  282. Language                                 : Hindi
  283. Default                                  : No
  284. Forced                                   : No

  285. Text #19
  286. ID                                       : 21
  287. Format                                   : UTF-8
  288. Codec ID                                 : S_TEXT/UTF8
  289. Codec ID/Info                            : UTF-8 Plain Text
  290. Duration                                 : 1 h 29 min
  291. Bit rate                                 : 122 b/s
  292. Count of elements                        : 789
  293. Stream size                              : 80.1 KiB (0%)
  294. Title                                    : Tamil [Full]
  295. Language                                 : Tamil
  296. Default                                  : No
  297. Forced                                   : No

  298. Text #20
  299. ID                                       : 22
  300. Format                                   : UTF-8
  301. Codec ID                                 : S_TEXT/UTF8
  302. Codec ID/Info                            : UTF-8 Plain Text
  303. Duration                                 : 1 h 28 min
  304. Bit rate                                 : 116 b/s
  305. Count of elements                        : 788
  306. Stream size                              : 76.1 KiB (0%)
  307. Title                                    : Telugu [Full]
  308. Language                                 : Telugu
  309. Default                                  : No
  310. Forced                                   : No

  311. Text #21
  312. ID                                       : 23
  313. Format                                   : UTF-8
  314. Codec ID                                 : S_TEXT/UTF8
  315. Codec ID/Info                            : UTF-8 Plain Text
  316. Duration                                 : 1 h 29 min
  317. Bit rate                                 : 38 b/s
  318. Count of elements                        : 788
  319. Stream size                              : 24.9 KiB (0%)
  320. Title                                    : Indonesian [Full]
  321. Language                                 : Indonesian
  322. Default                                  : No
  323. Forced                                   : No

  324. Text #22
  325. ID                                       : 24
  326. Format                                   : UTF-8
  327. Codec ID                                 : S_TEXT/UTF8
  328. Codec ID/Info                            : UTF-8 Plain Text
  329. Duration                                 : 1 h 29 min
  330. Bit rate                                 : 99 b/s
  331. Count of elements                        : 789
  332. Stream size                              : 65.1 KiB (0%)
  333. Title                                    : Thai [Full]
  334. Language                                 : Thai
  335. Default                                  : No
  336. Forced                                   : No

  337. Text #23
  338. ID                                       : 25
  339. Format                                   : UTF-8
  340. Codec ID                                 : S_TEXT/UTF8
  341. Codec ID/Info                            : UTF-8 Plain Text
  342. Duration                                 : 1 h 28 min
  343. Bit rate                                 : 42 b/s
  344. Count of elements                        : 788
  345. Stream size                              : 27.7 KiB (0%)
  346. Title                                    : Korean [Full]
  347. Language                                 : Korean
  348. Default                                  : No
  349. Forced                                   : No

  350. Text #24
  351. ID                                       : 26
  352. Format                                   : UTF-8
  353. Codec ID                                 : S_TEXT/UTF8
  354. Codec ID/Info                            : UTF-8 Plain Text
  355. Duration                                 : 1 h 28 min
  356. Bit rate                                 : 39 b/s
  357. Count of elements                        : 788
  358. Stream size                              : 25.5 KiB (0%)
  359. Title                                    : Chinese (Simplified) [Full]
  360. Language                                 : Chinese
  361. Default                                  : No
  362. Forced                                   : No

  363. Text #25
  364. ID                                       : 27
  365. Format                                   : UTF-8
  366. Codec ID                                 : S_TEXT/UTF8
  367. Codec ID/Info                            : UTF-8 Plain Text
  368. Duration                                 : 1 h 28 min
  369. Bit rate                                 : 37 b/s
  370. Count of elements                        : 788
  371. Stream size                              : 24.5 KiB (0%)
  372. Title                                    : Chinese (Traditional) [Full]
  373. Language                                 : Chinese
  374. Default                                  : No
  375. Forced                                   : No

  376. Text #26
  377. ID                                       : 28
  378. Format                                   : UTF-8
  379. Codec ID                                 : S_TEXT/UTF8
  380. Codec ID/Info                            : UTF-8 Plain Text
  381. Duration                                 : 1 h 30 min
  382. Bit rate                                 : 36 b/s
  383. Count of elements                        : 912
  384. Stream size                              : 24.3 KiB (0%)
  385. Title                                    : Japanese [Full]
  386. Language                                 : Japanese
  387. Default                                  : No
  388. Forced                                   : No

  389. Menu
  390. 00:00:00.000                             : en:Amazon logo
  391. 00:00:21.000                             : en:Studio Logo
  392. 00:00:39.000                             : en:Fisherman's song
  393. 00:02:19.000                             : en:Title Sequence
  394. 00:02:47.000                             : en:Funeral at Church
  395. 00:03:48.000                             : en:Enid stares at outside
  396. 00:04:29.000                             : en:The girls are at kitchen
  397. 00:06:13.000                             : en:Priscilla argues with Mary Beth
  398. 00:08:13.000                             : en:Mary Beth leaves her house
  399. 00:09:54.000                             : en:Priscilla looks at picture of her mother
  400. 00:11:12.000                             : en:Mary Beth drives a car
  401. 00:13:02.000                             : en:Mary Beth feels scares
  402. 00:16:24.000                             : en:The girls take an action
  403. 00:21:34.000                             : en:Fisherman sing a song
  404. 00:23:50.000                             : en:Alexis talks to Enid
  405. 00:25:02.000                             : en:Justin asks for her skiff
  406. 00:30:34.000                             : en:Talking about Enid
  407. 00:31:52.000                             : en:Enid is at beauty shop
  408. 00:35:34.000                             : en:Enid finds something
  409. 00:38:31.000                             : en:Alexis gets mad
  410. 00:40:36.000                             : en:The officers visit Enid
  411. 00:43:49.000                             : en:The officers visits Declan
  412. 00:47:48.000                             : en:Alexis misses Dee
  413. 00:49:36.000                             : en:Enid visits the girls
  414. 00:51:40.000                             : en:The girls ask about Enid
  415. 00:54:17.000                             : en:Enid talks to Alexis
  416. 00:58:35.000                             : en:Enid threatens the girls
  417. 01:01:20.000                             : en:Priscilla gets upset
  418. 01:05:57.000                             : en:Justin comes to the girls house
  419. 01:08:27.000                             : en:Alexis reaches out to Susie
  420. 01:11:00.000                             : en:Susie, Gail and Doreen wait for Enid
  421. 01:14:03.000                             : en:The girls come to Enid's house
  422. 01:20:10.000                             : en:Fisherman is singing a song
  423. 01:23:04.000                             : en:The girls walk on a street
  424. 01:26:30.000                             : en:End Credits
复制代码

缅因姐妹/把那个人击倒 Blow.The.Man.Down.2019.HDR.2160p.WEB.h265-WATCHER 10.03GB-2.png 缅因姐妹/把那个人击倒 Blow.The.Man.Down.2019.HDR.2160p.WEB.h265-WATCHER 10.03GB-3.png 缅因姐妹/把那个人击倒 Blow.The.Man.Down.2019.HDR.2160p.WEB.h265-WATCHER 10.03GB-4.png







回复

使用道具 举报

发表于 2020-5-3 15:20:06 | 显示全部楼层

箩 利 资 原【 w w w . g x 5 . m e
回复 支持 反对

使用道具 举报

发表于 2020-5-3 23:58:13 | 显示全部楼层
楼主发贴辛苦了,谢谢楼主分享!我觉得蓝光电影网是注册对了!
回复 支持 反对

使用道具 举报

发表于 2020-5-5 04:06:31 | 显示全部楼层
楼主发贴辛苦了,谢谢楼主分享!我觉得蓝光电影网是注册对了!
回复 支持 反对

使用道具 举报

发表于 2020-5-5 04:36:46 | 显示全部楼层

既然你诚信诚意的推荐了,那我就勉为其难的看看吧!蓝光电影网不走平凡路。
回复 支持 反对

使用道具 举报

发表于 2020-5-5 09:53:31 | 显示全部楼层
楼主发贴辛苦了,谢谢楼主分享!我觉得蓝光电影网是注册对了!
回复 支持 反对

使用道具 举报

发表于 2020-5-5 20:08:58 | 显示全部楼层
楼主发贴辛苦了,谢谢楼主分享!我觉得蓝光电影网是注册对了!
回复 支持 反对

使用道具 举报

发表于 2020-5-13 00:01:10 | 显示全部楼层
楼主发贴辛苦了,谢谢楼主分享!我觉得蓝光电影网是注册对了!
回复 支持 反对

使用道具 举报

发表于 2020-5-14 00:03:19 | 显示全部楼层
楼主发贴辛苦了,谢谢楼主分享!我觉得蓝光电影网是注册对了!
回复 支持 反对

使用道具 举报

发表于 2020-5-16 11:06:50 | 显示全部楼层

楼主发贴辛苦了,谢谢楼主分享!我觉得蓝光电影网是注册对了!
回复 支持 反对

使用道具 举报

懒得打字嘛,点击右侧快捷回复 【右侧内容,后台自定义】
您需要登录后才可以回帖 登录 | 立即加入

本版积分规则

现在加入蓝光电影网,注册一个账号
上个主题 下个主题 快速回复 收藏帖子 返回列表 客服中心 搜索

手机版|小黑屋| 蓝光电影网 |网站地图 

Copyright © 2015-2019 Comsenz Inc.  Template by 蓝光电影论坛 All Rights Reserved.

Powered by 蓝光电影网 X3.4

特别声明:本站所有资源均由网上收集而来,版权归原影音公司所有,如果侵犯了你的权益,请通知我们,我们会及时删除侵权内容.

快速回复 返回顶部 返回列表