找回密码

蓝光电影网

查看: 314|回复: 7

[2160p-WEB] 她的马拉松/布列塔尼参加马拉松比赛 Brittany.Runs.A.Marathon.2019.HDR.2160p.WEB.h265-WATCHER 11.19GB

[复制链接]

 成长值: 26125

发表于 2020-5-3 09:25:18 | 显示全部楼层 |阅读模式
MV5BNDRlNTJmNGEtNWM0YS00OWI3LWFkNjUtMzg5MTJjODcyZGU3XkEyXkFqcGdeQXVyODk4OTc3MTY@.jpg

译  名 她的马拉松 / 布列塔尼参加马拉松比赛(台) / 我的马拉松日记(港)
片  名 Brittany Runs a Marathon
年  代 2019
产  地 美国
类  别 剧情 / 喜剧
语  言 英语
上映日期 2019-01-28(圣丹斯电影节) / 2019-08-23(美国)
IMDb评分  6.8/10 from 11959 users
IMDb链接  https://www.imdb.com/title/tt7671064
豆瓣评分 6.8/10 from 1030 users
豆瓣链接 https://movie.douban.com/subject/30257331/
片  长 103分钟
导  演 保罗·唐斯·卡莱佐 Paul Downs Colaizzo
编  剧 保罗·唐斯·卡莱佐 Paul Downs Colaizzo
主  演 里尔·莱尔·哈瓦瑞 Lil Rel Howery
       吉莉恩·贝尔 Jillian Bell
       麦可拉·沃金丝 Michaela Watkins
       乌特卡什·安邦德卡尔 Utkarsh Ambudkar
       爱丽丝·李 Alice Lee
       米卡·斯托克 Micah Stock


标  签 励志 | 美国 | 跑步 | 女性 | 喜剧 | 2019 | 剧情 | 鸡汤

简  介  

  布列塔尼·福格勒是一个有趣的,可爱的,27岁的纽约人,紧迫的生活让她过得乱七八糟的,其肮脏的夜总会冒险和清晨羞耻的散步使她每天上班迟到。但是当她停在一个叫“推荐医生办公室”的地方,试图给她加药时,布里塔尼得到了一系列的诊断结果,而不是心率升高、血压升高……一长串的疾病。突然,布列塔尼被迫握紧,系上她的匡威运动鞋,跑了一个汗块。第二天,她跑了两次。很快她就跑了一英里。布列塔尼终于有了方向,但她走对了吗?
  获奖剧作家保罗·唐斯·科拉伊佐以这部明亮、活泼的喜剧首次执导了他的导演生涯,而吉利安·贝尔则以一个不可抗拒的演员阵容为布列塔尼的故事注入了内心和灵魂。布列塔尼经营一场马拉松是一部既有趣又鼓舞人心的电影,讲述一个以派对生活闻名的女人如何通过控制自己找到真正的朋友和真实的生活,跑过一次一个街区。

获奖情况  

  第35届圣丹斯电影节(2019)
  评审团大奖 剧情片(提名) 保罗·唐斯·卡莱佐
  观众奖 剧情片 保罗·唐斯·卡莱佐

  第24届金卫星奖(2020)
  电视部门 最佳电视电影(提名)
  1. Video
  2. ID                                       : 1
  3. Format                                   : HEVC
  4. Format/Info                              : High Efficiency Video Coding
  5. Format profile                           : Main High@L4@Main
  6. HDR format                               : SMPTE ST 2094 App 4, Version 0
  7. Codec ID                                 : V_MPEGH/ISO/HEVC
  8. Duration                                 : 1 h 43 min
  9. Bit rate                                 : 14.6 Mb/s
  10. Width                                    : 3 840 pixels
  11. Height                                   : 1 600 pixels
  12. Display aspect ratio                     : 2.40:1
  13. Frame rate mode                          : Constant
  14. Frame rate                               : 23.976 (24000/1001/189150) FPS
  15. Standard                                 : NTSC
  16. Color space                              : YUV
  17. Chroma subsampling                       : 4:2:0 (Type 2)
  18. Bit depth                                : 10 bits
  19. Bits/(Pixel*Frame)                       : 0.099
  20. Stream size                              : 10.6 GiB (96%)
  21. Default                                  : Yes
  22. Forced                                   : No
  23. Color range                              : Limited
  24. Color primaries                          : BT.2020
  25. Transfer characteristics                 : PQ
  26. Matrix coefficients                      : BT.2020 non-constant
  27. Mastering display color primaries        : Display P3
  28. Mastering display luminance              : min: 0.0001 cd/m2, max: 1000 cd/m2
  29. Maximum Content Light Level              : 1000 cd/m2
  30. Maximum Frame-Average Light Level        : 812 cd/m2

  31. Audio
  32. ID                                       : 2
  33. Format                                   : E-AC-3
  34. Format/Info                              : Enhanced AC-3
  35. Commercial name                          : Dolby Digital Plus
  36. Codec ID                                 : A_EAC3
  37. Duration                                 : 1 h 43 min
  38. Bit rate mode                            : Constant
  39. Bit rate                                 : 640 kb/s
  40. Channel(s)                               : 6 channels
  41. Channel layout                           : L R C LFE Ls Rs
  42. Sampling rate                            : 48.0 kHz
  43. Frame rate                               : 31.250 FPS (1536 SPF)
  44. Compression mode                         : Lossy
  45. Stream size                              : 475 MiB (4%)
  46. Title                                    : English
  47. Language                                 : English
  48. Service kind                             : Complete Main
  49. Default                                  : Yes
  50. Forced                                   : No

  51. Text #1
  52. ID                                       : 3
  53. Format                                   : UTF-8
  54. Codec ID                                 : S_TEXT/UTF8
  55. Codec ID/Info                            : UTF-8 Plain Text
  56. Duration                                 : 1 h 40 min
  57. Bit rate                                 : 82 b/s
  58. Count of elements                        : 1850
  59. Stream size                              : 60.5 KiB (0%)
  60. Title                                    : English [SDH]
  61. Language                                 : English
  62. Default                                  : No
  63. Forced                                   : No

  64. Text #2
  65. ID                                       : 4
  66. Format                                   : UTF-8
  67. Codec ID                                 : S_TEXT/UTF8
  68. Codec ID/Info                            : UTF-8 Plain Text
  69. Duration                                 : 1 h 42 min
  70. Bit rate                                 : 62 b/s
  71. Count of elements                        : 1360
  72. Stream size                              : 47.4 KiB (0%)
  73. Title                                    : Castilian [Full]
  74. Language                                 : Spanish
  75. Default                                  : No
  76. Forced                                   : No

  77. Text #3
  78. ID                                       : 5
  79. Format                                   : UTF-8
  80. Codec ID                                 : S_TEXT/UTF8
  81. Codec ID/Info                            : UTF-8 Plain Text
  82. Duration                                 : 1 h 42 min
  83. Bit rate                                 : 61 b/s
  84. Count of elements                        : 1426
  85. Stream size                              : 46.3 KiB (0%)
  86. Title                                    : Spanish [Full]
  87. Language                                 : Spanish
  88. Default                                  : No
  89. Forced                                   : No

  90. Text #4
  91. ID                                       : 6
  92. Format                                   : UTF-8
  93. Codec ID                                 : S_TEXT/UTF8
  94. Codec ID/Info                            : UTF-8 Plain Text
  95. Duration                                 : 1 h 42 min
  96. Bit rate                                 : 61 b/s
  97. Count of elements                        : 1356
  98. Stream size                              : 46.4 KiB (0%)
  99. Title                                    : French [Full]
  100. Language                                 : French
  101. Default                                  : No
  102. Forced                                   : No

  103. Text #5
  104. ID                                       : 7
  105. Format                                   : UTF-8
  106. Codec ID                                 : S_TEXT/UTF8
  107. Codec ID/Info                            : UTF-8 Plain Text
  108. Duration                                 : 1 h 43 min
  109. Bit rate                                 : 69 b/s
  110. Count of elements                        : 1384
  111. Stream size                              : 52.5 KiB (0%)
  112. Title                                    : Italian [Full]
  113. Language                                 : Italian
  114. Default                                  : No
  115. Forced                                   : No

  116. Text #6
  117. ID                                       : 8
  118. Format                                   : UTF-8
  119. Codec ID                                 : S_TEXT/UTF8
  120. Codec ID/Info                            : UTF-8 Plain Text
  121. Duration                                 : 1 h 38 min
  122. Bit rate                                 : 56 b/s
  123. Count of elements                        : 1239
  124. Stream size                              : 40.7 KiB (0%)
  125. Title                                    : Brazilian Portuguese [Full]
  126. Language                                 : Portuguese
  127. Default                                  : No
  128. Forced                                   : No

  129. Text #7
  130. ID                                       : 9
  131. Format                                   : UTF-8
  132. Codec ID                                 : S_TEXT/UTF8
  133. Codec ID/Info                            : UTF-8 Plain Text
  134. Duration                                 : 1 h 42 min
  135. Bit rate                                 : 59 b/s
  136. Count of elements                        : 1293
  137. Stream size                              : 44.8 KiB (0%)
  138. Title                                    : Polish [Full]
  139. Language                                 : Polish
  140. Default                                  : No
  141. Forced                                   : No

  142. Text #8
  143. ID                                       : 10
  144. Format                                   : UTF-8
  145. Codec ID                                 : S_TEXT/UTF8
  146. Codec ID/Info                            : UTF-8 Plain Text
  147. Duration                                 : 1 h 42 min
  148. Bit rate                                 : 62 b/s
  149. Count of elements                        : 1353
  150. Stream size                              : 47.4 KiB (0%)
  151. Title                                    : Turkish [Full]
  152. Language                                 : Turkish
  153. Default                                  : No
  154. Forced                                   : No

  155. Text #9
  156. ID                                       : 11
  157. Format                                   : UTF-8
  158. Codec ID                                 : S_TEXT/UTF8
  159. Codec ID/Info                            : UTF-8 Plain Text
  160. Duration                                 : 1 h 42 min
  161. Bit rate                                 : 71 b/s
  162. Count of elements                        : 1360
  163. Stream size                              : 53.9 KiB (0%)
  164. Title                                    : Swedish [Full]
  165. Language                                 : Swedish
  166. Default                                  : No
  167. Forced                                   : No

  168. Text #10
  169. ID                                       : 12
  170. Format                                   : UTF-8
  171. Codec ID                                 : S_TEXT/UTF8
  172. Codec ID/Info                            : UTF-8 Plain Text
  173. Duration                                 : 1 h 42 min
  174. Bit rate                                 : 60 b/s
  175. Count of elements                        : 1356
  176. Stream size                              : 45.2 KiB (0%)
  177. Title                                    : Danish [Full]
  178. Language                                 : Danish
  179. Default                                  : No
  180. Forced                                   : No

  181. Text #11
  182. ID                                       : 13
  183. Format                                   : UTF-8
  184. Codec ID                                 : S_TEXT/UTF8
  185. Codec ID/Info                            : UTF-8 Plain Text
  186. Duration                                 : 1 h 42 min
  187. Bit rate                                 : 60 b/s
  188. Count of elements                        : 1348
  189. Stream size                              : 45.6 KiB (0%)
  190. Title                                    : Finnish [Full]
  191. Language                                 : Finnish
  192. Default                                  : No
  193. Forced                                   : No

  194. Text #12
  195. ID                                       : 14
  196. Format                                   : UTF-8
  197. Codec ID                                 : S_TEXT/UTF8
  198. Codec ID/Info                            : UTF-8 Plain Text
  199. Duration                                 : 1 h 43 min
  200. Bit rate                                 : 54 b/s
  201. Count of elements                        : 994
  202. Stream size                              : 41.0 KiB (0%)
  203. Title                                    : Dutch [Full]
  204. Language                                 : Dutch
  205. Default                                  : No
  206. Forced                                   : No

  207. Text #13
  208. ID                                       : 15
  209. Format                                   : UTF-8
  210. Codec ID                                 : S_TEXT/UTF8
  211. Codec ID/Info                            : UTF-8 Plain Text
  212. Duration                                 : 1 h 42 min
  213. Bit rate                                 : 57 b/s
  214. Count of elements                        : 1357
  215. Stream size                              : 43.1 KiB (0%)
  216. Title                                    : Norwegian (Bokm?l) [Full]
  217. Language                                 : Norwegian Bokmal
  218. Default                                  : No
  219. Forced                                   : No

  220. Text #14
  221. ID                                       : 16
  222. Format                                   : UTF-8
  223. Codec ID                                 : S_TEXT/UTF8
  224. Codec ID/Info                            : UTF-8 Plain Text
  225. Duration                                 : 1 h 42 min
  226. Bit rate                                 : 100 b/s
  227. Count of elements                        : 1369
  228. Stream size                              : 75.4 KiB (0%)
  229. Title                                    : Russian [Full]
  230. Language                                 : Russian
  231. Default                                  : No
  232. Forced                                   : No

  233. Text #15
  234. ID                                       : 17
  235. Format                                   : UTF-8
  236. Codec ID                                 : S_TEXT/UTF8
  237. Codec ID/Info                            : UTF-8 Plain Text
  238. Duration                                 : 1 h 42 min
  239. Bit rate                                 : 91 b/s
  240. Count of elements                        : 1373
  241. Stream size                              : 69.2 KiB (0%)
  242. Title                                    : Hebrew [Full]
  243. Language                                 : Hebrew
  244. Default                                  : No
  245. Forced                                   : No

  246. Text #16
  247. ID                                       : 18
  248. Format                                   : UTF-8
  249. Codec ID                                 : S_TEXT/UTF8
  250. Codec ID/Info                            : UTF-8 Plain Text
  251. Duration                                 : 1 h 42 min
  252. Bit rate                                 : 90 b/s
  253. Count of elements                        : 1377
  254. Stream size                              : 68.4 KiB (0%)
  255. Title                                    : Arabic [Full]
  256. Language                                 : Arabic
  257. Default                                  : No
  258. Forced                                   : No

  259. Text #17
  260. ID                                       : 19
  261. Format                                   : UTF-8
  262. Codec ID                                 : S_TEXT/UTF8
  263. Codec ID/Info                            : UTF-8 Plain Text
  264. Duration                                 : 1 h 42 min
  265. Bit rate                                 : 167 b/s
  266. Count of elements                        : 1370
  267. Stream size                              : 126 KiB (0%)
  268. Title                                    : Hindi [Full]
  269. Language                                 : Hindi
  270. Default                                  : No
  271. Forced                                   : No

  272. Text #18
  273. ID                                       : 20
  274. Format                                   : UTF-8
  275. Codec ID                                 : S_TEXT/UTF8
  276. Codec ID/Info                            : UTF-8 Plain Text
  277. Duration                                 : 1 h 42 min
  278. Bit rate                                 : 195 b/s
  279. Count of elements                        : 1368
  280. Stream size                              : 147 KiB (0%)
  281. Title                                    : Tamil [Full]
  282. Language                                 : Tamil
  283. Default                                  : No
  284. Forced                                   : No

  285. Text #19
  286. ID                                       : 21
  287. Format                                   : UTF-8
  288. Codec ID                                 : S_TEXT/UTF8
  289. Codec ID/Info                            : UTF-8 Plain Text
  290. Duration                                 : 1 h 42 min
  291. Bit rate                                 : 149 b/s
  292. Count of elements                        : 1369
  293. Stream size                              : 112 KiB (0%)
  294. Title                                    : Telugu [Full]
  295. Language                                 : Telugu
  296. Default                                  : No
  297. Forced                                   : No

  298. Text #20
  299. ID                                       : 22
  300. Format                                   : UTF-8
  301. Codec ID                                 : S_TEXT/UTF8
  302. Codec ID/Info                            : UTF-8 Plain Text
  303. Duration                                 : 1 h 42 min
  304. Bit rate                                 : 63 b/s
  305. Count of elements                        : 1351
  306. Stream size                              : 47.7 KiB (0%)
  307. Title                                    : Indonesian [Full]
  308. Language                                 : Indonesian
  309. Default                                  : No
  310. Forced                                   : No

  311. Text #21
  312. ID                                       : 23
  313. Format                                   : UTF-8
  314. Codec ID                                 : S_TEXT/UTF8
  315. Codec ID/Info                            : UTF-8 Plain Text
  316. Duration                                 : 1 h 42 min
  317. Bit rate                                 : 154 b/s
  318. Count of elements                        : 1378
  319. Stream size                              : 117 KiB (0%)
  320. Title                                    : Thai [Full]
  321. Language                                 : Thai
  322. Default                                  : No
  323. Forced                                   : No

  324. Text #22
  325. ID                                       : 24
  326. Format                                   : UTF-8
  327. Codec ID                                 : S_TEXT/UTF8
  328. Codec ID/Info                            : UTF-8 Plain Text
  329. Duration                                 : 1 h 42 min
  330. Bit rate                                 : 69 b/s
  331. Count of elements                        : 1377
  332. Stream size                              : 52.1 KiB (0%)
  333. Title                                    : Korean [Full]
  334. Language                                 : Korean
  335. Default                                  : No
  336. Forced                                   : No

  337. Text #23
  338. ID                                       : 25
  339. Format                                   : UTF-8
  340. Codec ID                                 : S_TEXT/UTF8
  341. Codec ID/Info                            : UTF-8 Plain Text
  342. Duration                                 : 1 h 42 min
  343. Bit rate                                 : 60 b/s
  344. Count of elements                        : 1380
  345. Stream size                              : 45.6 KiB (0%)
  346. Title                                    : Chinese (Simplified) [Full]
  347. Language                                 : Chinese
  348. Default                                  : No
  349. Forced                                   : No

  350. Text #24
  351. ID                                       : 26
  352. Format                                   : UTF-8
  353. Codec ID                                 : S_TEXT/UTF8
  354. Codec ID/Info                            : UTF-8 Plain Text
  355. Duration                                 : 1 h 42 min
  356. Bit rate                                 : 61 b/s
  357. Count of elements                        : 1374
  358. Stream size                              : 46.0 KiB (0%)
  359. Title                                    : Chinese (Traditional) [Full]
  360. Language                                 : Chinese
  361. Default                                  : No
  362. Forced                                   : No

  363. Menu
  364. 00:00:00.000                             : en:Studio Logo
  365. 00:00:29.000                             : en:Brittany shirks her responsibilities
  366. 00:02:23.000                             : en:Title Sequence
  367. 00:02:26.000                             : en:A trip to the doctor
  368. 00:05:34.000                             : en:Feeling stuck
  369. 00:10:04.000                             : en:Hitting rock bottom
  370. 00:17:12.000                             : en:Setting little goals
  371. 00:23:57.000                             : en:Brittany's first 5k
  372. 00:28:20.000                             : en:A plan to run the marathon
  373. 00:30:34.000                             : en:A second stream of income
  374. 00:36:12.000                             : en:Transitioning into a new lifestyle
  375. 00:47:08.000                             : en:A desire to start dating
  376. 00:55:59.000                             : en:Things heat up with Jern
  377. 01:00:29.000                             : en:Finding your true friends
  378. 01:07:34.000                             : en:Paying attention to pain
  379. 01:12:10.000                             : en:Taking time to heal
  380. 01:21:33.000                             : en:Reconnecting and taking responsibility
  381. 01:29:15.000                             : en:The New York City Marathon
  382. 01:33:54.000                             : en:Finish strong
  383. 01:37:55.000                             : en:Acknowledgement
  384. 01:38:13.000                             : en:End Credits
复制代码

她的马拉松/布列塔尼参加马拉松比赛 Brittany.Runs.A.Marathon.2019.HDR.2160p.WEB.h265-WATCHER 11.19GB-1.png 她的马拉松/布列塔尼参加马拉松比赛 Brittany.Runs.A.Marathon.2019.HDR.2160p.WEB.h265-WATCHER 11.19GB-2.png 她的马拉松/布列塔尼参加马拉松比赛 Brittany.Runs.A.Marathon.2019.HDR.2160p.WEB.h265-WATCHER 11.19GB-3.png







回复

使用道具 举报

发表于 2020-5-3 15:22:03 | 显示全部楼层
箩 利 资 原【 w w w . g x 5 . m e
回复 支持 反对

使用道具 举报

发表于 2020-5-3 23:57:03 | 显示全部楼层
楼主发贴辛苦了,谢谢楼主分享!我觉得蓝光电影网是注册对了!
回复 支持 反对

使用道具 举报

发表于 2020-5-4 10:42:10 | 显示全部楼层
    进来看看,哈哈,不错的呢。
回复 支持 反对

使用道具 举报

发表于 2020-5-4 20:03:34 | 显示全部楼层
楼主发贴辛苦了,谢谢楼主分享!我觉得蓝光电影网是注册对了!
回复 支持 反对

使用道具 举报

 成长值: 1600

发表于 2020-5-5 10:02:17 | 显示全部楼层

这个帖子不回对不起自己!我想我是一天也不能离开蓝光电影网
回复 支持 反对

使用道具 举报

发表于 2020-5-10 14:36:19 | 显示全部楼层
感谢楼主无私奉献!
回复 支持 反对

使用道具 举报

发表于 2020-5-14 19:43:57 | 显示全部楼层
应该很励志。虽然也很搞笑。值得收藏
回复 支持 反对

使用道具 举报

懒得打字嘛,点击右侧快捷回复 【右侧内容,后台自定义】
您需要登录后才可以回帖 登录 | 立即加入

本版积分规则

现在加入蓝光电影网,注册一个账号
上个主题 下个主题 快速回复 收藏帖子 返回列表 客服中心 搜索

手机版|小黑屋| 蓝光电影网 |网站地图 

Copyright © 2015-2019 Comsenz Inc.  Template by 蓝光电影论坛 All Rights Reserved.

Powered by 蓝光电影网 X3.4

特别声明:本站所有资源均由网上收集而来,版权归原影音公司所有,如果侵犯了你的权益,请通知我们,我们会及时删除侵权内容.

快速回复 返回顶部 返回列表