找回密码

蓝光电影网

查看: 296|回复: 4

[REMUX.HEVC] 阿基拉 Akira.1988.JAPANESE.2160p.JPN.BluRay.REMUX.HEVC.TrueHD.5.1-FGT 83.58GB

[复制链接]

 成长值: 26125

发表于 2020-4-30 11:08:06 | 显示全部楼层 |阅读模式
阿基拉 Akira.1988.JAPANESE.2160p.JPN.BluRay.REMUX.HEVC.TrueHD.5.1-FGT 83.58GB-1.png

译  名 阿基拉 / アキラ / 亚基拉 / 亚辉罗 / 光明战士阿基拉
片  名 Akira
年  代 1988
产  地 日本
类  别 动作 / 科幻 / 动画
语  言 日语
上映日期 1988-07-16(日本)
IMDb评分  8.0/10 from 154755 users
IMDb链接  https://www.imdb.com/title/tt0094625
豆瓣评分 8.5/10 from 45273 users
豆瓣链接 https://movie.douban.com/subject/1302770/
片  长 124分钟
导  演 大友克洋 Katsuhiro ?tomo
编  剧 大友克洋 Katsuhiro ?tomo / 桥本以葬 Iz? Hashimoto
主  演 岩田光央 Mitsuo Iwata
       佐佐木望 Nozomu Sasaki
       小山茉美 Mami Koyama
       玄田哲章 Tessh? Genda
       大竹宏 Hiroshi ?take
       北村弘一 K?ichi Kitamura
       池水通洋 Michihiro Ikemizu
       渊崎由里子 Yuriko Fuchizaki
       大仓正章 Ookura Masaaki
       荒川太郎 Arakawa Tarou
       草尾毅 Takeshi Kusao
       田中和实 Kazumi Tanaka
       加藤将之 Masayuki Kat?
       秋元羊介 Y?suke Akimoto
       平野正人 Hirano Masato
       岸野幸正 Kishino Yukimasa
       中村龙彦
       神藤一弘
       伊藤福惠
       二又一成 Issei Futamata
       盐屋浩三 K?z? Shioya
       小林通孝 Kobayashi Michitaka
       梅津秀行 Hideyuki Umezu
       稻垣悟 Inagaki Satoru
       藤井佳代子 Fujii Kayoko
       丰岛雅美 Masami Toyoshima
       大野由佳
       铃木瑞穗 Mizuho Suzuki
       石田太郎 Tar? Ishida


标  签 大友克洋 | 动画 | 科幻 | 日本 | 日本动画 | Akira | 1988 | 日本电影

简  介  

  1988年7月,关东地区使用新型炸弹进行爆破,第三次世界大战即刻爆发。31年后,人类从一片废墟中重建都市,东京湾上建立了巨大城市——新东京。世界仿佛要恢复到以前的繁荣。
  2019年的一个夜晚,新东京郊外的封闭高速公路上,暴走族团体正在公路上飙车。带头的少年,是一名叫做金田的职业高中学生。
  突然,街上出现了一位奇怪的矮个子男子,暴走族少年铁雄为躲避车祸连人带车飞出公路。正当金田要拿那位男子问罪之时,军队驾驶直升飞机感到。将那位矮个男子与铁雄一起收押。
  铁雄进入了一个陌生的地方,这里似乎在从事超能力的研究。而金田则在盘算如何营救铁雄。二人都不知道,他们的未来,因为神秘力量——阿基拉而已经开始了巨大的变化。
  1. Video
  2. ID                                       : 1
  3. Format                                   : HEVC
  4. Format/Info                              : High Efficiency Video Coding
  5. Format profile                           : Main High@L4@High
  6. HDR format                               : SMPTE ST 2086, HDR10 compatible
  7. Codec ID                                 : V_MPEGH/ISO/HEVC
  8. Duration                                 : 2 h 4 min
  9. Bit rate                                 : 81.1 Mb/s
  10. Width                                    : 3 840 pixels
  11. Height                                   : 2 160 pixels
  12. Display aspect ratio                     : 16:9
  13. Frame rate mode                          : Constant
  14. Frame rate                               : 23.976 (24000/1001/189150) FPS
  15. Color space                              : YUV
  16. Chroma subsampling                       : 4:2:0 (Type 2)
  17. Bit depth                                : 10 bits
  18. Bits/(Pixel*Frame)                       : 0.408
  19. Stream size                              : 70.7 GiB (85%)
  20. Title                                    : Akira.1988.JAPANESE.2160p.JPN.BluRay.REMUX.HEVC.TrueHD.5.1-FGT
  21. Language                                 : English
  22. Default                                  : No
  23. Forced                                   : No
  24. Color range                              : Limited
  25. Color primaries                          : BT.2020
  26. Transfer characteristics                 : PQ
  27. Matrix coefficients                      : BT.2020 non-constant
  28. Mastering display color primaries        : BT.2020
  29. Mastering display luminance              : min: 0.0050 cd/m2, max: 1000 cd/m2
  30. Maximum Content Light Level              : 1000 cd/m2
  31. Maximum Frame-Average Light Level        : 369 cd/m2

  32. Audio #1
  33. ID                                       : 2
  34. Format                                   : MLP FBA
  35. Format/Info                              : Meridian Lossless Packing FBA
  36. Commercial name                          : Dolby TrueHD
  37. Codec ID                                 : A_TRUEHD
  38. Duration                                 : 2 h 4 min
  39. Bit rate mode                            : Variable
  40. Bit rate                                 : 9 517 kb/s
  41. Maximum bit rate                         : 13.9 Mb/s
  42. Channel(s)                               : 6 channels
  43. Channel layout                           : L R C LFE Ls Rs
  44. Sampling rate                            : 192 kHz
  45. Frame rate                               : 1 200.000 FPS (160 SPF)
  46. Compression mode                         : Lossless
  47. Stream size                              : 8.29 GiB (10%)
  48. Title                                    : Akira.1988.JAPANESE.2160p.JPN.BluRay.REMUX.HEVC.TrueHD.5.1-FGT
  49. Language                                 : Japanese
  50. Default                                  : Yes
  51. Forced                                   : No

  52. Audio #2
  53. ID                                       : 3
  54. Format                                   : AC-3
  55. Format/Info                              : Audio Coding 3
  56. Commercial name                          : Dolby Digital
  57. Codec ID                                 : A_AC3
  58. Duration                                 : 2 h 4 min
  59. Bit rate mode                            : Constant
  60. Bit rate                                 : 640 kb/s
  61. Channel(s)                               : 6 channels
  62. Channel layout                           : L R C LFE Ls Rs
  63. Sampling rate                            : 48.0 kHz
  64. Frame rate                               : 31.250 FPS (1536 SPF)
  65. Bit depth                                : 16 bits
  66. Compression mode                         : Lossy
  67. Stream size                              : 571 MiB (1%)
  68. Title                                    : Akira.1988.JAPANESE.2160p.JPN.BluRay.REMUX.HEVC.TrueHD.5.1-FGT
  69. Language                                 : Japanese
  70. Service kind                             : Complete Main
  71. Default                                  : No
  72. Forced                                   : No

  73. Audio #3
  74. ID                                       : 4
  75. Format                                   : AC-3
  76. Format/Info                              : Audio Coding 3
  77. Commercial name                          : Dolby Digital
  78. Codec ID                                 : A_AC3
  79. Duration                                 : 2 h 4 min
  80. Bit rate mode                            : Constant
  81. Bit rate                                 : 640 kb/s
  82. Channel(s)                               : 6 channels
  83. Channel layout                           : L R C LFE Ls Rs
  84. Sampling rate                            : 48.0 kHz
  85. Frame rate                               : 31.250 FPS (1536 SPF)
  86. Bit depth                                : 16 bits
  87. Compression mode                         : Lossy
  88. Stream size                              : 571 MiB (1%)
  89. Title                                    : Akira.1988.JAPANESE.2160p.JPN.BluRay.REMUX.HEVC.TrueHD.5.1-FGT
  90. Language                                 : Japanese
  91. Service kind                             : Complete Main
  92. Default                                  : No
  93. Forced                                   : No

  94. Audio #4
  95. ID                                       : 5
  96. Format                                   : PCM
  97. Format settings                          : Little / Signed
  98. Codec ID                                 : A_PCM/INT/LIT
  99. Duration                                 : 2 h 4 min
  100. Bit rate mode                            : Constant
  101. Bit rate                                 : 1 536 kb/s
  102. Channel(s)                               : 2 channels
  103. Sampling rate                            : 48.0 kHz
  104. Frame rate                               : 30.000 FPS (1600 SPF)
  105. Bit depth                                : 16 bits
  106. Stream size                              : 1.34 GiB (2%)
  107. Title                                    : Akira.1988.JAPANESE.2160p.JPN.BluRay.REMUX.HEVC.TrueHD.5.1-FGT
  108. Language                                 : Japanese
  109. Default                                  : No
  110. Forced                                   : No

  111. Audio #5
  112. ID                                       : 6
  113. Format                                   : MLP FBA
  114. Format/Info                              : Meridian Lossless Packing FBA
  115. Commercial name                          : Dolby TrueHD
  116. Codec ID                                 : A_TRUEHD
  117. Duration                                 : 2 h 4 min
  118. Bit rate mode                            : Variable
  119. Bit rate                                 : 1 669 kb/s
  120. Maximum bit rate                         : 2 835 kb/s
  121. Channel(s)                               : 6 channels
  122. Channel layout                           : L R C LFE Ls Rs
  123. Sampling rate                            : 48.0 kHz
  124. Frame rate                               : 1 200.000 FPS (40 SPF)
  125. Compression mode                         : Lossless
  126. Stream size                              : 1.45 GiB (2%)
  127. Title                                    : Akira.1988.JAPANESE.2160p.JPN.BluRay.REMUX.HEVC.TrueHD.5.1-FGT
  128. Language                                 : English
  129. Default                                  : No
  130. Forced                                   : No

  131. Audio #6
  132. ID                                       : 7
  133. Format                                   : AC-3
  134. Format/Info                              : Audio Coding 3
  135. Commercial name                          : Dolby Digital
  136. Codec ID                                 : A_AC3
  137. Duration                                 : 2 h 4 min
  138. Bit rate mode                            : Constant
  139. Bit rate                                 : 640 kb/s
  140. Channel(s)                               : 6 channels
  141. Channel layout                           : L R C LFE Ls Rs
  142. Sampling rate                            : 48.0 kHz
  143. Frame rate                               : 31.250 FPS (1536 SPF)
  144. Bit depth                                : 16 bits
  145. Compression mode                         : Lossy
  146. Stream size                              : 571 MiB (1%)
  147. Title                                    : Akira.1988.JAPANESE.2160p.JPN.BluRay.REMUX.HEVC.TrueHD.5.1-FGT
  148. Language                                 : English
  149. Service kind                             : Complete Main
  150. Default                                  : No
  151. Forced                                   : No

  152. Text #1
  153. ID                                       : 8
  154. Format                                   : UTF-8
  155. Codec ID                                 : S_TEXT/UTF8
  156. Codec ID/Info                            : UTF-8 Plain Text
  157. Duration                                 : 1 h 59 min
  158. Bit rate                                 : 46 b/s
  159. Count of elements                        : 1277
  160. Stream size                              : 40.7 KiB (0%)
  161. Title                                    : English-SRT
  162. Language                                 : English
  163. Default                                  : Yes
  164. Forced                                   : No

  165. Text #2
  166. ID                                       : 9
  167. Format                                   : PGS
  168. Muxing mode                              : zlib
  169. Codec ID                                 : S_HDMV/PGS
  170. Codec ID/Info                            : Picture based subtitle format used on BDs/HD-DVDs
  171. Duration                                 : 1 h 59 min
  172. Bit rate                                 : 29.0 kb/s
  173. Count of elements                        : 2521
  174. Stream size                              : 24.7 MiB (0%)
  175. Title                                    : English-PGS
  176. Language                                 : English
  177. Default                                  : No
  178. Forced                                   : No

  179. Text #3
  180. ID                                       : 10
  181. Format                                   : PGS
  182. Muxing mode                              : zlib
  183. Codec ID                                 : S_HDMV/PGS
  184. Codec ID/Info                            : Picture based subtitle format used on BDs/HD-DVDs
  185. Duration                                 : 1 h 58 min
  186. Bit rate                                 : 25.7 kb/s
  187. Count of elements                        : 2788
  188. Stream size                              : 21.9 MiB (0%)
  189. Title                                    : Japanese-PGS
  190. Language                                 : Japanese
  191. Default                                  : No
  192. Forced                                   : No

  193. Menu
  194. 00:00:00.000                             : en:Chapter 01
  195. 00:03:04.309                             : en:Chapter 02
  196. 00:05:25.283                             : en:Chapter 03
  197. 00:06:58.668                             : en:Chapter 04
  198. 00:10:33.507                             : en:Chapter 05
  199. 00:12:11.731                             : en:Chapter 06
  200. 00:16:53.887                             : en:Chapter 07
  201. 00:20:37.444                             : en:Chapter 08
  202. 00:23:45.340                             : en:Chapter 09
  203. 00:26:44.686                             : en:Chapter 10
  204. 00:29:10.081                             : en:Chapter 11
  205. 00:32:10.511                             : en:Chapter 12
  206. 00:35:21.577                             : en:Chapter 13
  207. 00:38:14.250                             : en:Chapter 14
  208. 00:41:23.147                             : en:Chapter 15
  209. 00:45:05.703                             : en:Chapter 16
  210. 00:47:40.107                             : en:Chapter 17
  211. 00:53:16.484                             : en:Chapter 18
  212. 00:57:16.850                             : en:Chapter 19
  213. 01:02:32.206                             : en:Chapter 20
  214. 01:05:30.176                             : en:Chapter 21
  215. 01:08:36.403                             : en:Chapter 22
  216. 01:11:11.058                             : en:Chapter 23
  217. 01:14:30.466                             : en:Chapter 24
  218. 01:18:12.270                             : en:Chapter 25
  219. 01:21:31.428                             : en:Chapter 26
  220. 01:25:57.485                             : en:Chapter 27
  221. 01:30:47.358                             : en:Chapter 28
  222. 01:36:05.509                             : en:Chapter 29
  223. 01:39:38.764                             : en:Chapter 30
  224. 01:41:54.900                             : en:Chapter 31
  225. 01:45:42.336                             : en:Chapter 32
  226. 01:49:21.680                             : en:Chapter 33
  227. 01:52:23.695                             : en:Chapter 34
  228. 01:56:06.960                             : en:Chapter 35
  229. 01:58:24.972                             : en:Chapter 36
  230. 02:00:21.297                             : en:Chapter 37
  231. 02:04:33.466                             : en:Chapter 38
复制代码

阿基拉 Akira.1988.JAPANESE.2160p.JPN.BluRay.REMUX.HEVC.TrueHD.5.1-FGT 83.58GB-2.png 阿基拉 Akira.1988.JAPANESE.2160p.JPN.BluRay.REMUX.HEVC.TrueHD.5.1-FGT 83.58GB-3.png 阿基拉 Akira.1988.JAPANESE.2160p.JPN.BluRay.REMUX.HEVC.TrueHD.5.1-FGT 83.58GB-4.png







回复

使用道具 举报

发表于 2020-5-1 07:39:06 | 显示全部楼层

楼主太厉害了!楼主,电影应该很好看我觉得蓝光电影网真是个好地方!
回复 支持 反对

使用道具 举报

发表于 2020-5-1 11:49:32 | 显示全部楼层
楼主发贴辛苦了,谢谢楼主分享!我觉得蓝光电影网是注册对了!
回复 支持 反对

使用道具 举报

发表于 2020-5-10 15:03:25 | 显示全部楼层
楼主发贴辛苦了,谢谢楼主分享!我觉得蓝光电影网是注册对了!
回复 支持 反对

使用道具 举报

发表于 5 天前 | 显示全部楼层
阿基拉,这个是蓝光的吧
回复 支持 反对

使用道具 举报

懒得打字嘛,点击右侧快捷回复 【右侧内容,后台自定义】
您需要登录后才可以回帖 登录 | 立即加入

本版积分规则

现在加入蓝光电影网,注册一个账号
上个主题 下个主题 快速回复 收藏帖子 返回列表 客服中心 搜索

手机版|小黑屋| 蓝光电影网 |网站地图 

Copyright © 2015-2019 Comsenz Inc.  Template by 蓝光电影论坛 All Rights Reserved.

Powered by 蓝光电影网 X3.4

特别声明:本站所有资源均由网上收集而来,版权归原影音公司所有,如果侵犯了你的权益,请通知我们,我们会及时删除侵权内容.

快速回复 返回顶部 返回列表