找回密码

蓝光电影网

查看: 184|回复: 4

[REMUX.HEVC] 真人快打传奇:蝎子的复仇/真人快打:魔蝎的复仇 Mortal.Kombat.Legends.Scorpions.Revenge.2020.2160p.BluRay.REMUX.HEVC.DTS-HD.MA.5.1-FGT 29.59GB

[复制链接]

 成长值: 26125

发表于 2020-4-29 00:03:22 | 显示全部楼层 |阅读模式
真人快打传奇:蝎子的复仇/真人快打:魔蝎的复仇 Mortal.Kombat.Legends.Scorpions.Revenge.2020.2160p.BluRay.REMUX.HEVC.DTS-HD.MA.5.1-FGT 29.59GB-1.png

译  名 真人快打传奇:蝎子的复仇 / 真人快打:魔蝎的复仇(台)
片  名 Mortal Kombat Legends: Scorpions Revenge
年  代 2020
产  地 美国
类  别 动作 / 动画 / 冒险
语  言 英语
上映日期 2020-04-12(美国)
IMDb链接  https://www.imdb.com/title/tt9580138
豆瓣评分 0/10 from 0 users
豆瓣链接 https://movie.douban.com/subject/34875588/
片  长 80分钟
导  演 伊桑·斯波尔丁 Ethan Spaulding
编  剧 杰瑞米·亚当斯 Jeremy Adams / Ed Boon
主  演 Grey Griffin
       詹妮弗·卡朋特 Jennifer Carpenter
       乔尔·麦克哈尔 Joel McHale
       凯文·迈克尔·理查德森 Kevin Michael Richardson


标  签 动画 | 动作 | 2020 | 美国 | 暴力 | 动漫 | 剧情 | 冒险

简  介  

  Plot unknown. Reportedly an animated project based molikan.com on the long-running Mortal Kombat video game franchise.
  1. Video
  2. ID                                       : 1
  3. Format                                   : HEVC
  4. Format/Info                              : High Efficiency Video Coding
  5. Format profile                           : Main High@L4@High
  6. HDR format                               : SMPTE ST 2086, HDR10 compatible
  7. Codec ID                                 : V_MPEGH/ISO/HEVC
  8. Duration                                 : 1 h 19 min
  9. Bit rate                                 : 49.9 Mb/s
  10. Width                                    : 3 840 pixels
  11. Height                                   : 2 160 pixels
  12. Display aspect ratio                     : 16:9
  13. Frame rate mode                          : Constant
  14. Frame rate                               : 23.976 (24000/1001/189150) FPS
  15. Color space                              : YUV
  16. Chroma subsampling                       : 4:2:0 (Type 2)
  17. Bit depth                                : 10 bits
  18. Bits/(Pixel*Frame)                       : 0.251
  19. Stream size                              : 27.9 GiB (94%)
  20. Title                                    : Mortal.Kombat.Legends.Scorpions.Revenge.2020.2160p.BluRay.REMUX.HEVC.DTS-HD.MA.5.1-FGT
  21. Writing library                          : ATEME Titan File 3.9.0 (4.9.0.0)        
  22. Language                                 : English
  23. Default                                  : No
  24. Forced                                   : No
  25. Color range                              : Limited
  26. Color primaries                          : BT.2020
  27. Transfer characteristics                 : PQ
  28. Matrix coefficients                      : BT.2020 non-constant
  29. Mastering display color primaries        : Display P3
  30. Mastering display luminance              : min: 0.0050 cd/m2, max: 4000 cd/m2
  31. Maximum Content Light Level              : 479 cd/m2
  32. Maximum Frame-Average Light Level        : 199 cd/m2

  33. Audio #1
  34. ID                                       : 2
  35. Format                                   : DTS XLL
  36. Format/Info                              : Digital Theater Systems
  37. Commercial name                          : DTS-HD Master Audio
  38. Codec ID                                 : A_DTS
  39. Duration                                 : 1 h 19 min
  40. Bit rate mode                            : Variable
  41. Bit rate                                 : 2 398 kb/s
  42. Channel(s)                               : 6 channels
  43. Channel layout                           : C L R Ls Rs LFE
  44. Sampling rate                            : 48.0 kHz
  45. Frame rate                               : 93.750 FPS (512 SPF)
  46. Bit depth                                : 16 bits
  47. Compression mode                         : Lossless
  48. Stream size                              : 1.34 GiB (5%)
  49. Title                                    : Mortal.Kombat.Legends.Scorpions.Revenge.2020.2160p.BluRay.REMUX.HEVC.DTS-HD.MA.5.1-FGT
  50. Language                                 : English
  51. Default                                  : Yes
  52. Forced                                   : No

  53. Audio #2
  54. ID                                       : 3
  55. Format                                   : AC-3
  56. Format/Info                              : Audio Coding 3
  57. Commercial name                          : Dolby Digital
  58. Codec ID                                 : A_AC3
  59. Duration                                 : 1 h 19 min
  60. Bit rate mode                            : Constant
  61. Bit rate                                 : 448 kb/s
  62. Channel(s)                               : 6 channels
  63. Channel layout                           : L R C LFE Ls Rs
  64. Sampling rate                            : 48.0 kHz
  65. Frame rate                               : 31.250 FPS (1536 SPF)
  66. Bit depth                                : 16 bits
  67. Compression mode                         : Lossy
  68. Stream size                              : 256 MiB (1%)
  69. Title                                    : Mortal.Kombat.Legends.Scorpions.Revenge.2020.2160p.BluRay.REMUX.HEVC.DTS-HD.MA.5.1-FGT
  70. Language                                 : French
  71. Service kind                             : Complete Main
  72. Default                                  : No
  73. Forced                                   : No

  74. Audio #3
  75. ID                                       : 4
  76. Format                                   : AC-3
  77. Format/Info                              : Audio Coding 3
  78. Commercial name                          : Dolby Digital
  79. Codec ID                                 : A_AC3
  80. Duration                                 : 1 h 19 min
  81. Bit rate mode                            : Constant
  82. Bit rate                                 : 192 kb/s
  83. Channel(s)                               : 2 channels
  84. Channel layout                           : L R
  85. Sampling rate                            : 48.0 kHz
  86. Frame rate                               : 31.250 FPS (1536 SPF)
  87. Bit depth                                : 16 bits
  88. Compression mode                         : Lossy
  89. Stream size                              : 110 MiB (0%)
  90. Title                                    : Mortal.Kombat.Legends.Scorpions.Revenge.2020.2160p.BluRay.REMUX.HEVC.DTS-HD.MA.5.1-FGT
  91. Language                                 : Spanish
  92. Service kind                             : Complete Main
  93. Default                                  : No
  94. Forced                                   : No

  95. Text #1
  96. ID                                       : 5
  97. Format                                   : UTF-8
  98. Codec ID                                 : S_TEXT/UTF8
  99. Codec ID/Info                            : UTF-8 Plain Text
  100. Duration                                 : 1 h 17 min
  101. Bit rate                                 : 37 b/s
  102. Count of elements                        : 864
  103. Stream size                              : 21.4 KiB (0%)
  104. Title                                    : English-SRT
  105. Language                                 : English
  106. Default                                  : Yes
  107. Forced                                   : No

  108. Text #2
  109. ID                                       : 6
  110. Format                                   : PGS
  111. Muxing mode                              : zlib
  112. Codec ID                                 : S_HDMV/PGS
  113. Codec ID/Info                            : Picture based subtitle format used on BDs/HD-DVDs
  114. Duration                                 : 1 h 17 min
  115. Bit rate                                 : 27.0 kb/s
  116. Count of elements                        : 2120
  117. Stream size                              : 14.9 MiB (0%)
  118. Title                                    : English-PGS
  119. Language                                 : English
  120. Default                                  : No
  121. Forced                                   : No

  122. Text #3
  123. ID                                       : 7
  124. Format                                   : PGS
  125. Muxing mode                              : zlib
  126. Codec ID                                 : S_HDMV/PGS
  127. Codec ID/Info                            : Picture based subtitle format used on BDs/HD-DVDs
  128. Duration                                 : 1 h 19 min
  129. Bit rate                                 : 23.7 kb/s
  130. Count of elements                        : 1718
  131. Stream size                              : 13.5 MiB (0%)
  132. Title                                    : French-PGS
  133. Language                                 : French
  134. Default                                  : No
  135. Forced                                   : No

  136. Text #4
  137. ID                                       : 8
  138. Format                                   : PGS
  139. Muxing mode                              : zlib
  140. Codec ID                                 : S_HDMV/PGS
  141. Codec ID/Info                            : Picture based subtitle format used on BDs/HD-DVDs
  142. Duration                                 : 1 h 19 min
  143. Bit rate                                 : 22.1 kb/s
  144. Count of elements                        : 1714
  145. Stream size                              : 12.6 MiB (0%)
  146. Title                                    : Spanish-PGS
  147. Language                                 : Spanish
  148. Default                                  : No
  149. Forced                                   : No

  150. Menu
  151. 00:00:00.000                             : en:Chapter 01
  152. 00:09:21.978                             : en:Chapter 02
  153. 00:19:53.567                             : en:Chapter 03
  154. 00:28:11.856                             : en:Chapter 04
  155. 00:35:54.152                             : en:Chapter 05
  156. 00:45:50.789                             : en:Chapter 06
  157. 00:55:18.565                             : en:Chapter 07
  158. 01:04:28.447                             : en:Chapter 08
  159. 01:13:56.723                             : en:Chapter 09
  160. 01:17:22.429                             : en:Chapter 10
复制代码

真人快打传奇:蝎子的复仇/真人快打:魔蝎的复仇 Mortal.Kombat.Legends.Scorpions.Revenge.2020.2160p.BluRay.REMUX.HEVC.DTS-HD.MA.5.1-FGT 29.59GB-2.png 真人快打传奇:蝎子的复仇/真人快打:魔蝎的复仇 Mortal.Kombat.Legends.Scorpions.Revenge.2020.2160p.BluRay.REMUX.HEVC.DTS-HD.MA.5.1-FGT 29.59GB-3.png 真人快打传奇:蝎子的复仇/真人快打:魔蝎的复仇 Mortal.Kombat.Legends.Scorpions.Revenge.2020.2160p.BluRay.REMUX.HEVC.DTS-HD.MA.5.1-FGT 29.59GB-4.png







回复

使用道具 举报

 成长值: 2950

发表于 2020-4-29 09:00:53 | 显示全部楼层
谢谢楼主无私分享。
回复 支持 反对

使用道具 举报

发表于 2020-4-29 13:44:05 | 显示全部楼层

这东西我收了!谢谢楼主!蓝光电影网真好!
回复 支持 反对

使用道具 举报

发表于 2020-4-29 16:28:33 | 显示全部楼层
楼主发贴辛苦了,谢谢楼主分享!我觉得蓝光电影网是注册对了!
回复 支持 反对

使用道具 举报

发表于 2020-4-29 17:03:56 | 显示全部楼层
来来来好看来
回复 支持 反对

使用道具 举报

懒得打字嘛,点击右侧快捷回复 【右侧内容,后台自定义】
您需要登录后才可以回帖 登录 | 立即加入

本版积分规则

现在加入蓝光电影网,注册一个账号
上个主题 下个主题 快速回复 收藏帖子 返回列表 客服中心 搜索

手机版|小黑屋| 蓝光电影网 |网站地图 

Copyright © 2015-2019 Comsenz Inc.  Template by 蓝光电影论坛 All Rights Reserved.

Powered by 蓝光电影网 X3.4

特别声明:本站所有资源均由网上收集而来,版权归原影音公司所有,如果侵犯了你的权益,请通知我们,我们会及时删除侵权内容.

快速回复 返回顶部 返回列表