找回密码

蓝光电影网

查看: 187|回复: 5

星球大战9:天行者崛起 Star.Wars.Episode.IX.The.Rise.of.Skywalker.2019.1080p.3D.BluRay.Half-SBS.x264.TrueHD.7.1.Atmos-FGT 23.03GB

[复制链接]

 成长值: 26200

发表于 2020-4-23 11:53:05 | 显示全部楼层 |阅读模式
星球大战9:天行者崛起 Star.Wars.Episode.IX.The.Rise.of.Skywalker.2019.1080p.3D.BluRay.Half-SBS.x264.TrueHD.7.1.Atmos-FGT 23.03GB-1.png

译  名 星球大战9:天行者崛起 / Star Wars 9 / Star Wars: Episode IX / 星战9 / 星球大战9
片  名 Star Wars: The Rise of Skywalker
年  代 2019
产  地 美国
类  别 动作 / 科幻 / 冒险
语  言 英语
上映日期 2019-12-18(中国大陆) / 2019-12-20(美国)
IMDb评分  6.7/10 from 298838 users
IMDb链接  https://www.imdb.com/title/tt2527338
豆瓣评分 6.4/10 from 67666 users
豆瓣链接 https://movie.douban.com/subject/22265687/
片  长 142分钟
导  演 J·J·艾布拉姆斯 J.J. Abrams
编  剧 J·J·艾布拉姆斯 J.J. Abrams / 克里斯·特里奥 Chris Terrio / 乔治·卢卡斯 George Lucas / 科林·特雷沃罗 Colin Trevorrow / 德里克·康纳利 Derek Connolly
主  演 黛西·雷德利 Daisy Ridley
       亚当·德赖弗 Adam Driver
       奥斯卡·伊萨克 Oscar Isaac
       约翰·博耶加 John Boyega
       马克·哈米尔 Mark Hamill
       凯丽·费雪 Carrie Fisher
       比利·迪·威廉姆斯 Billy Dee Williams
       伊恩·麦克迪阿梅德 Ian McDiarmid
       凯丽·拉塞尔 Keri Russell
       哈里森·福特 Harrison Ford
       朱迪·科默 Jodie Comer
       比利·豪尔 Billy Howle
       马特·史密斯 Matt Smith
       露皮塔·尼永奥 Lupita Nyong'o
       多姆纳尔·格里森 Domhnall Gleeson
       凯莉·玛丽·陈 Kelly Marie Tran
       乔纳斯·索塔莫 Joonas Suotamo
       比莉·洛德 Billie Lourd
       安东尼·丹尼尔斯 Anthony Daniels
       娜奥米·阿基 Naomi Ackie
       理查德·E·格兰特 Richard E. Grant
       多米尼克·莫纳汉 Dominic Monaghan
       格雷戈·格伦伯格 Greg Grunberg
       艾德·希兰 Ed Sheeran
       林-曼努尔·米兰达 Lin-Manuel Miranda


标  签 星球大战 | 科幻 | 美国 | 2019 | 经典 | 史诗 | 动作 | 冒险

简  介  

  本片为2017年电影《星球大战:最后的绝地武士》的续集,“星球大战后传三部曲”的第三部作品,同时是“天行者传奇”的第九部作品以及最终章。在卢克·天行者化为绝地英灵的一年后,残存的抵抗势力将再次面对第一秩序。同时,绝地和西斯之间的大战将天行者的传奇带到最后。

获奖情况  

  第92届奥斯卡金像奖(2020)
  最佳视觉效果(提名) 尼尔·斯坎伦 / 帕特里克·图巴赫 / 罗杰·盖耶特 / 多米尼克·多伊
  最佳音效剪辑(提名)
  最佳原创配乐(提名) 约翰·威廉姆斯

  第73届英国电影学院奖(2020)
  电影奖 最佳特殊视觉效果(提名)
  电影奖 最佳原创配乐(提名) 约翰·威廉姆斯
  电影奖 最佳音效(提名)

  第24届美国艺术指导工会奖(2020)
  电影奖 最佳幻想电影艺术指导(提名) 凯文·詹金斯 / 瑞克·卡特

  第22届美国服装设计工会奖(2020)
  科幻/奇幻题材电影最佳服装设计(提名) 迈克尔·卡普兰

  第67届美国音效剪辑协会奖(2020)
  金卷轴奖 最佳电影音效剪辑(提名)

  第18届美国视觉效果协会奖(2020)
  最佳特效电影视觉效果(提名)
  最佳真人电影CG背景(提名)
  最佳真人电影模拟动画效果
  最佳电影视觉效果合成(提名)
  1. Video
  2. ID                                       : 1
  3. Format                                   : AVC
  4. Format/Info                              : Advanced Video Codec
  5. Format profile                           : High@L4
  6. Format settings                          : CABAC / 3 Ref Frames
  7. Format settings, CABAC                   : Yes
  8. Format settings, Reference frames        : 3 frames
  9. Codec ID                                 : V_MPEG4/ISO/AVC
  10. Duration                                 : 2 h 21 min
  11. Bit rate                                 : 15.5 Mb/s
  12. Width                                    : 1 920 pixels
  13. Height                                   : 1 080 pixels
  14. Display aspect ratio                     : 16:9
  15. Frame rate mode                          : Constant
  16. Frame rate                               : 23.976 (24000/1001/189150) FPS
  17. Color space                              : YUV
  18. Chroma subsampling                       : 4:2:0
  19. Bit depth                                : 8 bits
  20. Scan type                                : Progressive
  21. Bits/(Pixel*Frame)                       : 0.312
  22. Stream size                              : 15.3 GiB (66%)
  23. Title                                    : Star.Wars.Episode.IX.The.Rise.of.Skywalker.2019.1080p.3D.BluRay.Half-SBS.x264.TrueHD.7.1.Atmos-FGT
  24. Writing library                          : x264 core 148
  25. Encoding settings                        : cabac=1 / ref=3 / deblock=1:-1:-1 / analyse=0x3:0 / me=hex / subme=5 / psy=1 / psy_rd=1.00:0.00 / mixed_ref=0 / me_range=16 / chroma_me=1 / trellis=1 / 8x8dct=1 / cqm=0 / deadzone=21,11 / fast_pskip=0 / chroma_qp_offset=0 / threads=24 / lookahead_threads=6 / sliced_threads=0 / nr=0 / decimate=1 / interlaced=0 / bluray_compat=0 / constrained_intra=0 / bframes=2 / b_pyramid=0 / b_adapt=1 / b_bias=0 / direct=1 / weightb=0 / open_gop=0 / weightp=0 / keyint=24 / keyint_min=2 / scenecut=40 / intra_refresh=0 / rc=abr / mbtree=0 / bitrate=15500 / ratetol=1.0 / qcomp=0.60 / qpmin=0 / qpmax=69 / qpstep=4 / ip_ratio=1.40 / pb_ratio=1.30 / aq=1:1.00
  26. Default                                  : Yes
  27. Forced                                   : No
  28. Color range                              : Limited
  29. Color primaries                          : BT.709
  30. Transfer characteristics                 : BT.709
  31. Matrix coefficients                      : BT.709

  32. Audio #1
  33. ID                                       : 2
  34. Format                                   : MLP FBA 16-ch
  35. Format/Info                              : Meridian Lossless Packing FBA with 16-channel presentation
  36. Commercial name                          : Dolby TrueHD with Dolby Atmos
  37. Codec ID                                 : A_TRUEHD
  38. Duration                                 : 2 h 21 min
  39. Bit rate mode                            : Variable
  40. Bit rate                                 : 5 890 kb/s
  41. Maximum bit rate                         : 7 494 kb/s
  42. Channel(s)                               : 8 channels
  43. Channel layout                           : L R C LFE Ls Rs Lb Rb
  44. Sampling rate                            : 48.0 kHz
  45. Frame rate                               : 1 200.000 FPS (40 SPF)
  46. Compression mode                         : Lossless
  47. Stream size                              : 5.84 GiB (25%)
  48. Title                                    : Star.Wars.Episode.IX.The.Rise.of.Skywalker.2019.1080p.3D.BluRay.Half-SBS.x264.TrueHD.7.1.Atmos-FGT
  49. Language                                 : English
  50. Default                                  : Yes
  51. Forced                                   : No
  52. Number of dynamic objects                : 13
  53. Bed channel count                        : 1 channel
  54. Bed channel configuration                : LFE

  55. Audio #2
  56. ID                                       : 3
  57. Format                                   : AC-3
  58. Format/Info                              : Audio Coding 3
  59. Commercial name                          : Dolby Digital
  60. Codec ID                                 : A_AC3
  61. Duration                                 : 2 h 21 min
  62. Bit rate mode                            : Constant
  63. Bit rate                                 : 640 kb/s
  64. Channel(s)                               : 6 channels
  65. Channel layout                           : L R C LFE Ls Rs
  66. Sampling rate                            : 48.0 kHz
  67. Frame rate                               : 31.250 FPS (1536 SPF)
  68. Bit depth                                : 16 bits
  69. Compression mode                         : Lossy
  70. Stream size                              : 650 MiB (3%)
  71. Title                                    : Star.Wars.Episode.IX.The.Rise.of.Skywalker.2019.1080p.3D.BluRay.Half-SBS.x264.TrueHD.7.1.Atmos-FGT
  72. Language                                 : English
  73. Service kind                             : Complete Main
  74. Default                                  : No
  75. Forced                                   : No

  76. Audio #3
  77. ID                                       : 4
  78. Format                                   : AC-3
  79. Format/Info                              : Audio Coding 3
  80. Commercial name                          : Dolby Digital
  81. Codec ID                                 : A_AC3
  82. Duration                                 : 2 h 21 min
  83. Bit rate mode                            : Constant
  84. Bit rate                                 : 320 kb/s
  85. Channel(s)                               : 2 channels
  86. Channel layout                           : L R
  87. Sampling rate                            : 48.0 kHz
  88. Frame rate                               : 31.250 FPS (1536 SPF)
  89. Bit depth                                : 16 bits
  90. Compression mode                         : Lossy
  91. Stream size                              : 325 MiB (1%)
  92. Title                                    : Star.Wars.Episode.IX.The.Rise.of.Skywalker.2019.1080p.3D.BluRay.Half-SBS.x264.TrueHD.7.1.Atmos-FGT
  93. Language                                 : English
  94. Service kind                             : Complete Main
  95. Default                                  : No
  96. Forced                                   : No

  97. Audio #4
  98. ID                                       : 5
  99. Format                                   : E-AC-3
  100. Format/Info                              : Enhanced AC-3
  101. Commercial name                          : Dolby Digital Plus
  102. Format profile                           : Blu-ray Disc
  103. Codec ID                                 : A_EAC3
  104. Duration                                 : 2 h 21 min
  105. Bit rate mode                            : Constant
  106. Bit rate                                 : 896 kb/s
  107. Channel(s)                               : 8 channels
  108. Channel layout                           : L R C LFE Ls Rs Lb Rb
  109. Sampling rate                            : 48.0 kHz
  110. Frame rate                               : 31.250 FPS (1536 SPF)
  111. Compression mode                         : Lossy
  112. Stream size                              : 909 MiB (4%)
  113. Title                                    : Star.Wars.Episode.IX.The.Rise.of.Skywalker.2019.1080p.3D.BluRay.Half-SBS.x264.TrueHD.7.1.Atmos-FGT
  114. Language                                 : French
  115. Service kind                             : Complete Main
  116. Default                                  : No
  117. Forced                                   : No

  118. Text #1
  119. ID                                       : 6
  120. Format                                   : PGS
  121. Muxing mode                              : zlib
  122. Codec ID                                 : S_HDMV/PGS
  123. Codec ID/Info                            : Picture based subtitle format used on BDs/HD-DVDs
  124. Duration                                 : 2 h 11 min
  125. Bit rate                                 : 44.8 kb/s
  126. Count of elements                        : 3790
  127. Stream size                              : 42.3 MiB (0%)
  128. Title                                    : English-PGS
  129. Language                                 : English
  130. Default                                  : Yes
  131. Forced                                   : No

  132. Text #2
  133. ID                                       : 7
  134. Format                                   : PGS
  135. Muxing mode                              : zlib
  136. Codec ID                                 : S_HDMV/PGS
  137. Codec ID/Info                            : Picture based subtitle format used on BDs/HD-DVDs
  138. Duration                                 : 2 h 21 min
  139. Bit rate                                 : 27.2 kb/s
  140. Count of elements                        : 2820
  141. Stream size                              : 27.4 MiB (0%)
  142. Title                                    : French-PGS
  143. Language                                 : French
  144. Default                                  : No
  145. Forced                                   : No

  146. Text #3
  147. ID                                       : 8
  148. Format                                   : PGS
  149. Muxing mode                              : zlib
  150. Codec ID                                 : S_HDMV/PGS
  151. Codec ID/Info                            : Picture based subtitle format used on BDs/HD-DVDs
  152. Duration                                 : 2 h 21 min
  153. Bit rate                                 : 30.3 kb/s
  154. Count of elements                        : 2324
  155. Stream size                              : 30.6 MiB (0%)
  156. Title                                    : Dutch-PGS
  157. Language                                 : Dutch
  158. Default                                  : No
  159. Forced                                   : No

  160. Menu
  161. 00:00:00.000                             : en:Chapter 01
  162. 00:00:09.009                             : en:Chapter 02
  163. 00:01:40.934                             : en:Chapter 03
  164. 00:03:47.810                             : en:Chapter 04
  165. 00:06:42.944                             : en:Chapter 05
  166. 00:08:26.714                             : en:Chapter 06
  167. 00:10:04.687                             : en:Chapter 07
  168. 00:12:48.142                             : en:Chapter 08
  169. 00:13:53.999                             : en:Chapter 09
  170. 00:15:17.416                             : en:Chapter 10
  171. 00:17:13.157                             : en:Chapter 11
  172. 00:19:25.414                             : en:Chapter 12
  173. 00:21:28.578                             : en:Chapter 13
  174. 00:25:27.692                             : en:Chapter 14
  175. 00:27:14.883                             : en:Chapter 15
  176. 00:30:41.548                             : en:Chapter 16
  177. 00:35:49.230                             : en:Chapter 17
  178. 00:41:37.578                             : en:Chapter 18
  179. 00:43:15.259                             : en:Chapter 19
  180. 00:45:28.350                             : en:Chapter 20
  181. 00:48:24.192                             : en:Chapter 21
  182. 00:54:37.565                             : en:Chapter 22
  183. 00:58:49.192                             : en:Chapter 23
  184. 01:02:54.771                             : en:Chapter 24
  185. 01:06:22.895                             : en:Chapter 25
  186. 01:09:54.607                             : en:Chapter 26
  187. 01:13:07.383                             : en:Chapter 27
  188. 01:18:23.615                             : en:Chapter 28
  189. 01:23:41.224                             : en:Chapter 29
  190. 01:27:03.301                             : en:Chapter 30
  191. 01:30:23.126                             : en:Chapter 31
  192. 01:35:00.820                             : en:Chapter 32
  193. 01:38:47.880                             : en:Chapter 33
  194. 01:40:36.196                             : en:Chapter 34
  195. 01:43:03.135                             : en:Chapter 35
  196. 01:45:27.863                             : en:Chapter 36
  197. 01:48:48.480                             : en:Chapter 37
  198. 01:53:27.634                             : en:Chapter 38
  199. 01:55:30.757                             : en:Chapter 39
  200. 01:59:02.760                             : en:Chapter 40
  201. 02:01:37.748                             : en:Chapter 41
  202. 02:05:20.429                             : en:Chapter 42
  203. 02:09:43.150                             : en:Chapter 43
  204. 02:12:25.896                             : en:Chapter 44
复制代码

星球大战9:天行者崛起 Star.Wars.Episode.IX.The.Rise.of.Skywalker.2019.1080p.3D.BluRay.Half-SBS.x264.TrueHD.7.1.Atmos-FGT 23.03GB-2.png 星球大战9:天行者崛起 Star.Wars.Episode.IX.The.Rise.of.Skywalker.2019.1080p.3D.BluRay.Half-SBS.x264.TrueHD.7.1.Atmos-FGT 23.03GB-3.png 星球大战9:天行者崛起 Star.Wars.Episode.IX.The.Rise.of.Skywalker.2019.1080p.3D.BluRay.Half-SBS.x264.TrueHD.7.1.Atmos-FGT 23.03GB-4.png






回复

使用道具 举报

发表于 2020-4-23 16:18:35 | 显示全部楼层
好东西,等了好久
回复 支持 反对

使用道具 举报

发表于 2020-4-23 21:26:25 | 显示全部楼层
不错的片子
回复 支持 反对

使用道具 举报

发表于 2020-4-27 16:14:50 | 显示全部楼层
这片子其实不错没有让我失望
回复 支持 反对

使用道具 举报

发表于 2020-4-28 06:35:44 | 显示全部楼层

这片子其实不错没有让我失望
回复 支持 反对

使用道具 举报

 成长值: 1870

发表于 2020-5-7 21:41:18 | 显示全部楼层
谢谢楼主分享
回复 支持 反对

使用道具 举报

懒得打字嘛,点击右侧快捷回复 【右侧内容,后台自定义】
您需要登录后才可以回帖 登录 | 立即加入

本版积分规则

现在加入蓝光电影网,注册一个账号
上个主题 下个主题 快速回复 收藏帖子 返回列表 客服中心 搜索

手机版|小黑屋| 蓝光电影网 |网站地图 

Copyright © 2015-2019 Comsenz Inc.  Template by 蓝光电影论坛 All Rights Reserved.

Powered by 蓝光电影网 X3.4

特别声明:本站所有资源均由网上收集而来,版权归原影音公司所有,如果侵犯了你的权益,请通知我们,我们会及时删除侵权内容.

快速回复 返回顶部 返回列表