找回密码

查看: 1887|回复: 1

[剧情] 亲爱的克拉拉 Geliebte.Clara.2008.1080p.BluRay.x264-LCHD 7.94GB

[复制链接]
蓝光币
1917
发表于 2020-4-21 16:47:21 | 显示全部楼层 |阅读模式
p726997320.jpg

译  名 亲爱的克拉拉 / Chère Clara / Clara / 克拉娜 / 克拉拉 / 克拉拉·舒曼 / 琴坛恋曲 / 琴恋克拉拉
片  名 Geliebte Clara
年  代 2008
产  地 德国 / 法国 / 匈牙利
类  别 剧情 / 音乐 / 列传
语  言 德语
上映日期 2008-12-04
IMDb评分  5.8/10 from 249 users
IMDb链接  https://www.imdb.com/title/tt0177636
豆瓣评分 6.3/10 from 1156 users
豆瓣链接 https://movie.douban.com/subject/1764800/
片  长 Germany: 107 分钟
导  演 Helma Sanders-Brahms
编  剧 Nicole-Lise Bernheim / Helma Sanders-Brahms / Colo Tavernier
主  演 Martina Gedeck
       Malik Zidi
       Pascal Greggory


标  签 列传 | 音乐 | 德国 | 德国电影 | Brahms | Schuman | 法国 | 剧情

简  介  

  故事发生在十九世纪的德国,文艺复兴和浪漫主义的怒潮囊括而来,举国高低都满盈着剧烈而又狂热的氛围。克拉拉(马蒂娜·戈黛特 Martina Gedeck 饰)就生活在这样一种布满了艺术气味的情况中。克拉拉是一位音乐艺术家,成名很早的她年仅11岁便举行了自己的合奏会。
  在和舒曼(帕斯卡·格里高利 Pascal Greggory 饰)成婚后,克拉拉举家迁往了杜塞尔多夫假寓,在那边,克拉拉和勃拉姆斯(马立克·兹迪 Malik Zidi 饰)相遇了。对于克拉拉来说,婚后的生活并不快意,经济的拮据和多病的丈夫让她负担着庞大的压力,而克拉拉对于音乐的酷爱又不答应她将其放弃满身心的投入抵家庭当中。在割裂而又疾苦的生活中,只要勃拉姆斯的存在可以让她感应暖和和欢畅。
  1. Video
  2. ID                                       : 1
  3. Format                                   : AVC
  4. Format/Info                              : Advanced Video Codec
  5. Format profile                           : High@L4
  6. Format settings                          : CABAC / 4 Ref Frames
  7. Format settings, CABAC                   : Yes
  8. Format settings, Reference frames        : 4 frames
  9. Codec ID                                 : V_MPEG4/ISO/AVC
  10. Duration                                 : 1 h 44 min
  11. Bit rate                                 : 9 375 kb/s
  12. Width                                    : 1 920 pixels
  13. Height                                   : 1 080 pixels
  14. Display aspect ratio                     : 16:9
  15. Frame rate mode                          : Constant
  16. Frame rate                               : 23.976 (24000/1001/189150) FPS
  17. Color space                              : YUV
  18. Chroma subsampling                       : 4:2:0
  19. Bit depth                                : 8 bits
  20. Scan type                                : Progressive
  21. Bits/(Pixel*Frame)                       : 0.189
  22. Stream size                              : 6.68 GiB (84%)
  23. Writing library                          : x264 core 100 r1659 57b2e56
  24. Encoding settings                        : cabac=1 / ref=4 / deblock=1:-1:-1 / analyse=0x3:0x113 / me=umh / subme=7 / psy=1 / psy_rd=1.00:0.00 / mixed_ref=1 / me_range=16 / chroma_me=1 / trellis=1 / 8x8dct=1 / cqm=0 / deadzone=21,11 / fast_pskip=1 / chroma_qp_offset=-2 / threads=12 / sliced_threads=0 / nr=0 / decimate=1 / interlaced=0 / constrained_intra=0 / bframes=3 / b_pyramid=2 / b_adapt=2 / b_bias=0 / direct=3 / weightb=1 / open_gop=0 / weightp=2 / keyint=250 / keyint_min=25 / scenecut=40 / intra_refresh=0 / rc_lookahead=40 / rc=2pass / mbtree=1 / bitrate=9375 / ratetol=1.0 / qcomp=0.60 / qpmin=10 / qpmax=51 / qpstep=4 / cplxblur=20.0 / qblur=0.5 / vbv_maxrate=50000 / vbv_bufsize=50000 / ip_ratio=1.40 / aq=1:1.00 / nal_hrd=none
  25. Language                                 : German
  26. Default                                  : Yes
  27. Forced                                   : Yes

  28. Audio
  29. ID                                       : 2
  30. Format                                   : DTS
  31. Format/Info                              : Digital Theater Systems
  32. Codec ID                                 : A_DTS
  33. Duration                                 : 1 h 44 min
  34. Bit rate mode                            : Constant
  35. Bit rate                                 : 1 509 kb/s
  36. Channel(s)                               : 6 channels
  37. Channel layout                           : C L R Ls Rs LFE
  38. Sampling rate                            : 48.0 kHz
  39. Frame rate                               : 93.750 FPS (512 SPF)
  40. Bit depth                                : 16 bits
  41. Compression mode                         : Lossy
  42. Stream size                              : 1.10 GiB (14%)
  43. Language                                 : German
  44. Default                                  : Yes
  45. Forced                                   : Yes

  46. Text
  47. ID                                       : 3
  48. Format                                   : UTF-8
  49. Codec ID                                 : S_TEXT/UTF8
  50. Codec ID/Info                            : UTF-8 Plain Text
  51. Language                                 : English
  52. Default                                  : Yes
  53. Forced                                   : No
复制代码

亲爱的克拉拉 Geliebte.Clara.2008.1080p.BluRay.x264-LCHD 7.94GB-1.png 亲爱的克拉拉 Geliebte.Clara.2008.1080p.BluRay.x264-LCHD 7.94GB-2.png 亲爱的克拉拉 Geliebte.Clara.2008.1080p.BluRay.x264-LCHD 7.94GB-3.png






回复

使用道具 举报

懒得打字嘛,点击右侧快捷回复 【右侧内容,后台自定义】
您需要登录后才可以回帖 登录 | 立即加入

本版积分规则

Archiver| |网站地图

Copyright © 2024 Comsenz Inc. Powered by 蓝光电影网

本站内容由用户自主分享和转载自互联网,转载目的在于传递更多信息,并不代表本网赞同其观点和对其真实性负责。

如有侵权、违反国家法律政策行为,请联系我们,我们会第一时间及时清除和处理!

举报反馈邮箱:4k1080.com@gmail.com

快速回复 返回顶部 返回列表