找回密码

蓝光电影网

查看: 252|回复: 2

朱朱宠物 Quest.for.Zhu.2011.3D.1080p.BluRay.x264-GUACAMOLE 5.47GB

[复制链接]

 成长值: 26200

发表于 2020-4-17 08:53:50 | 显示全部楼层 |阅读模式
朱朱宠物 Quest.for.Zhu.2011.3D.1080p.BluRay.x264-GUACAMOLE 5.47GB-1.png

译  名 朱朱宠物
片  名 Quest For Zhu
年  代 2011
产  地 美国
类  别 剧情 / 动画
语  言 英语
IMDb评分  4.3/10 from 163 users
IMDb链接  https://www.imdb.com/title/tt2073154
豆瓣评分 4.2/10 from 37 users
豆瓣链接 https://movie.douban.com/subject/6887899/
片  长 72分钟
导  演 Bob Doucette

标  签 动画 | 美国 | 家庭 | 走马观花 | 2011 | ? | 蓝光 | 美国电影

简  介  

  这是一个温馨的故事。四个充满活力的小动物(仓鼠)应邀去寻找朱朱宫殿。他们相信他们梦想在那儿会得到实现。被卷到朱朱世界的活泼可爱的点点也加入了探险队伍。在她的冒险旅途中,她朋友般的照顾小胖,囡囡和弯弯。
  当他们到达朱朱宫殿的时候,他们意识到这只是他们伟大旅行的开始。卑鄙的,有控制欲的爬行动物——蛇妖想要阻止他们实现梦想。但是他们同心协力,他们——朱朱英雄拯救了世界!点点意识到她已经拥有了她梦想的一切,而她真正想要的就是回家。
  1. Video
  2. ID                                       : 1
  3. Format                                   : AVC
  4. Format/Info                              : Advanced Video Codec
  5. Format profile                           : High@L4
  6. Format settings                          : CABAC / 4 Ref Frames
  7. Format settings, CABAC                   : Yes
  8. Format settings, Reference frames        : 4 frames
  9. Codec ID                                 : V_MPEG4/ISO/AVC
  10. Duration                                 : 1 h 12 min
  11. Bit rate                                 : 9 215 kb/s
  12. Width                                    : 1 920 pixels
  13. Height                                   : 1 080 pixels
  14. Display aspect ratio                     : 16:9
  15. Frame rate mode                          : Constant
  16. Frame rate                               : 23.976 FPS
  17. Color space                              : YUV
  18. Chroma subsampling                       : 4:2:0
  19. Bit depth                                : 8 bits
  20. Scan type                                : Progressive
  21. Bits/(Pixel*Frame)                       : 0.185
  22. Stream size                              : 4.70 GiB (86%)
  23. Writing library                          : x264 core 159 r2991 1771b55
  24. Encoding settings                        : cabac=1 / ref=4 / deblock=1:-1:-1 / analyse=0x3:0x113 / me=umh / subme=8 / psy=1 / psy_rd=1.00:0.00 / mixed_ref=1 / me_range=16 / chroma_me=1 / trellis=2 / 8x8dct=1 / cqm=0 / deadzone=21,11 / fast_pskip=0 / chroma_qp_offset=-2 / threads=24 / lookahead_threads=4 / sliced_threads=0 / nr=0 / decimate=1 / interlaced=0 / bluray_compat=0 / constrained_intra=0 / bframes=5 / b_pyramid=2 / b_adapt=1 / b_bias=0 / direct=3 / weightb=1 / open_gop=0 / weightp=1 / keyint=250 / keyint_min=23 / scenecut=40 / intra_refresh=0 / rc_lookahead=40 / rc=2pass / mbtree=1 / bitrate=9215 / ratetol=1.0 / qcomp=0.60 / qpmin=0 / qpmax=69 / qpstep=4 / cplxblur=20.0 / qblur=0.5 / ip_ratio=1.40 / aq=1:1.00
  25. Language                                 : English
  26. Default                                  : Yes
  27. Forced                                   : No

  28. Audio
  29. ID                                       : 2
  30. Format                                   : DTS
  31. Format/Info                              : Digital Theater Systems
  32. Codec ID                                 : A_DTS
  33. Duration                                 : 1 h 12 min
  34. Bit rate mode                            : Constant
  35. Bit rate                                 : 1 509 kb/s
  36. Channel(s)                               : 6 channels
  37. Channel layout                           : C L R Ls Rs LFE
  38. Sampling rate                            : 48.0 kHz
  39. Frame rate                               : 93.750 FPS (512 SPF)
  40. Bit depth                                : 24 bits
  41. Compression mode                         : Lossy
  42. Stream size                              : 787 MiB (14%)
  43. Language                                 : English
  44. Default                                  : Yes
  45. Forced                                   : No

  46. Menu
  47. 00:00:00.000                             : :Kapitel 01
  48. 00:05:08.183                             : :Kapitel 02
  49. 00:10:06.105                             : :Kapitel 03
  50. 00:15:08.866                             : :Kapitel 04
  51. 00:19:25.081                             : :Kapitel 05
  52. 00:27:14.424                             : :Kapitel 06
  53. 00:35:49.773                             : :Kapitel 07
  54. 00:41:24.273                             : :Kapitel 08
  55. 00:51:00.808                             : :Kapitel 09
  56. 01:01:51.958                             : :Kapitel 10
  57. 01:06:41.122                             : :Kapitel 11
  58. 01:08:33.735                             : :Kapitel 12
复制代码

朱朱宠物 Quest.for.Zhu.2011.3D.1080p.BluRay.x264-GUACAMOLE 5.47GB-2.png






回复

使用道具 举报

发表于 2020-4-20 14:05:40 | 显示全部楼层
楼主发贴辛苦了,谢谢楼主分享!我觉得蓝光电影网是注册对了!
回复 支持 反对

使用道具 举报

发表于 2020-4-24 16:22:04 | 显示全部楼层

楼主太厉害了!楼主,电影应该很好看我觉得蓝光电影网真是个好地方!
回复 支持 反对

使用道具 举报

懒得打字嘛,点击右侧快捷回复 【右侧内容,后台自定义】
您需要登录后才可以回帖 登录 | 立即加入

本版积分规则

现在加入蓝光电影网,注册一个账号
上个主题 下个主题 快速回复 收藏帖子 返回列表 客服中心 搜索

手机版|小黑屋| 蓝光电影网 |网站地图 

Copyright © 2015-2019 Comsenz Inc.  Template by 蓝光电影论坛 All Rights Reserved.

Powered by 蓝光电影网 X3.4

特别声明:本站所有资源均由网上收集而来,版权归原影音公司所有,如果侵犯了你的权益,请通知我们,我们会及时删除侵权内容.

快速回复 返回顶部 返回列表