找回密码

蓝光电影网

查看: 520|回复: 0

[进击的巨人/Attack.On.Titan 第一季][全25集打包][日语无中字][MKV][1080P]

[复制链接]

 成长值: 27265

发表于 2020-4-4 01:44:03 | 显示全部楼层 |阅读模式
[进击的巨人/Attack.On.Titan 第一季][全25集打包][日语无中字][MKV][1080P]-1.jpg




译  名 进击的巨人/ShingekinoKyojin

片  名 進撃の巨人

年  代 2013

产  地 日本

类  别 动作/科幻/动画/灾难

语  言 日语

上映日期 2013-04-06(日本)

片  长 24分钟

导  演 荒木哲郎 Tetsuro Araki

主  演 梶裕贵 Yûki Kaji

      石川由依 Ishikawa Yui

      井上麻里奈 Marina Inoue

      小野大辅 Daisuke Ono

      神谷浩史 Hiroshi Kamiya

      朴璐美 Romi Pak

      细谷佳正 Hosoya Yoshimasa

      橋詰知久

      谷山纪章 Kishô Taniyama

      下野纮 Hiro Shimono

      小林优 Yu Kobayashi

      三上枝織 Shiori Mikami

      藤田咲 Saki Fujita

      三宅健太 Kenta Miyake

      嶋村侑 Yu Shimamura

      逢坂良太 Ryota Ohsaka

      藤原启治 Keiji Fujiwara




简  介




  曾几何时,世界上突然出现无数身形庞大的巨人,普通人类的生命受到前所未有的威胁。为了保护自身安全,最后的人类筑起三座高墙:玛莉亚、露丝和希娜。人类迎来了长达一个世纪的和平岁月,却也让自己成为圈养在笼中的鸟儿,屈辱地失去自由。845年,高达60米的超大型巨人和铠之巨人登场, 摧毁了最外层的玛莉亚之壁,也惊醒了人类似乎永远不会苏醒的长梦。在此事件中,不愿蜷缩在墙内的少年艾伦·耶格尔(梶裕贵 配音)亲眼目睹母亲遇害,由此更坚定了他加入调查兵团的决心。在此之后,艾伦和青梅竹马三笠·阿克曼(石川由依 配音)、好友阿尔敏·亚鲁雷特(井上麻里奈 配音)加入第104期训练兵团,发誓成为足以消灭所有巨人的英勇战士。百年的和平结束,人类和巨人的战争再度拉开序幕……

  本片根据谏山创的同名原作改编。





  1. Video
  2. ID : 1
  3. Format : AVC
  4. Format/Info : Advanced Video Codec
  5. Format profile : High@L4
  6. Format settings : CABAC / 4 Ref Frames
  7. Format settings, CABAC : Yes
  8. Format settings, ReFrames : 4 frames
  9. Codec ID : V_MPEG4/ISO/AVC
  10. Duration : 24 min 12 s
  11. Bit rate : 5 814 kb/s
  12. Width : 1 920 pixels
  13. Height : 1 080 pixels
  14. Display aspect ratio : 16:9
  15. Frame rate mode : Constant
  16. Frame rate : 23.976 (24000/1001) FPS
  17. Color space : YUV
  18. Chroma subsampling : 4:2:0
  19. Bit depth : 8 bits
  20. Scan type : Progressive
  21. Bits/(Pixel*Frame) : 0.117
  22. Stream size : 1 008 MiB (90%)
  23. Writing library : x264 core 142 r2431 ac76440
  24. Encoding settings : cabac=1 / ref=4 / deblock=1:0:0 / analyse=0x3:0x133 / me=umh / subme=7 / psy=1 / psy_rd=1.00:0.00 / mixed_ref=1 / me_range=16 / chroma_me=1 / trellis=1 / 8x8dct=1 / cqm=0 / deadzone=21,11 / fast_pskip=0 / chroma_qp_offset=-2 / threads=6 / lookahead_threads=1 / sliced_threads=0 / nr=0 / decimate=1 / interlaced=0 / bluray_compat=0 / constrained_intra=0 / bframes=3 / b_pyramid=2 / b_adapt=2 / b_bias=0 / direct=3 / weightb=1 / open_gop=0 / weightp=2 / keyint=240 / keyint_min=23 / scenecut=40 / intra_refresh=0 / rc_lookahead=50 / rc=2pass / mbtree=1 / bitrate=5814 / ratetol=1.0 / qcomp=0.60 / qpmin=0 / qpmax=69 / qpstep=4 / cplxblur=20.0 / qblur=0.5 / ip_ratio=1.40 / aq=1:1.00
  25. Language : English
  26. Default : Yes
  27. Forced : No

  28. Audio #1
  29. ID : 2
  30. Format : AC-3
  31. Format/Info : Audio Coding 3
  32. Codec ID : A_AC3
  33. Duration : 24 min 12 s
  34. Bit rate mode : Constant
  35. Bit rate : 192 kb/s
  36. Channel(s) : 2 channels
  37. Channel positions : Front: L R
  38. Sampling rate : 48.0 kHz
  39. Frame rate : 31.250 FPS (1536 SPF)
  40. Bit depth : 16 bits
  41. Compression mode : Lossy
  42. Stream size : 33.2 MiB (3%)
  43. Language : Japanese
  44. Service kind : Complete Main
  45. Default : Yes
  46. Forced : No

  47. Audio #2
  48. ID : 3
  49. Format : AC-3
  50. Format/Info : Audio Coding 3
  51. Codec ID : A_AC3
  52. Duration : 24 min 12 s
  53. Bit rate mode : Constant
  54. Bit rate : 448 kb/s
  55. Channel(s) : 6 channels
  56. Channel positions : Front: L C R, Side: L R, LFE
  57. Sampling rate : 48.0 kHz
  58. Frame rate : 31.250 FPS (1536 SPF)
  59. Bit depth : 16 bits
  60. Compression mode : Lossy
  61. Stream size : 77.5 MiB (7%)
  62. Language : English
  63. Service kind : Complete Main
  64. Default : No
  65. Forced : No

  66. Text #1
  67. ID : 4
  68. Format : UTF-8
  69. Codec ID : S_TEXT/UTF8
  70. Codec ID/Info : UTF-8 Plain Text
  71. Duration : 23 min 54 s
  72. Bit rate : 71 b/s
  73. Count of elements : 351
  74. Stream size : 12.5 KiB (0%)
  75. Title : Full
  76. Language : English
  77. Default : Yes
  78. Forced : Yes

  79. Text #2
  80. ID : 5
  81. Format : UTF-8
  82. Codec ID : S_TEXT/UTF8
  83. Codec ID/Info : UTF-8 Plain Text
  84. Duration : 23 min 35 s
  85. Bit rate : 6 b/s
  86. Count of elements : 22
  87. Stream size : 1.12 KiB (0%)
  88. Title : Forced
  89. Language : English
  90. Default : No
  91. Forced : No
复制代码





[进击的巨人/Attack.On.Titan 第一季][全25集打包][日语无中字][MKV][1080P]-2.jpg [进击的巨人/Attack.On.Titan 第一季][全25集打包][日语无中字][MKV][1080P]-3.jpg






回复

使用道具 举报

懒得打字嘛,点击右侧快捷回复 【右侧内容,后台自定义】
您需要登录后才可以回帖 登录 | 立即加入

本版积分规则

现在加入蓝光电影网,注册一个账号
上个主题 下个主题 快速回复 收藏帖子 返回列表 客服中心 搜索

手机版|小黑屋| 蓝光电影网 |网站地图 

Copyright © 2015-2019 Comsenz Inc.  Template by 蓝光电影论坛 All Rights Reserved.

Powered by 蓝光电影网 X3.4

特别声明:本站所有资源均由网上收集而来,版权归原影音公司所有,如果侵犯了你的权益,请通知我们,我们会及时删除侵权内容.

快速回复 返回顶部 返回列表