找回密码

查看: 1270|回复: 1

[剧情] 梦想阿根廷/想象阿根廷 Imagining.Argentina.2003.1080p.AMZN.WEBRip.DDP5.1.x264-monkee 7.94GB

[复制链接]
蓝光币
1971
发表于 2020-3-4 00:41:16 | 显示全部楼层 |阅读模式
胡想阿根廷/设想阿根廷 Imagining.Argentina.2003.1080p.AMZN.WEBRip.DDP5.1.x264-monkee 7.94GB-1.png

译  名 胡想阿根廷 / 设想阿根廷 / 救济风暴(台)
片  名 Imagining Argentina
年  代 2003
产  地 西班牙 / 英国 / 美国
类  别 剧情 / 恋爱 / 惊悚
语  言 英语 / 西班牙语
上映日期 2003-09-12(意大利) / 2004-04-16(西班牙)
IMDb评分  6.2/10 from 3154 users
IMDb链接  https://www.imdb.com/title/tt0314197
豆瓣评分 7.5/10 from 552 users
豆瓣链接 https://movie.douban.com/subject/1308389/
片  长 107分钟
导  演 克里斯托弗·汉普顿 Christopher Hampton
编  剧 克里斯托弗·汉普顿 Christopher Hampton / Lawrence Thornton
主  演 安东尼奥·班德拉斯 Antonio Banderas
       艾玛·汤普森 Emma Thompson
       玛丽亚·卡纳尔斯-巴雷拉 Maria Canals-Barrera
       卢宾·布雷兹 Rubén Blades
       拉蒂西亚·多瑞拉 Leticia Dolera
       伊琳娜·埃斯柯拉 Irene Escolar
       费尔南多·提尔弗 Fernando Tielve
       Hector Bordoni
       Carlos Kaniowsky
       Stella Maris
       Concha Hidalgo
       Ana Gracia
       Horacio Obón
       Amparo Valle
       Cielo Verano
       库诺·贝克 Kuno Becker
       Dan Trugman
       安东·莱瑟 Anton Lesser
       约翰·伍德 John Wood
       克莱尔·布鲁姆 Claire Bloom
       Marzenka Novak
       Ernesto Hernández
       Eusebio Lázaro
       Sara Fernández
       Leonardo Azamor
       Rubén Laperuta
       Mariana Seligmann
       何塞·格鲁斯曼 José Glusman
       Gonzalo San Martín
       Alejandro Ares
       Abian Vainstein
       Héctor Malamud


标  签 阿根廷 | 安东尼奥·班德拉斯 | 美国 | EmmaThompson | 西班牙 | 恋爱 | AntonioBanderas | 历史

简  介  

  故事发生在风光如诗如画的阿根廷布宜诺斯艾利斯。卡洛斯(安东尼奥·班德拉斯 Antonio Banderas 饰)是一位剧作家,由于创作过几个成功的剧本而具有着不小的名望。卡洛斯和妻子西西莉亚(艾玛·汤普森 Emma Thompson 饰)成婚多年,两人之间的豪情一向非常恩爱。西西莉亚是一位记者,在业内小著名望,她和卡洛斯一向被朋友们视为一对金童玉女,非常相配。
  但是某一日,由于所撰写的消息稿触痛了政府者敏感的政治神经,西西莉亚被奥秘的抓紧了集合营中。妻子生死未卜,卡洛斯堕入了失望和疾苦当中,他愿意支出一切价格,让妻子重新回到他的身旁。希奇的是,自打西西莉亚失落后,卡洛斯发现自己获得了一项特异功用——可以经过那些和西西莉亚一样遭到奥秘拘系的人们的照片中发现他们的着落。

获奖情况  

  第60届威尼斯电影节(2003)
  主比赛单元 金狮奖 (提名) 克里斯托弗·汉普顿
  1. Video
  2. ID                                       : 1
  3. Format                                   : AVC
  4. Format/Info                              : Advanced Video Codec
  5. Format profile                           : High@L4
  6. Format settings                          : CABAC / 4 Ref Frames
  7. Format settings, CABAC                   : Yes
  8. Format settings, Reference frames        : 4 frames
  9. Codec ID                                 : V_MPEG4/ISO/AVC
  10. Duration                                 : 1 h 48 min
  11. Bit rate mode                            : Constant
  12. Bit rate                                 : 10 000 kb/s
  13. Width                                    : 1 920 pixels
  14. Height                                   : 1 040 pixels
  15. Display aspect ratio                     : 1.85:1
  16. Frame rate mode                          : Constant
  17. Frame rate                               : 23.976 (24000/1001/189150) FPS
  18. Color space                              : YUV
  19. Chroma subsampling                       : 4:2:0
  20. Bit depth                                : 8 bits
  21. Scan type                                : Progressive
  22. Bits/(Pixel*Frame)                       : 0.209
  23. Stream size                              : 7.46 GiB (94%)
  24. Language                                 : English
  25. Default                                  : Yes
  26. Forced                                   : No
  27. Color range                              : Limited
  28. Color primaries                          : BT.709
  29. Transfer characteristics                 : BT.709
  30. Matrix coefficients                      : BT.709

  31. Audio
  32. ID                                       : 2
  33. Format                                   : E-AC-3
  34. Format/Info                              : Enhanced AC-3
  35. Commercial name                          : Dolby Digital Plus
  36. Codec ID                                 : A_EAC3
  37. Duration                                 : 1 h 48 min
  38. Bit rate mode                            : Constant
  39. Bit rate                                 : 640 kb/s
  40. Channel(s)                               : 6 channels
  41. Channel layout                           : L R C LFE Ls Rs
  42. Sampling rate                            : 48.0 kHz
  43. Frame rate                               : 31.250 FPS (1536 SPF)
  44. Compression mode                         : Lossy
  45. Stream size                              : 494 MiB (6%)
  46. Language                                 : English
  47. Service kind                             : Complete Main
  48. Default                                  : Yes
  49. Forced                                   : No

  50. Text
  51. ID                                       : 3
  52. Format                                   : UTF-8
  53. Codec ID                                 : S_TEXT/UTF8
  54. Codec ID/Info                            : UTF-8 Plain Text
  55. Duration                                 : 1 h 43 min
  56. Bit rate                                 : 37 b/s
  57. Count of elements                        : 1062
  58. Stream size                              : 28.5 KiB (0%)
  59. Title                                    : SDH
  60. Language                                 : English
  61. Default                                  : No
  62. Forced                                   : No
复制代码

胡想阿根廷/设想阿根廷 Imagining.Argentina.2003.1080p.AMZN.WEBRip.DDP5.1.x264-monkee 7.94GB-2.png 胡想阿根廷/设想阿根廷 Imagining.Argentina.2003.1080p.AMZN.WEBRip.DDP5.1.x264-monkee 7.94GB-3.png 胡想阿根廷/设想阿根廷 Imagining.Argentina.2003.1080p.AMZN.WEBRip.DDP5.1.x264-monkee 7.94GB-4.png






回复

使用道具 举报

懒得打字嘛,点击右侧快捷回复 【右侧内容,后台自定义】
您需要登录后才可以回帖 登录 | 立即加入

本版积分规则

Archiver| |网站地图

Copyright © 2024 Comsenz Inc. Powered by 蓝光电影网

本站内容由用户自主分享和转载自互联网,转载目的在于传递更多信息,并不代表本网赞同其观点和对其真实性负责。

如有侵权、违反国家法律政策行为,请联系我们,我们会第一时间及时清除和处理!

举报反馈邮箱:4k1080.com@gmail.com

快速回复 返回顶部 返回列表