找回密码

蓝光电影网

查看: 278|回复: 3

[10bit.SDR] 美女与野兽 Beauty.and.the.Beast.2017.2160p.BluRay.x265.10bit.SDR.DTS-HD.MA.TrueHD.7.1.Atmos-SWTYBLZ 26.63GB

[复制链接]

 成长值: 25360

发表于 2020-3-1 17:16:46 | 显示全部楼层 |阅读模式
美女与野兽 Beauty.and.the.Beast.2017.2160p.BluRay.x265.10bit.SDR.DTS-HD.MA.TrueHD.7.1.Atmos-SWTYBLZ 26.63GB-1.png

译  名 美女与野兽
片  名 Beauty and the Beast
年  代 2017
产  地 美国
类  别 爱情 / 歌舞 / 奇幻
语  言 英语
上映日期 2017-03-17(中国大陆/美国)
IMDb评分  7.1/10 from 254094 users
IMDb链接  https://www.imdb.com/title/tt2771200
豆瓣评分 7.1/10 from 290748 users
豆瓣链接 https://movie.douban.com/subject/25900945/
片  长 129分钟
导  演 比尔·康顿 Bill Condon
编  剧 斯蒂芬·切波斯基 Stephen Chbosky / 埃文·斯彼里奥托普洛斯 Evan Spiliotopoulos / 琳达·伍尔芙顿 Linda Woolverton / Jeanne-Marie Leprince de Beaumont
主  演 艾玛·沃森 Emma Watson
       丹·史蒂文斯 Dan Stevens
       卢克·伊万斯 Luke Evans
       凯文·克莱恩 Kevin Kline
       乔什·盖德 Josh Gad
       伊万·麦克格雷格 Ewan McGregor
       伊恩·麦克莱恩 Ian McKellen
       艾玛·汤普森 Emma Thompson
       斯坦利·图齐 Stanley Tucci
       古古·姆巴塔-劳 Gugu Mbatha-Raw
       奥德拉·麦当娜 Audra McDonald
       内森·麦克 Nathan Mack
       哈蒂·莫拉汉 Hattie Morahan
       迈克尔·吉普森 Michael Jibson
       水野索诺娅 Sonoya Mizuno
       亨利·加勒特 Henry Garrett
       戴尔·布兰斯顿 Dale Branston


标  签 迪士尼 | 童话 | 爱情 | 歌舞 | 美国 | 奇幻 | 2017 | 魔幻

简  介  

  贝儿(艾玛·沃森 Emma Watson 饰)和小镇上的其他女孩不同,是一个热爱阅读和幻想的姑娘,孔武有力英俊强壮的加斯顿(卢克·伊万斯 Luke Evans 饰)发誓要娶贝儿为妻,但贝儿却一眼看穿了他的自私和虚伪,拒不从命。某日,贝儿的父亲莫里斯(凯文·克莱恩 Kevin Kline 饰)迷路误打误撞之下来到了一座荒凉破败的城堡中,那里居住着样貌可怖半人半兽的野兽(丹·史蒂文斯 Dan Stevens 饰)。
  因为偷摘了城堡里种植的玫瑰,莫里斯被野兽囚禁了起来,得知此消息的贝儿赶到城堡,要求和父亲作交换。就这样,贝儿开始了和野兽的同居生活。在会说话的茶壶太太(艾玛·汤普森 Emma Thompson 饰)、烛台卢米亚(伊万·麦克格雷格 Ewan McGregor 饰)和时钟葛士华(伊恩·麦克莱恩 Ian McKellen 饰)的照顾和帮助下,贝儿渐渐发现,野兽在丑陋的外表下,隐藏了一颗善良温柔的心。实际上,野兽的真实身份是一位王子,因受到了女巫的诅咒而沦落至此,而贝儿,是解除诅咒最后的,也是唯一的希望。

获奖情况  

  第90届奥斯卡金像奖(2018)
  最佳艺术指导(提名) 莎拉·格林伍德 / 凯蒂·斯宾塞
  最佳服装设计(提名) 杰奎琳·杜兰

  第71届英国电影学院奖(2018)
  电影奖 最佳服装设计(提名)
  电影奖 最佳艺术指导(提名)

  第41届日本电影学院奖(2018)
  最佳外语片(提名)

  第26届MTV电影奖(2017)
  MTV电影奖 年度电影
  MTV电影奖 最佳表演 艾玛·沃森
  MTV电影奖 最佳吻戏(提名) 艾玛·沃森 / 丹·史蒂文斯
  MTV电影奖 最佳银幕组合(提名) 卢克·伊万斯 / 乔什·加德

  第22届美国艺术指导工会奖(2018)
  电影奖 最佳幻想电影艺术指导(提名)

  第20届美国服装设计工会奖(2018)
  科幻/奇幻题材电影最佳服装设计(提名) 杰奎琳·杜兰

  第16届美国视觉效果协会奖(2018)
  最佳电影虚拟摄影(提名)

  第23届美国评论家选择电影奖(2018)
  最佳歌曲(提名)
  最佳美术指导(提名)
  最佳服装设计(提名)
  最佳发型化妆(提名)

  第22届金卫星奖(2018)
  电影部门 最佳服装设计(提名) 杰奎琳·杜兰

  第21届好莱坞电影奖(2017)
  年度服装设计 杰奎琳·杜兰
  年度化妆 珍妮·希尔科尔

  第30届芝加哥影评人协会奖(2017)
  最佳艺术指导(提名)

  第42届报知映画赏(2017)
  海外作品奖 比尔·康顿

  第4届豆瓣电影年度榜单(2017)
  3月最受关注电影(提名)
  1. Video
  2. ID                                       : 1
  3. Format                                   : HEVC
  4. Format/Info                              : High Efficiency Video Coding
  5. Format profile                           : Main High@L4@High
  6. Codec ID                                 : V_MPEGH/ISO/HEVC
  7. Duration                                 : 2 h 9 min
  8. Bit rate                                 : 19.6 Mb/s
  9. Width                                    : 3 840 pixels
  10. Height                                   : 1 606 pixels
  11. Display aspect ratio                     : 2.40:1
  12. Frame rate mode                          : Constant
  13. Frame rate                               : 23.976 (24000/1001) FPS
  14. Color space                              : YUV
  15. Chroma subsampling                       : 4:2:0
  16. Bit depth                                : 10 bits
  17. Bits/(Pixel*Frame)                       : 0.133
  18. Stream size                              : 17.7 GiB (67%)
  19. Title                                    : Beauty.and.the.Beast.2017.2160p.BluRay.x265.10bit.SDR.DTS-HD.MA.TrueHD.7.1.Atmos-SWTYBLZ
  20. Writing library                          : x265 3.0ed72af837053:[Windows][GCC 8.2.0][64 bit] 10bit
  21. Encoding settings                        : cpuid=1111039 / frame-threads=6 / numa-pools=40 / wpp / no-pmode / no-pme / no-psnr / no-ssim / log-level=2 / input-csp=1 / input-res=3840x1606 / interlace=0 / total-frames=185976 / level-idc=51 / high-tier=1 / uhd-bd=0 / ref=3 / no-allow-non-conformance / repeat-headers / annexb / aud / hrd / info / hash=0 / no-temporal-layers / no-open-gop / min-keyint=1 / keyint=24 / gop-lookahead=0 / bframes=4 / b-adapt=2 / b-pyramid / bframe-bias=0 / rc-lookahead=25 / lookahead-slices=4 / scenecut=40 / radl=0 / no-splice / no-intra-refresh / ctu=64 / min-cu-size=8 / no-rect / no-amp / max-tu-size=32 / tu-inter-depth=1 / tu-intra-depth=1 / limit-tu=0 / rdoq-level=0 / dynamic-rd=0.00 / no-ssim-rd / signhide / no-tskip / nr-intra=0 / nr-inter=0 / no-constrained-intra / strong-intra-smoothing / max-merge=2 / limit-refs=3 / no-limit-modes / me=1 / subme=2 / merange=57 / temporal-mvp / weightp / no-weightb / no-analyze-src-pics / deblock=0:0 / no-sao / no-sao-non-deblock / rd=3 / no-early-skip / rskip / no-fast-intra / no-tskip-fast / no-cu-lossless / no-b-intra / no-splitrd-skip / rdpenalty=0 / psy-rd=2.00 / psy-rdoq=0.00 / no-rd-refine / no-lossless / cbqpoffs=0 / crqpoffs=0 / rc=crf / crf=16.0 / qcomp=0.60 / qpstep=4 / stats-write=0 / stats-read=0 / vbv-maxrate=160000 / vbv-bufsize=160000 / vbv-init=0.9 / crf-max=0.0 / crf-min=0.0 / ipratio=1.40 / pbratio=1.30 / aq-mode=1 / aq-strength=1.00 / cutree / zone-count=0 / no-strict-cbr / qg-size=32 / no-rc-grain / qpmax=69 / qpmin=0 / no-const-vbv / sar=1 / overscan=0 / videoformat=5 / range=0 / colorprim=2 / transfer=2 / colormatrix=2 / chromaloc=0 / display-window=0 / max-cll=0,0 / min-luma=0 / max-luma=1023 / log2-max-poc-lsb=8 / vui-timing-info / vui-hrd-info / slices=1 / opt-qp-pps / opt-ref-list-length-pps / no-multi-pass-opt-rps / scenecut-bias=0.05 / no-opt-cu-delta-qp / no-aq-motion / no-hdr / no-hdr-opt / no-dhdr10-opt / no-idr-recovery-sei / analysis-reuse-level=5 / scale-factor=0 / refine-intra=0 / refine-inter=0 / refine-mv=0 / refine-ctu-distortion=0 / no-limit-sao / ctu-info=0 / no-lowpass-dct / refine-analysis-type=0 / copy-pic=1 / max-ausize-factor=1.0 / no-dynamic-refine / no-single-sei / no-hevc-aq / qp-adaptation-range=1.00
  22. Default                                  : Yes
  23. Forced                                   : No

  24. Audio #1
  25. ID                                       : 2
  26. Format                                   : MLP FBA 16-ch
  27. Format/Info                              : Meridian Lossless Packing FBA with 16-channel presentation
  28. Commercial name                          : Dolby TrueHD with Dolby Atmos
  29. Codec ID                                 : A_TRUEHD
  30. Duration                                 : 2 h 9 min
  31. Bit rate mode                            : Variable
  32. Bit rate                                 : 4 936 kb/s
  33. Maximum bit rate                         : 8 103 kb/s
  34. Channel(s)                               : 8 channels
  35. Channel layout                           : L R C LFE Ls Rs Lb Rb
  36. Sampling rate                            : 48.0 kHz
  37. Frame rate                               : 1 200.000 FPS (40 SPF)
  38. Compression mode                         : Lossless
  39. Stream size                              : 4.46 GiB (17%)
  40. Title                                    : Beauty.and.the.Beast.2017.2160p.BluRay.x265.10bit.SDR.DTS-HD.MA.TrueHD.7.1.Atmos-SWTYBLZ
  41. Language                                 : English
  42. Default                                  : Yes
  43. Forced                                   : No
  44. Number of dynamic objects                : 13
  45. Bed channel count                        : 1 channel
  46. Bed channel configuration                : LFE

  47. Audio #2
  48. ID                                       : 3
  49. Format                                   : DTS XLL
  50. Format/Info                              : Digital Theater Systems
  51. Commercial name                          : DTS-HD Master Audio
  52. Codec ID                                 : A_DTS
  53. Duration                                 : 2 h 9 min
  54. Bit rate mode                            : Variable
  55. Bit rate                                 : 4 075 kb/s
  56. Channel(s)                               : 8 channels
  57. Channel layout                           : C L R LFE Lb Rb Lss Rss
  58. Sampling rate                            : 48.0 kHz
  59. Frame rate                               : 93.750 FPS (512 SPF)
  60. Bit depth                                : 24 bits
  61. Compression mode                         : Lossless
  62. Stream size                              : 3.68 GiB (14%)
  63. Title                                    : Beauty.and.the.Beast.2017.2160p.BluRay.x265.10bit.SDR.DTS-HD.MA.TrueHD.7.1.Atmos-SWTYBLZ
  64. Language                                 : English
  65. Default                                  : No
  66. Forced                                   : No

  67. Audio #3
  68. ID                                       : 4
  69. Format                                   : AC-3
  70. Format/Info                              : Audio Coding 3
  71. Commercial name                          : Dolby Digital
  72. Codec ID                                 : A_AC3
  73. Duration                                 : 2 h 9 min
  74. Bit rate mode                            : Constant
  75. Bit rate                                 : 640 kb/s
  76. Channel(s)                               : 6 channels
  77. Channel layout                           : L R C LFE Ls Rs
  78. Sampling rate                            : 48.0 kHz
  79. Frame rate                               : 31.250 FPS (1536 SPF)
  80. Compression mode                         : Lossy
  81. Stream size                              : 592 MiB (2%)
  82. Title                                    : Beauty.and.the.Beast.2017.2160p.BluRay.x265.10bit.SDR.DTS-HD.MA.TrueHD.7.1.Atmos-SWTYBLZ
  83. Language                                 : English
  84. Service kind                             : Complete Main
  85. Default                                  : No
  86. Forced                                   : No

  87. Text #1
  88. ID                                       : 5
  89. Format                                   : UTF-8
  90. Codec ID                                 : S_TEXT/UTF8
  91. Codec ID/Info                            : UTF-8 Plain Text
  92. Duration                                 : 2 h 8 min
  93. Bit rate                                 : 48 b/s
  94. Count of elements                        : 1786
  95. Stream size                              : 45.8 KiB (0%)
  96. Title                                    : English-SRT
  97. Language                                 : English
  98. Default                                  : Yes
  99. Forced                                   : No

  100. Text #2
  101. ID                                       : 6
  102. Format                                   : PGS
  103. Muxing mode                              : zlib
  104. Codec ID                                 : S_HDMV/PGS
  105. Codec ID/Info                            : Picture based subtitle format used on BDs/HD-DVDs
  106. Duration                                 : 2 h 8 min
  107. Bit rate                                 : 36.8 kb/s
  108. Count of elements                        : 4050
  109. Stream size                              : 33.7 MiB (0%)
  110. Title                                    : English-PGS
  111. Language                                 : English
  112. Default                                  : No
  113. Forced                                   : No

  114. Text #3
  115. ID                                       : 7
  116. Format                                   : PGS
  117. Muxing mode                              : zlib
  118. Codec ID                                 : S_HDMV/PGS
  119. Codec ID/Info                            : Picture based subtitle format used on BDs/HD-DVDs
  120. Duration                                 : 2 h 1 min
  121. Bit rate                                 : 27.4 kb/s
  122. Count of elements                        : 3128
  123. Stream size                              : 23.9 MiB (0%)
  124. Title                                    : French-PGS
  125. Language                                 : French
  126. Default                                  : No
  127. Forced                                   : No

  128. Text #4
  129. ID                                       : 8
  130. Format                                   : PGS
  131. Muxing mode                              : zlib
  132. Codec ID                                 : S_HDMV/PGS
  133. Codec ID/Info                            : Picture based subtitle format used on BDs/HD-DVDs
  134. Duration                                 : 2 h 8 min
  135. Bit rate                                 : 32.5 kb/s
  136. Count of elements                        : 3448
  137. Stream size                              : 29.8 MiB (0%)
  138. Title                                    : French-PGS
  139. Language                                 : French
  140. Default                                  : No
  141. Forced                                   : No

  142. Text #5
  143. ID                                       : 9
  144. Format                                   : PGS
  145. Muxing mode                              : zlib
  146. Codec ID                                 : S_HDMV/PGS
  147. Codec ID/Info                            : Picture based subtitle format used on BDs/HD-DVDs
  148. Duration                                 : 2 h 1 min
  149. Bit rate                                 : 29.4 kb/s
  150. Count of elements                        : 3188
  151. Stream size                              : 25.7 MiB (0%)
  152. Title                                    : Spanish-PGS
  153. Language                                 : Spanish
  154. Default                                  : No
  155. Forced                                   : No

  156. Text #6
  157. ID                                       : 10
  158. Format                                   : PGS
  159. Muxing mode                              : zlib
  160. Codec ID                                 : S_HDMV/PGS
  161. Codec ID/Info                            : Picture based subtitle format used on BDs/HD-DVDs
  162. Duration                                 : 1 h 57 min
  163. Bit rate                                 : 31.2 kb/s
  164. Count of elements                        : 3188
  165. Stream size                              : 26.3 MiB (0%)
  166. Title                                    : Italian-PGS
  167. Language                                 : Italian
  168. Default                                  : No
  169. Forced                                   : No

  170. Text #7
  171. ID                                       : 11
  172. Format                                   : PGS
  173. Muxing mode                              : zlib
  174. Codec ID                                 : S_HDMV/PGS
  175. Codec ID/Info                            : Picture based subtitle format used on BDs/HD-DVDs
  176. Duration                                 : 1 h 57 min
  177. Bit rate                                 : 30.6 kb/s
  178. Count of elements                        : 3228
  179. Stream size                              : 25.8 MiB (0%)
  180. Title                                    : German-PGS
  181. Language                                 : German
  182. Default                                  : No
  183. Forced                                   : No

  184. Text #8
  185. ID                                       : 12
  186. Format                                   : PGS
  187. Muxing mode                              : zlib
  188. Codec ID                                 : S_HDMV/PGS
  189. Codec ID/Info                            : Picture based subtitle format used on BDs/HD-DVDs
  190. Duration                                 : 2 h 8 min
  191. Bit rate                                 : 27.4 kb/s
  192. Count of elements                        : 3194
  193. Stream size                              : 25.1 MiB (0%)
  194. Title                                    : Norwegian-PGS
  195. Language                                 : Norwegian
  196. Default                                  : No
  197. Forced                                   : No

  198. Text #9
  199. ID                                       : 13
  200. Format                                   : PGS
  201. Muxing mode                              : zlib
  202. Codec ID                                 : S_HDMV/PGS
  203. Codec ID/Info                            : Picture based subtitle format used on BDs/HD-DVDs
  204. Duration                                 : 2 h 1 min
  205. Bit rate                                 : 27.2 kb/s
  206. Count of elements                        : 2378
  207. Stream size                              : 23.7 MiB (0%)
  208. Title                                    : Swedish-PGS
  209. Language                                 : Swedish
  210. Default                                  : No
  211. Forced                                   : No

  212. Menu
  213. 00:00:00.000                             : en:Chapter 01
  214. 00:04:35.817                             : en:Chapter 02
  215. 00:08:06.402                             : en:Chapter 03
  216. 00:11:18.135                             : en:Chapter 04
  217. 00:15:21.420                             : en:Chapter 05
  218. 00:18:57.136                             : en:Chapter 06
  219. 00:25:05.795                             : en:Chapter 07
  220. 00:31:41.441                             : en:Chapter 08
  221. 00:36:08.583                             : en:Chapter 09
  222. 00:42:31.882                             : en:Chapter 10
  223. 00:47:01.193                             : en:Chapter 11
  224. 00:54:44.864                             : en:Chapter 12
  225. 01:00:43.431                             : en:Chapter 13
  226. 01:07:40.806                             : en:Chapter 14
  227. 01:14:38.098                             : en:Chapter 15
  228. 01:19:43.570                             : en:Chapter 16
  229. 01:22:02.417                             : en:Chapter 17
  230. 01:28:53.202                             : en:Chapter 18
  231. 01:34:01.177                             : en:Chapter 19
  232. 01:38:10.050                             : en:Chapter 20
  233. 01:45:23.567                             : en:Chapter 21
  234. 01:49:13.838                             : en:Chapter 22
  235. 01:55:53.738                             : en:Chapter 23
  236. 01:58:49.080                             : en:Chapter 24
复制代码

美女与野兽 Beauty.and.the.Beast.2017.2160p.BluRay.x265.10bit.SDR.DTS-HD.MA.TrueHD.7.1.Atmos-SWTYBLZ 26.63GB-2.png 美女与野兽 Beauty.and.the.Beast.2017.2160p.BluRay.x265.10bit.SDR.DTS-HD.MA.TrueHD.7.1.Atmos-SWTYBLZ 26.63GB-3.png 美女与野兽 Beauty.and.the.Beast.2017.2160p.BluRay.x265.10bit.SDR.DTS-HD.MA.TrueHD.7.1.Atmos-SWTYBLZ 26.63GB-4.png 美女与野兽 Beauty.and.the.Beast.2017.2160p.BluRay.x265.10bit.SDR.DTS-HD.MA.TrueHD.7.1.Atmos-SWTYBLZ 26.63GB-5.png 美女与野兽 Beauty.and.the.Beast.2017.2160p.BluRay.x265.10bit.SDR.DTS-HD.MA.TrueHD.7.1.Atmos-SWTYBLZ 26.63GB-2.png 美女与野兽 Beauty.and.the.Beast.2017.2160p.BluRay.x265.10bit.SDR.DTS-HD.MA.TrueHD.7.1.Atmos-SWTYBLZ 26.63GB-7.png 美女与野兽 Beauty.and.the.Beast.2017.2160p.BluRay.x265.10bit.SDR.DTS-HD.MA.TrueHD.7.1.Atmos-SWTYBLZ 26.63GB-8.png






回复

使用道具 举报

发表于 2020-3-2 09:23:14 | 显示全部楼层
楼主发贴辛苦了,谢谢楼主分享!我觉得蓝光电影网是注册对了!
回复 支持 反对

使用道具 举报

发表于 2020-3-2 14:19:46 | 显示全部楼层
楼主发贴辛苦了,谢谢楼主分享!我觉得蓝光电影网是注册对了!
回复 支持 反对

使用道具 举报

发表于 2020-3-3 22:44:49 | 显示全部楼层
楼主发贴辛苦了,谢谢楼主分享!我觉得蓝光电影网是注册对了!
回复 支持 反对

使用道具 举报

懒得打字嘛,点击右侧快捷回复 【右侧内容,后台自定义】
您需要登录后才可以回帖 登录 | 立即加入

本版积分规则

现在加入蓝光电影网,注册一个账号
上个主题 下个主题 快速回复 收藏帖子 返回列表 客服中心 搜索

手机版|小黑屋| 蓝光电影网 |网站地图 

Copyright © 2015-2019 Comsenz Inc.  Template by 蓝光电影论坛 All Rights Reserved.

Powered by 蓝光电影网 X3.4

特别声明:本站所有资源均由网上收集而来,版权归原影音公司所有,如果侵犯了你的权益,请通知我们,我们会及时删除侵权内容.

快速回复 返回顶部 返回列表