找回密码

蓝光电影网

查看: 263|回复: 3

[REMUX.HEVC] 美女与野兽 Beauty.and.the.Beast.2017.2160p.BluRay.REMUX.HEVC.DTS-HD.MA.TrueHD.7.1.Atmos-FGT 60.54GB

[复制链接]

 成长值: 25285

发表于 2020-3-1 17:01:26 | 显示全部楼层 |阅读模式
美女与野兽 Beauty.and.the.Beast.2017.2160p.BluRay.REMUX.HEVC.DTS-HD.MA.TrueHD.7.1.Atmos-FGT 60.54GB-1.png

译  名 美女与野兽
片  名 Beauty and the Beast
年  代 2017
产  地 美国
类  别 爱情 / 歌舞 / 奇幻
语  言 英语
上映日期 2017-03-17(中国大陆/美国)
IMDb评分  7.1/10 from 254094 users
IMDb链接  https://www.imdb.com/title/tt2771200
豆瓣评分 7.1/10 from 290748 users
豆瓣链接 https://movie.douban.com/subject/25900945/
片  长 129分钟
导  演 比尔·康顿 Bill Condon
编  剧 斯蒂芬·切波斯基 Stephen Chbosky / 埃文·斯彼里奥托普洛斯 Evan Spiliotopoulos / 琳达·伍尔芙顿 Linda Woolverton / Jeanne-Marie Leprince de Beaumont
主  演 艾玛·沃森 Emma Watson
       丹·史蒂文斯 Dan Stevens
       卢克·伊万斯 Luke Evans
       凯文·克莱恩 Kevin Kline
       乔什·盖德 Josh Gad
       伊万·麦克格雷格 Ewan McGregor
       伊恩·麦克莱恩 Ian McKellen
       艾玛·汤普森 Emma Thompson
       斯坦利·图齐 Stanley Tucci
       古古·姆巴塔-劳 Gugu Mbatha-Raw
       奥德拉·麦当娜 Audra McDonald
       内森·麦克 Nathan Mack
       哈蒂·莫拉汉 Hattie Morahan
       迈克尔·吉普森 Michael Jibson
       水野索诺娅 Sonoya Mizuno
       亨利·加勒特 Henry Garrett
       戴尔·布兰斯顿 Dale Branston


标  签 迪士尼 | 童话 | 爱情 | 歌舞 | 美国 | 奇幻 | 2017 | 魔幻

简  介  

  贝儿(艾玛·沃森 Emma Watson 饰)和小镇上的其他女孩不同,是一个热爱阅读和幻想的姑娘,孔武有力英俊强壮的加斯顿(卢克·伊万斯 Luke Evans 饰)发誓要娶贝儿为妻,但贝儿却一眼看穿了他的自私和虚伪,拒不从命。某日,贝儿的父亲莫里斯(凯文·克莱恩 Kevin Kline 饰)迷路误打误撞之下来到了一座荒凉破败的城堡中,那里居住着样貌可怖半人半兽的野兽(丹·史蒂文斯 Dan Stevens 饰)。
  因为偷摘了城堡里种植的玫瑰,莫里斯被野兽囚禁了起来,得知此消息的贝儿赶到城堡,要求和父亲作交换。就这样,贝儿开始了和野兽的同居生活。在会说话的茶壶太太(艾玛·汤普森 Emma Thompson 饰)、烛台卢米亚(伊万·麦克格雷格 Ewan McGregor 饰)和时钟葛士华(伊恩·麦克莱恩 Ian McKellen 饰)的照顾和帮助下,贝儿渐渐发现,野兽在丑陋的外表下,隐藏了一颗善良温柔的心。实际上,野兽的真实身份是一位王子,因受到了女巫的诅咒而沦落至此,而贝儿,是解除诅咒最后的,也是唯一的希望。

获奖情况  

  第90届奥斯卡金像奖(2018)
  最佳艺术指导(提名) 莎拉·格林伍德 / 凯蒂·斯宾塞
  最佳服装设计(提名) 杰奎琳·杜兰

  第71届英国电影学院奖(2018)
  电影奖 最佳服装设计(提名)
  电影奖 最佳艺术指导(提名)

  第41届日本电影学院奖(2018)
  最佳外语片(提名)

  第26届MTV电影奖(2017)
  MTV电影奖 年度电影
  MTV电影奖 最佳表演 艾玛·沃森
  MTV电影奖 最佳吻戏(提名) 艾玛·沃森 / 丹·史蒂文斯
  MTV电影奖 最佳银幕组合(提名) 卢克·伊万斯 / 乔什·加德

  第22届美国艺术指导工会奖(2018)
  电影奖 最佳幻想电影艺术指导(提名)

  第20届美国服装设计工会奖(2018)
  科幻/奇幻题材电影最佳服装设计(提名) 杰奎琳·杜兰

  第16届美国视觉效果协会奖(2018)
  最佳电影虚拟摄影(提名)

  第23届美国评论家选择电影奖(2018)
  最佳歌曲(提名)
  最佳美术指导(提名)
  最佳服装设计(提名)
  最佳发型化妆(提名)

  第22届金卫星奖(2018)
  电影部门 最佳服装设计(提名) 杰奎琳·杜兰

  第21届好莱坞电影奖(2017)
  年度服装设计 杰奎琳·杜兰
  年度化妆 珍妮·希尔科尔

  第30届芝加哥影评人协会奖(2017)
  最佳艺术指导(提名)

  第42届报知映画赏(2017)
  海外作品奖 比尔·康顿

  第4届豆瓣电影年度榜单(2017)
  3月最受关注电影(提名)
  1. Video
  2. ID                                       : 1
  3. Format                                   : HEVC
  4. Format/Info                              : High Efficiency Video Coding
  5. Format profile                           : Main High@L4@High
  6. HDR format                               : SMPTE ST 2086, HDR10 compatible
  7. Codec ID                                 : V_MPEGH/ISO/HEVC
  8. Duration                                 : 2 h 9 min
  9. Bit rate                                 : 48.9 Mb/s
  10. Width                                    : 3 840 pixels
  11. Height                                   : 2 160 pixels
  12. Display aspect ratio                     : 16:9
  13. Frame rate mode                          : Constant
  14. Frame rate                               : 23.976 (24000/1001) FPS
  15. Color space                              : YUV
  16. Chroma subsampling                       : 4:2:0 (Type 2)
  17. Bit depth                                : 10 bits
  18. Bits/(Pixel*Frame)                       : 0.246
  19. Stream size                              : 44.2 GiB (73%)
  20. Title                                    : Beauty.and.the.Beast.2017.2160p.BluRay.REMUX.HEVC.DTS-HD.MA.TrueHD.7.1.Atmos-FGT
  21. Writing library                          : ATEME Titan File 3.9.0 (4.9.0.0)        
  22. Language                                 : English
  23. Default                                  : No
  24. Forced                                   : No
  25. Color range                              : Limited
  26. Color primaries                          : BT.2020
  27. Transfer characteristics                 : PQ
  28. Matrix coefficients                      : BT.2020 non-constant
  29. Mastering display color primaries        : Display P3
  30. Mastering display luminance              : min: 0.0050 cd/m2, max: 4000 cd/m2

  31. Audio #1
  32. ID                                       : 2
  33. Format                                   : MLP FBA 16-ch
  34. Format/Info                              : Meridian Lossless Packing FBA with 16-channel presentation
  35. Commercial name                          : Dolby TrueHD with Dolby Atmos
  36. Codec ID                                 : A_TRUEHD
  37. Duration                                 : 2 h 9 min
  38. Bit rate mode                            : Variable
  39. Bit rate                                 : 4 936 kb/s
  40. Maximum bit rate                         : 8 103 kb/s
  41. Channel(s)                               : 8 channels
  42. Channel layout                           : L R C LFE Ls Rs Lb Rb
  43. Sampling rate                            : 48.0 kHz
  44. Frame rate                               : 1 200.000 FPS (40 SPF)
  45. Compression mode                         : Lossless
  46. Stream size                              : 4.46 GiB (7%)
  47. Title                                    : Beauty.and.the.Beast.2017.2160p.BluRay.REMUX.HEVC.DTS-HD.MA.TrueHD.7.1.Atmos-FGT
  48. Language                                 : English
  49. Default                                  : Yes
  50. Forced                                   : No
  51. Number of dynamic objects                : 13
  52. Bed channel count                        : 1 channel
  53. Bed channel configuration                : LFE

  54. Audio #2
  55. ID                                       : 3
  56. Format                                   : DTS XLL
  57. Format/Info                              : Digital Theater Systems
  58. Commercial name                          : DTS-HD Master Audio
  59. Codec ID                                 : A_DTS
  60. Duration                                 : 2 h 9 min
  61. Bit rate mode                            : Variable
  62. Bit rate                                 : 4 075 kb/s
  63. Channel(s)                               : 8 channels
  64. Channel layout                           : C L R LFE Lb Rb Lss Rss
  65. Sampling rate                            : 48.0 kHz
  66. Frame rate                               : 93.750 FPS (512 SPF)
  67. Bit depth                                : 24 bits
  68. Compression mode                         : Lossless
  69. Stream size                              : 3.68 GiB (6%)
  70. Title                                    : Beauty.and.the.Beast.2017.2160p.BluRay.REMUX.HEVC.DTS-HD.MA.TrueHD.7.1.Atmos-FGT
  71. Language                                 : English
  72. Default                                  : No
  73. Forced                                   : No

  74. Audio #3
  75. ID                                       : 4
  76. Format                                   : AC-3
  77. Format/Info                              : Audio Coding 3
  78. Commercial name                          : Dolby Digital
  79. Codec ID                                 : A_AC3
  80. Duration                                 : 2 h 9 min
  81. Bit rate mode                            : Constant
  82. Bit rate                                 : 640 kb/s
  83. Channel(s)                               : 6 channels
  84. Channel layout                           : L R C LFE Ls Rs
  85. Sampling rate                            : 48.0 kHz
  86. Frame rate                               : 31.250 FPS (1536 SPF)
  87. Bit depth                                : 16 bits
  88. Compression mode                         : Lossy
  89. Stream size                              : 592 MiB (1%)
  90. Title                                    : Beauty.and.the.Beast.2017.2160p.BluRay.REMUX.HEVC.DTS-HD.MA.TrueHD.7.1.Atmos-FGT
  91. Language                                 : English
  92. Service kind                             : Complete Main
  93. Default                                  : No
  94. Forced                                   : No

  95. Audio #4
  96. ID                                       : 5
  97. Format                                   : AC-3
  98. Format/Info                              : Audio Coding 3
  99. Commercial name                          : Dolby Digital
  100. Codec ID                                 : A_AC3
  101. Duration                                 : 2 h 9 min
  102. Bit rate mode                            : Constant
  103. Bit rate                                 : 320 kb/s
  104. Channel(s)                               : 2 channels
  105. Channel layout                           : L R
  106. Sampling rate                            : 48.0 kHz
  107. Frame rate                               : 31.250 FPS (1536 SPF)
  108. Bit depth                                : 16 bits
  109. Compression mode                         : Lossy
  110. Stream size                              : 296 MiB (0%)
  111. Title                                    : Beauty.and.the.Beast.2017.2160p.BluRay.REMUX.HEVC.DTS-HD.MA.TrueHD.7.1.Atmos-FGT
  112. Language                                 : English
  113. Service kind                             : Complete Main
  114. Default                                  : No
  115. Forced                                   : No

  116. Audio #5
  117. ID                                       : 6
  118. Format                                   : E-AC-3
  119. Format/Info                              : Enhanced AC-3
  120. Commercial name                          : Dolby Digital Plus
  121. Format profile                           : Blu-ray Disc
  122. Codec ID                                 : A_EAC3
  123. Duration                                 : 2 h 9 min
  124. Bit rate mode                            : Constant
  125. Bit rate                                 : 1 024 kb/s
  126. Channel(s)                               : 8 channels
  127. Channel layout                           : L R C LFE Ls Rs Lb Rb
  128. Sampling rate                            : 48.0 kHz
  129. Frame rate                               : 31.250 FPS (1536 SPF)
  130. Compression mode                         : Lossy
  131. Stream size                              : 947 MiB (2%)
  132. Title                                    : Beauty.and.the.Beast.2017.2160p.BluRay.REMUX.HEVC.DTS-HD.MA.TrueHD.7.1.Atmos-FGT
  133. Language                                 : French
  134. Service kind                             : Complete Main
  135. Default                                  : No
  136. Forced                                   : No

  137. Audio #6
  138. ID                                       : 7
  139. Format                                   : AC-3
  140. Format/Info                              : Audio Coding 3
  141. Commercial name                          : Dolby Digital
  142. Codec ID                                 : A_AC3
  143. Duration                                 : 2 h 9 min
  144. Bit rate mode                            : Constant
  145. Bit rate                                 : 576 kb/s
  146. Channel(s)                               : 6 channels
  147. Channel layout                           : L R C LFE Ls Rs
  148. Sampling rate                            : 48.0 kHz
  149. Frame rate                               : 31.250 FPS (1536 SPF)
  150. Bit depth                                : 16 bits
  151. Compression mode                         : Lossy
  152. Stream size                              : 533 MiB (1%)
  153. Title                                    : Beauty.and.the.Beast.2017.2160p.BluRay.REMUX.HEVC.DTS-HD.MA.TrueHD.7.1.Atmos-FGT
  154. Language                                 : French
  155. Service kind                             : Complete Main
  156. Default                                  : No
  157. Forced                                   : No

  158. Audio #7
  159. ID                                       : 8
  160. Format                                   : E-AC-3
  161. Format/Info                              : Enhanced AC-3
  162. Commercial name                          : Dolby Digital Plus
  163. Format profile                           : Blu-ray Disc
  164. Codec ID                                 : A_EAC3
  165. Duration                                 : 2 h 9 min
  166. Bit rate mode                            : Constant
  167. Bit rate                                 : 1 024 kb/s
  168. Channel(s)                               : 8 channels
  169. Channel layout                           : L R C LFE Ls Rs Lb Rb
  170. Sampling rate                            : 48.0 kHz
  171. Frame rate                               : 31.250 FPS (1536 SPF)
  172. Compression mode                         : Lossy
  173. Stream size                              : 947 MiB (2%)
  174. Title                                    : Beauty.and.the.Beast.2017.2160p.BluRay.REMUX.HEVC.DTS-HD.MA.TrueHD.7.1.Atmos-FGT
  175. Language                                 : French
  176. Service kind                             : Complete Main
  177. Default                                  : No
  178. Forced                                   : No

  179. Audio #8
  180. ID                                       : 9
  181. Format                                   : AC-3
  182. Format/Info                              : Audio Coding 3
  183. Commercial name                          : Dolby Digital
  184. Codec ID                                 : A_AC3
  185. Duration                                 : 2 h 9 min
  186. Bit rate mode                            : Constant
  187. Bit rate                                 : 576 kb/s
  188. Channel(s)                               : 6 channels
  189. Channel layout                           : L R C LFE Ls Rs
  190. Sampling rate                            : 48.0 kHz
  191. Frame rate                               : 31.250 FPS (1536 SPF)
  192. Bit depth                                : 16 bits
  193. Compression mode                         : Lossy
  194. Stream size                              : 533 MiB (1%)
  195. Title                                    : Beauty.and.the.Beast.2017.2160p.BluRay.REMUX.HEVC.DTS-HD.MA.TrueHD.7.1.Atmos-FGT
  196. Language                                 : French
  197. Service kind                             : Complete Main
  198. Default                                  : No
  199. Forced                                   : No

  200. Audio #9
  201. ID                                       : 10
  202. Format                                   : E-AC-3
  203. Format/Info                              : Enhanced AC-3
  204. Commercial name                          : Dolby Digital Plus
  205. Format profile                           : Blu-ray Disc
  206. Codec ID                                 : A_EAC3
  207. Duration                                 : 2 h 9 min
  208. Bit rate mode                            : Constant
  209. Bit rate                                 : 1 024 kb/s
  210. Channel(s)                               : 8 channels
  211. Channel layout                           : L R C LFE Ls Rs Lb Rb
  212. Sampling rate                            : 48.0 kHz
  213. Frame rate                               : 31.250 FPS (1536 SPF)
  214. Compression mode                         : Lossy
  215. Stream size                              : 947 MiB (2%)
  216. Title                                    : Beauty.and.the.Beast.2017.2160p.BluRay.REMUX.HEVC.DTS-HD.MA.TrueHD.7.1.Atmos-FGT
  217. Language                                 : Spanish
  218. Service kind                             : Complete Main
  219. Default                                  : No
  220. Forced                                   : No

  221. Audio #10
  222. ID                                       : 11
  223. Format                                   : AC-3
  224. Format/Info                              : Audio Coding 3
  225. Commercial name                          : Dolby Digital
  226. Codec ID                                 : A_AC3
  227. Duration                                 : 2 h 9 min
  228. Bit rate mode                            : Constant
  229. Bit rate                                 : 576 kb/s
  230. Channel(s)                               : 6 channels
  231. Channel layout                           : L R C LFE Ls Rs
  232. Sampling rate                            : 48.0 kHz
  233. Frame rate                               : 31.250 FPS (1536 SPF)
  234. Bit depth                                : 16 bits
  235. Compression mode                         : Lossy
  236. Stream size                              : 533 MiB (1%)
  237. Title                                    : Beauty.and.the.Beast.2017.2160p.BluRay.REMUX.HEVC.DTS-HD.MA.TrueHD.7.1.Atmos-FGT
  238. Language                                 : Spanish
  239. Service kind                             : Complete Main
  240. Default                                  : No
  241. Forced                                   : No

  242. Audio #11
  243. ID                                       : 12
  244. Format                                   : E-AC-3
  245. Format/Info                              : Enhanced AC-3
  246. Commercial name                          : Dolby Digital Plus
  247. Format profile                           : Blu-ray Disc
  248. Codec ID                                 : A_EAC3
  249. Duration                                 : 2 h 9 min
  250. Bit rate mode                            : Constant
  251. Bit rate                                 : 1 024 kb/s
  252. Channel(s)                               : 8 channels
  253. Channel layout                           : L R C LFE Ls Rs Lb Rb
  254. Sampling rate                            : 48.0 kHz
  255. Frame rate                               : 31.250 FPS (1536 SPF)
  256. Compression mode                         : Lossy
  257. Stream size                              : 947 MiB (2%)
  258. Title                                    : Beauty.and.the.Beast.2017.2160p.BluRay.REMUX.HEVC.DTS-HD.MA.TrueHD.7.1.Atmos-FGT
  259. Language                                 : Italian
  260. Service kind                             : Complete Main
  261. Default                                  : No
  262. Forced                                   : No

  263. Audio #12
  264. ID                                       : 13
  265. Format                                   : AC-3
  266. Format/Info                              : Audio Coding 3
  267. Commercial name                          : Dolby Digital
  268. Codec ID                                 : A_AC3
  269. Duration                                 : 2 h 9 min
  270. Bit rate mode                            : Constant
  271. Bit rate                                 : 576 kb/s
  272. Channel(s)                               : 6 channels
  273. Channel layout                           : L R C LFE Ls Rs
  274. Sampling rate                            : 48.0 kHz
  275. Frame rate                               : 31.250 FPS (1536 SPF)
  276. Bit depth                                : 16 bits
  277. Compression mode                         : Lossy
  278. Stream size                              : 533 MiB (1%)
  279. Title                                    : Beauty.and.the.Beast.2017.2160p.BluRay.REMUX.HEVC.DTS-HD.MA.TrueHD.7.1.Atmos-FGT
  280. Language                                 : Italian
  281. Service kind                             : Complete Main
  282. Default                                  : No
  283. Forced                                   : No

  284. Audio #13
  285. ID                                       : 14
  286. Format                                   : E-AC-3
  287. Format/Info                              : Enhanced AC-3
  288. Commercial name                          : Dolby Digital Plus
  289. Format profile                           : Blu-ray Disc
  290. Codec ID                                 : A_EAC3
  291. Duration                                 : 2 h 9 min
  292. Bit rate mode                            : Constant
  293. Bit rate                                 : 1 024 kb/s
  294. Channel(s)                               : 8 channels
  295. Channel layout                           : L R C LFE Ls Rs Lb Rb
  296. Sampling rate                            : 48.0 kHz
  297. Frame rate                               : 31.250 FPS (1536 SPF)
  298. Compression mode                         : Lossy
  299. Stream size                              : 947 MiB (2%)
  300. Title                                    : Beauty.and.the.Beast.2017.2160p.BluRay.REMUX.HEVC.DTS-HD.MA.TrueHD.7.1.Atmos-FGT
  301. Language                                 : German
  302. Service kind                             : Complete Main
  303. Default                                  : No
  304. Forced                                   : No

  305. Audio #14
  306. ID                                       : 15
  307. Format                                   : AC-3
  308. Format/Info                              : Audio Coding 3
  309. Commercial name                          : Dolby Digital
  310. Codec ID                                 : A_AC3
  311. Duration                                 : 2 h 9 min
  312. Bit rate mode                            : Constant
  313. Bit rate                                 : 576 kb/s
  314. Channel(s)                               : 6 channels
  315. Channel layout                           : L R C LFE Ls Rs
  316. Sampling rate                            : 48.0 kHz
  317. Frame rate                               : 31.250 FPS (1536 SPF)
  318. Bit depth                                : 16 bits
  319. Compression mode                         : Lossy
  320. Stream size                              : 533 MiB (1%)
  321. Title                                    : Beauty.and.the.Beast.2017.2160p.BluRay.REMUX.HEVC.DTS-HD.MA.TrueHD.7.1.Atmos-FGT
  322. Language                                 : German
  323. Service kind                             : Complete Main
  324. Default                                  : No
  325. Forced                                   : No

  326. Text #1
  327. ID                                       : 16
  328. Format                                   : UTF-8
  329. Codec ID                                 : S_TEXT/UTF8
  330. Codec ID/Info                            : UTF-8 Plain Text
  331. Duration                                 : 2 h 8 min
  332. Bit rate                                 : 48 b/s
  333. Count of elements                        : 1786
  334. Stream size                              : 45.8 KiB (0%)
  335. Title                                    : English-SRT
  336. Language                                 : English
  337. Default                                  : Yes
  338. Forced                                   : No

  339. Text #2
  340. ID                                       : 17
  341. Format                                   : PGS
  342. Muxing mode                              : zlib
  343. Codec ID                                 : S_HDMV/PGS
  344. Codec ID/Info                            : Picture based subtitle format used on BDs/HD-DVDs
  345. Duration                                 : 2 h 8 min
  346. Bit rate                                 : 36.8 kb/s
  347. Count of elements                        : 4050
  348. Stream size                              : 33.7 MiB (0%)
  349. Title                                    : English-PGS
  350. Language                                 : English
  351. Default                                  : No
  352. Forced                                   : No

  353. Text #3
  354. ID                                       : 18
  355. Format                                   : PGS
  356. Muxing mode                              : zlib
  357. Codec ID                                 : S_HDMV/PGS
  358. Codec ID/Info                            : Picture based subtitle format used on BDs/HD-DVDs
  359. Duration                                 : 2 h 1 min
  360. Bit rate                                 : 27.4 kb/s
  361. Count of elements                        : 3128
  362. Stream size                              : 23.9 MiB (0%)
  363. Title                                    : French-PGS
  364. Language                                 : French
  365. Default                                  : No
  366. Forced                                   : No

  367. Text #4
  368. ID                                       : 19
  369. Format                                   : PGS
  370. Muxing mode                              : zlib
  371. Codec ID                                 : S_HDMV/PGS
  372. Codec ID/Info                            : Picture based subtitle format used on BDs/HD-DVDs
  373. Duration                                 : 2 h 8 min
  374. Bit rate                                 : 32.5 kb/s
  375. Count of elements                        : 3448
  376. Stream size                              : 29.8 MiB (0%)
  377. Title                                    : French-PGS
  378. Language                                 : French
  379. Default                                  : No
  380. Forced                                   : No

  381. Text #5
  382. ID                                       : 20
  383. Format                                   : PGS
  384. Muxing mode                              : zlib
  385. Codec ID                                 : S_HDMV/PGS
  386. Codec ID/Info                            : Picture based subtitle format used on BDs/HD-DVDs
  387. Duration                                 : 2 h 1 min
  388. Bit rate                                 : 29.4 kb/s
  389. Count of elements                        : 3188
  390. Stream size                              : 25.7 MiB (0%)
  391. Title                                    : Spanish-PGS
  392. Language                                 : Spanish
  393. Default                                  : No
  394. Forced                                   : No

  395. Text #6
  396. ID                                       : 21
  397. Format                                   : PGS
  398. Muxing mode                              : zlib
  399. Codec ID                                 : S_HDMV/PGS
  400. Codec ID/Info                            : Picture based subtitle format used on BDs/HD-DVDs
  401. Duration                                 : 1 h 57 min
  402. Bit rate                                 : 31.2 kb/s
  403. Count of elements                        : 3188
  404. Stream size                              : 26.3 MiB (0%)
  405. Title                                    : Italian-PGS
  406. Language                                 : Italian
  407. Default                                  : No
  408. Forced                                   : No

  409. Text #7
  410. ID                                       : 22
  411. Format                                   : PGS
  412. Muxing mode                              : zlib
  413. Codec ID                                 : S_HDMV/PGS
  414. Codec ID/Info                            : Picture based subtitle format used on BDs/HD-DVDs
  415. Duration                                 : 1 h 57 min
  416. Bit rate                                 : 30.6 kb/s
  417. Count of elements                        : 3228
  418. Stream size                              : 25.8 MiB (0%)
  419. Title                                    : German-PGS
  420. Language                                 : German
  421. Default                                  : No
  422. Forced                                   : No

  423. Text #8
  424. ID                                       : 23
  425. Format                                   : PGS
  426. Muxing mode                              : zlib
  427. Codec ID                                 : S_HDMV/PGS
  428. Codec ID/Info                            : Picture based subtitle format used on BDs/HD-DVDs
  429. Duration                                 : 2 h 8 min
  430. Bit rate                                 : 27.4 kb/s
  431. Count of elements                        : 3194
  432. Stream size                              : 25.1 MiB (0%)
  433. Title                                    : Norwegian-PGS
  434. Language                                 : Norwegian
  435. Default                                  : No
  436. Forced                                   : No

  437. Text #9
  438. ID                                       : 24
  439. Format                                   : PGS
  440. Muxing mode                              : zlib
  441. Codec ID                                 : S_HDMV/PGS
  442. Codec ID/Info                            : Picture based subtitle format used on BDs/HD-DVDs
  443. Duration                                 : 2 h 1 min
  444. Bit rate                                 : 27.2 kb/s
  445. Count of elements                        : 2378
  446. Stream size                              : 23.7 MiB (0%)
  447. Title                                    : Swedish-PGS
  448. Language                                 : Swedish
  449. Default                                  : No
  450. Forced                                   : No

  451. Text #10
  452. ID                                       : 25
  453. Format                                   : PGS
  454. Muxing mode                              : zlib
  455. Codec ID                                 : S_HDMV/PGS
  456. Codec ID/Info                            : Picture based subtitle format used on BDs/HD-DVDs
  457. Duration                                 : 1 h 58 min
  458. Bit rate                                 : 24 b/s
  459. Count of elements                        : 4
  460. Stream size                              : 20.9 KiB (0%)
  461. Title                                    : French-FORCED-PGS
  462. Language                                 : French
  463. Default                                  : No
  464. Forced                                   : No

  465. Text #11
  466. ID                                       : 26
  467. Format                                   : PGS
  468. Muxing mode                              : zlib
  469. Codec ID                                 : S_HDMV/PGS
  470. Codec ID/Info                            : Picture based subtitle format used on BDs/HD-DVDs
  471. Duration                                 : 3 min 40 s
  472. Bit rate                                 : 14.5 kb/s
  473. Count of elements                        : 76
  474. Stream size                              : 389 KiB (0%)
  475. Title                                    : French-FORCED-PGS
  476. Language                                 : French
  477. Default                                  : No
  478. Forced                                   : No

  479. Text #12
  480. ID                                       : 27
  481. Format                                   : PGS
  482. Muxing mode                              : zlib
  483. Codec ID                                 : S_HDMV/PGS
  484. Codec ID/Info                            : Picture based subtitle format used on BDs/HD-DVDs
  485. Duration                                 : 4 s 192 ms
  486. Bit rate                                 : 24.2 kb/s
  487. Count of elements                        : 2
  488. Stream size                              : 12.4 KiB (0%)
  489. Title                                    : Spanish-FORCED-PGS
  490. Language                                 : Spanish
  491. Default                                  : No
  492. Forced                                   : No

  493. Text #13
  494. ID                                       : 28
  495. Format                                   : PGS
  496. Muxing mode                              : zlib
  497. Codec ID                                 : S_HDMV/PGS
  498. Codec ID/Info                            : Picture based subtitle format used on BDs/HD-DVDs
  499. Duration                                 : 4 s 359 ms
  500. Bit rate                                 : 22.7 kb/s
  501. Count of elements                        : 2
  502. Stream size                              : 12.1 KiB (0%)
  503. Title                                    : Italian-FORCED-PGS
  504. Language                                 : Italian
  505. Default                                  : No
  506. Forced                                   : No

  507. Text #14
  508. ID                                       : 29
  509. Format                                   : PGS
  510. Muxing mode                              : zlib
  511. Codec ID                                 : S_HDMV/PGS
  512. Codec ID/Info                            : Picture based subtitle format used on BDs/HD-DVDs
  513. Duration                                 : 2 s 774 ms
  514. Bit rate                                 : 54.6 kb/s
  515. Count of elements                        : 2
  516. Stream size                              : 18.5 KiB (0%)
  517. Title                                    : German-FORCED-PGS
  518. Language                                 : German
  519. Default                                  : No
  520. Forced                                   : No

  521. Menu
  522. 00:00:00.000                             : en:Chapter 01
  523. 00:04:35.817                             : en:Chapter 02
  524. 00:08:06.402                             : en:Chapter 03
  525. 00:11:18.135                             : en:Chapter 04
  526. 00:15:21.420                             : en:Chapter 05
  527. 00:18:57.136                             : en:Chapter 06
  528. 00:25:05.795                             : en:Chapter 07
  529. 00:31:41.441                             : en:Chapter 08
  530. 00:36:08.583                             : en:Chapter 09
  531. 00:42:31.882                             : en:Chapter 10
  532. 00:47:01.193                             : en:Chapter 11
  533. 00:54:44.864                             : en:Chapter 12
  534. 01:00:43.431                             : en:Chapter 13
  535. 01:07:40.806                             : en:Chapter 14
  536. 01:14:38.098                             : en:Chapter 15
  537. 01:19:43.570                             : en:Chapter 16
  538. 01:22:02.417                             : en:Chapter 17
  539. 01:28:53.202                             : en:Chapter 18
  540. 01:34:01.177                             : en:Chapter 19
  541. 01:38:10.050                             : en:Chapter 20
  542. 01:45:23.567                             : en:Chapter 21
  543. 01:49:13.838                             : en:Chapter 22
  544. 01:55:53.738                             : en:Chapter 23
  545. 01:58:49.080                             : en:Chapter 24
复制代码

美女与野兽 Beauty.and.the.Beast.2017.2160p.BluRay.REMUX.HEVC.DTS-HD.MA.TrueHD.7.1.Atmos-FGT 60.54GB-2.png 美女与野兽 Beauty.and.the.Beast.2017.2160p.BluRay.REMUX.HEVC.DTS-HD.MA.TrueHD.7.1.Atmos-FGT 60.54GB-3.png 美女与野兽 Beauty.and.the.Beast.2017.2160p.BluRay.REMUX.HEVC.DTS-HD.MA.TrueHD.7.1.Atmos-FGT 60.54GB-4.png







回复

使用道具 举报

发表于 2020-3-1 17:11:40 | 显示全部楼层
楼主发贴辛苦了,谢谢楼主分享!我觉得蓝光电影网是注册对了!
回复 支持 反对

使用道具 举报

发表于 2020-3-2 21:38:56 | 显示全部楼层
谢谢楼主分享
回复 支持 反对

使用道具 举报

发表于 2020-3-4 08:39:56 | 显示全部楼层

我看不错噢 谢谢楼主!蓝光电影网越来越好!
回复 支持 反对

使用道具 举报

懒得打字嘛,点击右侧快捷回复 【右侧内容,后台自定义】
您需要登录后才可以回帖 登录 | 立即加入

本版积分规则

现在加入蓝光电影网,注册一个账号
上个主题 下个主题 快速回复 收藏帖子 返回列表 客服中心 搜索

手机版|小黑屋| 蓝光电影网 |网站地图 

Copyright © 2015-2019 Comsenz Inc.  Template by 蓝光电影论坛 All Rights Reserved.

Powered by 蓝光电影网 X3.4

特别声明:本站所有资源均由网上收集而来,版权归原影音公司所有,如果侵犯了你的权益,请通知我们,我们会及时删除侵权内容.

快速回复 返回顶部 返回列表