找回密码

蓝光电影网

查看: 1417|回复: 68

[10bit.HDR] 霹雳娇娃/新霹雳娇娃 Charlies.Angels.2019.2160p.UHD.BluRay.X265.10bit.HDR.DTS-HD.MA.7.1-TERMiNAL 14.49GB

  [复制链接]

 成长值: 25360

发表于 2020-2-28 23:43:47 | 显示全部楼层 |阅读模式
霹雳娇娃/新霹雳娇娃 Charlies.Angels.2019.2160p.UHD.BluRay.X265.10bit.HDR.DTS-HD.MA.7.1-TE-1.png

译  名 霹雳娇娃 / 新霹雳娇娃 / 查理的天使 / 神探俏嬌娃(港) / 霹雳天使
片  名 Charlie's Angels
年  代 2019
产  地 美国
类  别 动作 / 冒险
语  言 英语
上映日期 2019-11-15(美国/中国大陆)
IMDb评分  4.3/10 from 22029 users
IMDb链接  https://www.imdb.com/title/tt5033998
豆瓣评分 5.7/10 from 30369 users
豆瓣链接 https://movie.douban.com/subject/26612258/
片  长 119分钟
导  演 伊丽莎白·班克斯 Elizabeth Banks
编  剧 伊丽莎白·班克斯 Elizabeth Banks / 埃文·斯彼里奥托普洛斯 Evan Spiliotopoulos / 大卫·奥伯恩 David Auburn
主  演 克里斯汀·斯图尔特 Kristen Stewart
       娜奥米·斯科特 Naomi Scott
       埃拉·巴林斯卡 Ella Balinska
       伊丽莎白·班克斯 Elizabeth Banks
       帕特里克·斯图尔特 Patrick Stewart
       山姆·克拉弗林 Sam Claflin
       乔纳森·塔克 Jonathan Tucker
       奈特·法松 Nat Faxon
       诺亚·琴蒂内奥 Noah Centineo
       路易斯·赫拉尔多·门德斯 Luis Gerardo Méndez
       杰曼·翰苏 Djimon Hounsou
       吴育刚 Chris Pang
       利维娅?马特斯 Livia Matthes
       莎拉·贝纳尼 Sarah Bennani
       罗伯特?马瑟 Robert Maaser
       丹尼尔·里索 Daniele Rizzo
       穆拉利·佩鲁马尔 Murali Perumal
       杰奎琳·史密斯 Jaclyn Smith
       海莉·斯坦菲尔德 Hailee Steinfeld
       丽丽·莱因哈特 Lili Reinhart
       拉弗恩·考克斯 Laverne Cox
       丹尼卡·帕翠克 Danica Patrick
       龙达·鲁西 Ronda Rousey


标  签 动作 | 特工 | 女性 | 美国 | 美女 | 2019 | 喜剧 | 冒险

简  介  

  讲述了新一代火辣美女天使克里斯汀·斯图尔特、娜奥米·斯科特、埃拉·巴林斯卡霸气组队强势打击危险势力的故事。本片由好莱坞实力派导演及演员伊丽莎白·班克斯执导,高空跳伞、狂野飙车、拳脚肉搏、激燃枪战等惊险动作场面接连不断,肾上腺素飙升。三大天使特工技能高超,大玩变身诱惑上演温柔杀机。

获奖情况  

  第24届金卫星奖(2020)
  电影部门 最佳原创歌曲(提名)
  1. Video
  2. ID                                       : 1
  3. Format                                   : HEVC
  4. Format/Info                              : High Efficiency Video Coding
  5. Format profile                           : Main High@L4@High
  6. HDR format                               : SMPTE ST 2086, HDR10 compatible
  7. Codec ID                                 : V_MPEGH/ISO/HEVC
  8. Duration                                 : 1 h 58 min
  9. Bit rate                                 : 10.7 Mb/s
  10. Width                                    : 3 840 pixels
  11. Height                                   : 1 606 pixels
  12. Display aspect ratio                     : 2.40:1
  13. Frame rate mode                          : Constant
  14. Frame rate                               : 23.976 (24000/1001) FPS
  15. Color space                              : YUV
  16. Chroma subsampling                       : 4:2:0 (Type 2)
  17. Bit depth                                : 10 bits
  18. Bits/(Pixel*Frame)                       : 0.072
  19. Stream size                              : 8.85 GiB (62%)
  20. Writing library                          : x265 3.330eb4de83092:[Windows][GCC 6.3.0][64 bit] 10bit
  21. Encoding settings                        : cpuid=1111039 / frame-threads=4 / numa-pools=20 / wpp / no-pmode / no-pme / no-psnr / no-ssim / log-level=2 / input-csp=1 / input-res=3840x1606 / interlace=0 / total-frames=170472 / level-idc=51 / high-tier=1 / uhd-bd=0 / ref=4 / no-allow-non-conformance / repeat-headers / annexb / aud / hrd / info / hash=0 / no-temporal-layers / no-open-gop / min-keyint=1 / keyint=24 / gop-lookahead=0 / bframes=4 / b-adapt=2 / b-pyramid / bframe-bias=0 / rc-lookahead=25 / lookahead-slices=4 / scenecut=40 / hist-scenecut=0 / radl=0 / no-splice / no-intra-refresh / ctu=64 / min-cu-size=8 / rect / no-amp / max-tu-size=32 / tu-inter-depth=1 / tu-intra-depth=1 / limit-tu=0 / rdoq-level=2 / dynamic-rd=0.00 / no-ssim-rd / signhide / no-tskip / nr-intra=0 / nr-inter=0 / no-constrained-intra / no-strong-intra-smoothing / max-merge=3 / limit-refs=3 / limit-modes / me=3 / subme=3 / merange=57 / temporal-mvp / no-frame-dup / no-hme / weightp / no-weightb / no-analyze-src-pics / deblock=-3:-3 / no-sao / no-sao-non-deblock / rd=4 / selective-sao=0 / no-early-skip / rskip / no-fast-intra / no-tskip-fast / no-cu-lossless / no-b-intra / no-splitrd-skip / rdpenalty=0 / psy-rd=2.00 / psy-rdoq=1.00 / no-rd-refine / no-lossless / cbqpoffs=0 / crqpoffs=0 / rc=crf / crf=17.0 / qcomp=0.60 / qpstep=4 / stats-write=0 / stats-read=0 / vbv-maxrate=160000 / vbv-bufsize=160000 / vbv-init=0.9 / crf-max=0.0 / crf-min=0.0 / ipratio=1.40 / pbratio=1.30 / aq-mode=1 / aq-strength=1.00 / cutree / zone-count=0 / no-strict-cbr / qg-size=32 / no-rc-grain / qpmax=69 / qpmin=0 / no-const-vbv / sar=1 / overscan=0 / videoformat=5 / range=0 / colorprim=9 / transfer=16 / colormatrix=9 / chromaloc=1 / chromaloc-top=2 / chromaloc-bottom=2 / display-window=0 / master-display=G(13250,34500)B(7500,3000)R(34000,16000)WP(15635,16450)L(40000000,50) / cll=9949,904 / min-luma=0 / max-luma=1023 / log2-max-poc-lsb=8 / vui-timing-info / vui-hrd-info / slices=1 / no-opt-qp-pps / no-opt-ref-list-length-pps / no-multi-pass-opt-rps / scenecut-bias=0.05 / hist-threshold=0.01 / no-opt-cu-delta-qp / no-aq-motion / hdr10 / hdr10-opt / no-dhdr10-opt / no-idr-recovery-sei / analysis-reuse-level=0 / analysis-save-reuse-level=0 / analysis-load-reuse-level=0 / scale-factor=0 / refine-intra=0 / refine-inter=0 / refine-mv=1 / refine-ctu-distortion=0 / no-limit-sao / ctu-info=0 / no-lowpass-dct / refine-analysis-type=0 / copy-pic=1 / max-ausize-factor=1.0 / no-dynamic-refine / no-single-sei / no-hevc-aq / no-svt / no-field / qp-adaptation-range=1.00 / no-scenecut-aware-qpconformance-window-offsets / right=0 / bottom=0
  22. Default                                  : Yes
  23. Forced                                   : No
  24. Color range                              : Limited
  25. Color primaries                          : BT.2020
  26. Transfer characteristics                 : PQ
  27. Matrix coefficients                      : BT.2020 non-constant
  28. Mastering display color primaries        : Display P3
  29. Mastering display luminance              : min: 0.0050 cd/m2, max: 4000 cd/m2
  30. Maximum Content Light Level              : 9949 cd/m2
  31. Maximum Frame-Average Light Level        : 904 cd/m2

  32. Audio
  33. ID                                       : 2
  34. Format                                   : DTS XLL
  35. Format/Info                              : Digital Theater Systems
  36. Commercial name                          : DTS-HD Master Audio
  37. Codec ID                                 : A_DTS
  38. Duration                                 : 1 h 58 min
  39. Bit rate mode                            : Variable
  40. Bit rate                                 : 6 242 kb/s
  41. Channel(s)                               : 8 channels
  42. Channel layout                           : C L R LFE Lb Rb Lss Rss
  43. Sampling rate                            : 48.0 kHz
  44. Frame rate                               : 93.750 FPS (512 SPF)
  45. Bit depth                                : 24 bits
  46. Compression mode                         : Lossless
  47. Stream size                              : 5.17 GiB (36%)
  48. Language                                 : English
  49. Default                                  : Yes
  50. Forced                                   : No

  51. Text #1
  52. ID                                       : 3
  53. Format                                   : UTF-8
  54. Codec ID                                 : S_TEXT/UTF8
  55. Codec ID/Info                            : UTF-8 Plain Text
  56. Duration                                 : 19 min 32 s
  57. Bit rate                                 : 1 b/s
  58. Count of elements                        : 9
  59. Stream size                              : 231 Bytes (0%)
  60. Title                                    : Forced
  61. Language                                 : English
  62. Default                                  : No
  63. Forced                                   : Yes

  64. Text #2
  65. ID                                       : 4
  66. Format                                   : PGS
  67. Muxing mode                              : zlib
  68. Codec ID                                 : S_HDMV/PGS
  69. Codec ID/Info                            : Picture based subtitle format used on BDs/HD-DVDs
  70. Duration                                 : 1 h 55 min
  71. Bit rate                                 : 44.2 kb/s
  72. Count of elements                        : 3820
  73. Stream size                              : 36.5 MiB (0%)
  74. Title                                    : SDH
  75. Language                                 : English
  76. Default                                  : No
  77. Forced                                   : No

  78. Text #3
  79. ID                                       : 5
  80. Format                                   : PGS
  81. Muxing mode                              : zlib
  82. Codec ID                                 : S_HDMV/PGS
  83. Codec ID/Info                            : Picture based subtitle format used on BDs/HD-DVDs
  84. Duration                                 : 1 h 52 min
  85. Bit rate                                 : 36.6 kb/s
  86. Count of elements                        : 3206
  87. Stream size                              : 29.4 MiB (0%)
  88. Language                                 : English
  89. Default                                  : No
  90. Forced                                   : No

  91. Text #4
  92. ID                                       : 6
  93. Format                                   : PGS
  94. Muxing mode                              : zlib
  95. Codec ID                                 : S_HDMV/PGS
  96. Codec ID/Info                            : Picture based subtitle format used on BDs/HD-DVDs
  97. Duration                                 : 1 h 52 min
  98. Bit rate                                 : 36.6 kb/s
  99. Count of elements                        : 3206
  100. Stream size                              : 29.5 MiB (0%)
  101. Language                                 : English
  102. Default                                  : No
  103. Forced                                   : No

  104. Text #5
  105. ID                                       : 7
  106. Format                                   : PGS
  107. Muxing mode                              : zlib
  108. Codec ID                                 : S_HDMV/PGS
  109. Codec ID/Info                            : Picture based subtitle format used on BDs/HD-DVDs
  110. Duration                                 : 1 h 57 min
  111. Bit rate                                 : 20.9 kb/s
  112. Count of elements                        : 3305
  113. Stream size                              : 17.6 MiB (0%)
  114. Language                                 : Arabic
  115. Default                                  : No
  116. Forced                                   : No

  117. Text #6
  118. ID                                       : 8
  119. Format                                   : PGS
  120. Muxing mode                              : zlib
  121. Codec ID                                 : S_HDMV/PGS
  122. Codec ID/Info                            : Picture based subtitle format used on BDs/HD-DVDs
  123. Duration                                 : 1 h 57 min
  124. Bit rate                                 : 31.4 kb/s
  125. Count of elements                        : 3223
  126. Stream size                              : 26.4 MiB (0%)
  127. Language                                 : Bulgarian
  128. Default                                  : No
  129. Forced                                   : No

  130. Text #7
  131. ID                                       : 9
  132. Format                                   : PGS
  133. Muxing mode                              : zlib
  134. Codec ID                                 : S_HDMV/PGS
  135. Codec ID/Info                            : Picture based subtitle format used on BDs/HD-DVDs
  136. Duration                                 : 1 h 57 min
  137. Bit rate                                 : 29.8 kb/s
  138. Count of elements                        : 3204
  139. Stream size                              : 25.0 MiB (0%)
  140. Language                                 : Croatian
  141. Default                                  : No
  142. Forced                                   : No

  143. Text #8
  144. ID                                       : 10
  145. Format                                   : PGS
  146. Muxing mode                              : zlib
  147. Codec ID                                 : S_HDMV/PGS
  148. Codec ID/Info                            : Picture based subtitle format used on BDs/HD-DVDs
  149. Duration                                 : 1 h 57 min
  150. Bit rate                                 : 31.4 kb/s
  151. Count of elements                        : 3275
  152. Stream size                              : 26.4 MiB (0%)
  153. Language                                 : Czech
  154. Default                                  : No
  155. Forced                                   : No

  156. Text #9
  157. ID                                       : 11
  158. Format                                   : PGS
  159. Muxing mode                              : zlib
  160. Codec ID                                 : S_HDMV/PGS
  161. Codec ID/Info                            : Picture based subtitle format used on BDs/HD-DVDs
  162. Duration                                 : 1 h 57 min
  163. Bit rate                                 : 27.7 kb/s
  164. Count of elements                        : 3155
  165. Stream size                              : 23.3 MiB (0%)
  166. Language                                 : French
  167. Default                                  : No
  168. Forced                                   : No

  169. Text #10
  170. ID                                       : 12
  171. Format                                   : PGS
  172. Muxing mode                              : zlib
  173. Codec ID                                 : S_HDMV/PGS
  174. Codec ID/Info                            : Picture based subtitle format used on BDs/HD-DVDs
  175. Duration                                 : 1 h 52 min
  176. Bit rate                                 : 36.6 kb/s
  177. Count of elements                        : 3247
  178. Stream size                              : 29.5 MiB (0%)
  179. Language                                 : Greek
  180. Default                                  : No
  181. Forced                                   : No

  182. Text #11
  183. ID                                       : 13
  184. Format                                   : PGS
  185. Muxing mode                              : zlib
  186. Codec ID                                 : S_HDMV/PGS
  187. Codec ID/Info                            : Picture based subtitle format used on BDs/HD-DVDs
  188. Duration                                 : 1 h 57 min
  189. Bit rate                                 : 26.0 kb/s
  190. Count of elements                        : 3315
  191. Stream size                              : 21.9 MiB (0%)
  192. Language                                 : Hebrew
  193. Default                                  : No
  194. Forced                                   : No

  195. Text #12
  196. ID                                       : 14
  197. Format                                   : PGS
  198. Muxing mode                              : zlib
  199. Codec ID                                 : S_HDMV/PGS
  200. Codec ID/Info                            : Picture based subtitle format used on BDs/HD-DVDs
  201. Duration                                 : 1 h 57 min
  202. Bit rate                                 : 34.0 kb/s
  203. Count of elements                        : 3204
  204. Stream size                              : 28.6 MiB (0%)
  205. Language                                 : Hungarian
  206. Default                                  : No
  207. Forced                                   : No

  208. Text #13
  209. ID                                       : 15
  210. Format                                   : PGS
  211. Muxing mode                              : zlib
  212. Codec ID                                 : S_HDMV/PGS
  213. Codec ID/Info                            : Picture based subtitle format used on BDs/HD-DVDs
  214. Duration                                 : 1 h 57 min
  215. Bit rate                                 : 32.8 kb/s
  216. Count of elements                        : 3134
  217. Stream size                              : 27.6 MiB (0%)
  218. Language                                 : Icelandic
  219. Default                                  : No
  220. Forced                                   : No

  221. Text #14
  222. ID                                       : 16
  223. Format                                   : PGS
  224. Muxing mode                              : zlib
  225. Codec ID                                 : S_HDMV/PGS
  226. Codec ID/Info                            : Picture based subtitle format used on BDs/HD-DVDs
  227. Duration                                 : 1 h 57 min
  228. Bit rate                                 : 30.1 kb/s
  229. Count of elements                        : 3774
  230. Stream size                              : 25.3 MiB (0%)
  231. Language                                 : Korean
  232. Default                                  : No
  233. Forced                                   : No

  234. Text #15
  235. ID                                       : 17
  236. Format                                   : PGS
  237. Muxing mode                              : zlib
  238. Codec ID                                 : S_HDMV/PGS
  239. Codec ID/Info                            : Picture based subtitle format used on BDs/HD-DVDs
  240. Duration                                 : 1 h 57 min
  241. Bit rate                                 : 34.4 kb/s
  242. Count of elements                        : 3211
  243. Stream size                              : 28.9 MiB (0%)
  244. Language                                 : Polish
  245. Default                                  : No
  246. Forced                                   : No

  247. Text #16
  248. ID                                       : 18
  249. Format                                   : PGS
  250. Muxing mode                              : zlib
  251. Codec ID                                 : S_HDMV/PGS
  252. Codec ID/Info                            : Picture based subtitle format used on BDs/HD-DVDs
  253. Duration                                 : 1 h 57 min
  254. Bit rate                                 : 37.3 kb/s
  255. Count of elements                        : 3259
  256. Stream size                              : 31.3 MiB (0%)
  257. Language                                 : Portuguese
  258. Default                                  : No
  259. Forced                                   : No

  260. Text #17
  261. ID                                       : 19
  262. Format                                   : PGS
  263. Muxing mode                              : zlib
  264. Codec ID                                 : S_HDMV/PGS
  265. Codec ID/Info                            : Picture based subtitle format used on BDs/HD-DVDs
  266. Duration                                 : 1 h 57 min
  267. Bit rate                                 : 33.5 kb/s
  268. Count of elements                        : 3071
  269. Stream size                              : 28.2 MiB (0%)
  270. Language                                 : Romanian
  271. Default                                  : No
  272. Forced                                   : No

  273. Text #18
  274. ID                                       : 20
  275. Format                                   : PGS
  276. Muxing mode                              : zlib
  277. Codec ID                                 : S_HDMV/PGS
  278. Codec ID/Info                            : Picture based subtitle format used on BDs/HD-DVDs
  279. Duration                                 : 1 h 57 min
  280. Bit rate                                 : 30.6 kb/s
  281. Count of elements                        : 3218
  282. Stream size                              : 25.7 MiB (0%)
  283. Language                                 : Serbian
  284. Default                                  : No
  285. Forced                                   : No

  286. Text #19
  287. ID                                       : 21
  288. Format                                   : PGS
  289. Muxing mode                              : zlib
  290. Codec ID                                 : S_HDMV/PGS
  291. Codec ID/Info                            : Picture based subtitle format used on BDs/HD-DVDs
  292. Duration                                 : 1 h 57 min
  293. Bit rate                                 : 29.0 kb/s
  294. Count of elements                        : 3289
  295. Stream size                              : 24.4 MiB (0%)
  296. Language                                 : Slovak
  297. Default                                  : No
  298. Forced                                   : No

  299. Text #20
  300. ID                                       : 22
  301. Format                                   : PGS
  302. Muxing mode                              : zlib
  303. Codec ID                                 : S_HDMV/PGS
  304. Codec ID/Info                            : Picture based subtitle format used on BDs/HD-DVDs
  305. Duration                                 : 1 h 57 min
  306. Bit rate                                 : 28.7 kb/s
  307. Count of elements                        : 2652
  308. Stream size                              : 24.1 MiB (0%)
  309. Language                                 : Slovenian
  310. Default                                  : No
  311. Forced                                   : No

  312. Text #21
  313. ID                                       : 23
  314. Format                                   : PGS
  315. Muxing mode                              : zlib
  316. Codec ID                                 : S_HDMV/PGS
  317. Codec ID/Info                            : Picture based subtitle format used on BDs/HD-DVDs
  318. Duration                                 : 1 h 57 min
  319. Bit rate                                 : 33.8 kb/s
  320. Count of elements                        : 3239
  321. Stream size                              : 28.5 MiB (0%)
  322. Language                                 : Spanish
  323. Default                                  : No
  324. Forced                                   : No

  325. Text #22
  326. ID                                       : 24
  327. Format                                   : PGS
  328. Muxing mode                              : zlib
  329. Codec ID                                 : S_HDMV/PGS
  330. Codec ID/Info                            : Picture based subtitle format used on BDs/HD-DVDs
  331. Duration                                 : 1 h 57 min
  332. Bit rate                                 : 36.3 kb/s
  333. Count of elements                        : 3301
  334. Stream size                              : 30.5 MiB (0%)
  335. Language                                 : Turkish
  336. Default                                  : No
  337. Forced                                   : No

  338. Text #23
  339. ID                                       : 25
  340. Format                                   : PGS
  341. Muxing mode                              : zlib
  342. Codec ID                                 : S_HDMV/PGS
  343. Codec ID/Info                            : Picture based subtitle format used on BDs/HD-DVDs
  344. Duration                                 : 1 h 55 min
  345. Bit rate                                 : 316 b/s
  346. Count of elements                        : 29
  347. Stream size                              : 268 KiB (0%)
  348. Language                                 : French
  349. Default                                  : No
  350. Forced                                   : No

  351. Text #24
  352. ID                                       : 26
  353. Format                                   : PGS
  354. Muxing mode                              : zlib
  355. Codec ID                                 : S_HDMV/PGS
  356. Codec ID/Info                            : Picture based subtitle format used on BDs/HD-DVDs
  357. Duration                                 : 1 h 55 min
  358. Bit rate                                 : 171 b/s
  359. Count of elements                        : 20
  360. Stream size                              : 145 KiB (0%)
  361. Language                                 : Hindi
  362. Default                                  : No
  363. Forced                                   : No
复制代码

霹雳娇娃/新霹雳娇娃 Charlies.Angels.2019.2160p.UHD.BluRay.X265.10bit.HDR.DTS-HD.MA.7.1-TE-2.png 霹雳娇娃/新霹雳娇娃 Charlies.Angels.2019.2160p.UHD.BluRay.X265.10bit.HDR.DTS-HD.MA.7.1-TE-3.png 霹雳娇娃/新霹雳娇娃 Charlies.Angels.2019.2160p.UHD.BluRay.X265.10bit.HDR.DTS-HD.MA.7.1-TE-4.png






回复

使用道具 举报

发表于 2020-2-29 00:11:57 | 显示全部楼层
开通VIP免费下载本站所有资源
回复 支持 反对

使用道具 举报

发表于 2020-2-29 01:10:54 | 显示全部楼层
楼主发贴辛苦了,谢谢楼主分享!我觉得蓝光电影网是注册对了!
回复 支持 反对

使用道具 举报

发表于 2020-2-29 02:04:39 | 显示全部楼层

其实我一直觉得楼主的品味不错!呵呵!蓝光电影网太棒了!
回复 支持 反对

使用道具 举报

发表于 2020-2-29 03:19:38 | 显示全部楼层
感谢楼主分享电影
回复 支持 反对

使用道具 举报

发表于 2020-2-29 06:44:40 | 显示全部楼层

楼主太厉害了!楼主,电影应该很好看我觉得蓝光电影网真是个好地方!
回复 支持 反对

使用道具 举报

发表于 2020-2-29 07:26:24 | 显示全部楼层
楼主发贴辛苦了,谢谢楼主分享!我觉得蓝光电影网是注册对了!
回复 支持 反对

使用道具 举报

发表于 2020-2-29 07:42:38 | 显示全部楼层
楼主发贴辛苦了,谢谢楼主分享!我觉得蓝光电影网是注册对了!
回复 支持 反对

使用道具 举报

发表于 2020-2-29 08:58:07 | 显示全部楼层
102410241024
回复 支持 反对

使用道具 举报

发表于 2020-2-29 09:00:09 | 显示全部楼层
等几天,下下来看看。
回复 支持 反对

使用道具 举报

懒得打字嘛,点击右侧快捷回复 【右侧内容,后台自定义】
您需要登录后才可以回帖 登录 | 立即加入

本版积分规则

现在加入蓝光电影网,注册一个账号
上个主题 下个主题 快速回复 收藏帖子 返回列表 客服中心 搜索

手机版|小黑屋| 蓝光电影网 |网站地图 

Copyright © 2015-2019 Comsenz Inc.  Template by 蓝光电影论坛 All Rights Reserved.

Powered by 蓝光电影网 X3.4

特别声明:本站所有资源均由网上收集而来,版权归原影音公司所有,如果侵犯了你的权益,请通知我们,我们会及时删除侵权内容.

快速回复 返回顶部 返回列表