找回密码

蓝光电影网

查看: 304|回复: 4

[8bit.SDR] X战警:天启/变种特攻:天启灭世战 X-Men.Apocalypse.2016.2160p.BluRay.x264.8bit.SDR.DTS-HD.MA.TrueHD.7.1.Atmos-SWTYBLZ 43.05GB

[复制链接]

 成长值: 25360

发表于 2020-2-28 23:18:38 | 显示全部楼层 |阅读模式
X战警:天启/变种特攻:天启灭世战 X-Men.Apocalypse.2016.2160p.BluRay.x264.8bit.SDR.DTS-HD.MA.TrueHD.7.1.Atmos-SWTYBLZ 43.05GB-1.jpg
◎译  名 X战警:天启 / 变种特攻:天启灭世战 / X战警:启示录
◎片  名 X战警:天启 X-Men: Apocalypse
◎年  代 2016
◎国  家 美国
◎类  别 动作 / 科幻 / 奇幻 / 冒险
◎语  言 英语 / 德语 / 阿拉伯语 / 波兰语 / 古埃及语
◎上映日期 2016-06-03(中国大陆) / 2016-05-09(伦敦首映) / 2016-05-27(美国)
◎IMDb评分  7.0/10 from 299,603 users
◎IMDb链接  http://www.imdb.com/title/tt3385516/
◎豆瓣评分 7.8/10 from 192414 users
◎豆瓣链接 https://movie.douban.com/subject/25786060/
◎片  长 144分钟
◎导  演 布莱恩·辛格
◎主  演 詹姆斯·麦卡沃伊 James McAvoy
      迈克尔·法斯宾德 Michael Fassbender
      詹妮弗·劳伦斯 Jennifer Lawrence
      尼古拉斯·霍尔特 Nicholas Hoult
      奥斯卡·伊萨克 Oscar Isaac
      萝丝·拜恩 Rose Byrne
      埃文·彼得斯 Evan Peters
      休·杰克曼 Hugh Jackman
      乔什·赫尔曼 Josh Helman
      苏菲·特纳 Sophie Turner
      泰伊·谢里丹 Tye Sheridan
      卢卡斯·提尔 Lucas Till
      柯蒂·斯密特-麦菲 Kodi Smit-McPhee
      本·哈迪 Ben Hardy
      亚历山德拉·希普 Alexandra Shipp
      陈东兰 Lana Condor
      奥立薇娅·玛恩 Olivia Munn

◎简  介 

  变种人天启(奥斯卡·伊萨克 Oscar Isaac 饰)诞生于人类文明的最开端,被人类当做神一般敬仰膜拜,然而,这样的他,却遭到了他最蔑视的人类的背叛,被埋葬于废墟石砾之下,一晃眼就是数千年过去。
  一场意外使得沉睡千年的天启从混沌中醒来,重返人间的他却发现曾经高贵的变种人,如今境遇十分糟糕。为了创造一个属于变种人的新世界,他找到了暴风女(亚历山德拉·西普 Alexandra Shipp 饰)、灵蝶(奥立薇娅·玛恩 Olivia Munn 饰),天使(本·哈迪 Ben Hardy 饰),还有想要过平凡生活却依旧遭到人类驱逐的万磁王(迈克尔·法斯宾德 Michael Fassbender 饰)组成了天启四骑士。在察觉到天启的动向后,X教授(詹姆斯·麦卡沃伊 James McAvoy 饰)带领着魔形女(詹妮弗·劳伦斯 Jennifer Lawrence 饰)、野兽(尼古拉斯·霍尔特 Nicholas Hoult 饰)和凤凰(索菲·特纳 Sophie Turner 饰)等人,发誓要粉碎天启的阴谋。

◎获奖情况 

  第15届美国视觉效果协会奖 (2017)
  最佳电影视觉效果合成(提名)




  1. Video
  2. ID                                       : 1
  3. Format                                   : AVC
  4. Format/Info                              : Advanced Video Codec
  5. Format profile                           : [url=mailto:High@L5.1]High@L5.1[/url]
  6. Format settings, CABAC                   : Yes
  7. Format settings, ReFrames                : 5 frames
  8. Codec ID                                 : V_MPEG4/ISO/AVC
  9. Duration                                 : 2 h 23 min
  10. Bit rate                                 : 32.3 Mb/s
  11. Width                                    : 3 840 pixels
  12. Height                                   : 1 600 pixels
  13. Display aspect ratio                     : 2.40:1
  14. Frame rate mode                          : Constant
  15. Frame rate                               : 23.976 (24000/1001/39027) FPS
  16. Color space                              : YUV
  17. Chroma subsampling                       : 4:2:0
  18. Bit depth                                : 8 bits
  19. Scan type                                : Progressive
  20. Bits/(Pixel*Frame)                       : 0.219
  21. Stream size                              : 32.5GB (76%)
  22. Title                                    : X-Men.Apocalypse.2016.2160p.BluRay.x264.8bit.SDR.DTS-HD.MA.TrueHD.7.1.Atmos-SWTYBLZ
  23. Writing library                          : x264 core 148 r2748 97eaef2
  24. Encoding settings                        : cabac=1 / ref=5 / deblock=1:-1:-1 / analyse=0x3:0x113 / me=umh / subme=10 / psy=1 / psy_rd=1.00:0.15 / mixed_ref=1 / me_range=48 / chroma_me=1 / trellis=2 / 8x8dct=1 / cqm=0 / deadzone=21,11 / fast_pskip=1 / chroma_qp_offset=-3 / threads=50 / lookahead_threads=4 / sliced_threads=0 / nr=0 / decimate=0 / interlaced=0 / bluray_compat=0 / constrained_intra=0 / bframes=3 / b_pyramid=2 / b_adapt=2 / b_bias=0 / direct=3 / weightb=1 / open_gop=0 / weightp=2 / keyint=250 / keyint_min=23 / scenecut=40 / intra_refresh=0 / rc_lookahead=50 / rc=crf / mbtree=1 / crf=18.0 / qcomp=0.60 / qpmin=0 / qpmax=69 / qpstep=4 / ip_ratio=1.40 / aq=1:1.00
  25. Language                                 : English
  26. Default                                  : Yes
  27. Forced                                   : No

  28. Audio #1
  29. ID                                       : 2
  30. Format                                   : TrueHD
  31. Format profile                           : TrueHD+Atmos / TrueHD
  32. Codec ID                                 : A_TRUEHD
  33. Duration                                 : 2 h 23 min
  34. Bit rate mode                            : Variable
  35. Bit rate                                 : 5 352 kb/s
  36. Maximum bit rate                         : 10.0 Mb/s
  37. Channel(s)                               : Object Based / 8 channels
  38. Channel positions                        : Object Based / Front: L C R, Side: L R, Back: L R, LFE
  39. Sampling rate                            :  / 48.0 kHz
  40. Frame rate                               : 1 200.000 FPS (40 spf)
  41. Compression mode                         : Lossless
  42. Stream size                              : 5.38GB (13%)
  43. Title                                    : X-Men.Apocalypse.2016.2160p.BluRay.x264.8bit.SDR.DTS-HD.MA.TrueHD.7.1.Atmos-SWTYBLZ
  44. Language                                 : English
  45. Default                                  : Yes
  46. Forced                                   : No

  47. Audio #2
  48. ID                                       : 3
  49. Format                                   : DTS
  50. Format/Info                              : Digital Theater Systems
  51. Format profile                           : MA / Core
  52. Mode                                     : 16
  53. Format settings, Endianness              : Big
  54. Codec ID                                 : A_DTS
  55. Duration                                 : 2 h 23 min
  56. Bit rate mode                            : Variable / Constant
  57. Bit rate                                 : 4 042 kb/s / 1 509 kb/s
  58. Channel(s)                               : 8 channels / 6 channels
  59. Channel positions                        : Front: L C R, Side: L R, Back: L R, LFE / Front: L C R, Side: L R, LFE
  60. Sampling rate                            : 48.0 kHz
  61. Frame rate                               : 93.750 FPS (512 spf)
  62. Bit depth                                : 24 bits
  63. Compression mode                         : Lossless / Lossy
  64. Stream size                              : 4.06GB (10%)
  65. Title                                    : X-Men.Apocalypse.2016.2160p.BluRay.x264.8bit.SDR.DTS-HD.MA.TrueHD.7.1.Atmos-SWTYBLZ
  66. Language                                 : English
  67. Default                                  : No
  68. Forced                                   : No

  69. Audio #3
  70. ID                                       : 4
  71. Format                                   : AC-3
  72. Format/Info                              : Audio Coding 3
  73. Format settings, Endianness              : Big
  74. Codec ID                                 : A_AC3
  75. Duration                                 : 2 h 23 min
  76. Bit rate mode                            : Constant
  77. Bit rate                                 : 640 kb/s
  78. Channel(s)                               : 6 channels
  79. Channel positions                        : Front: L C R, Side: L R, LFE
  80. Sampling rate                            : 48.0 kHz
  81. Frame rate                               : 31.250 FPS (1536 spf)
  82. Bit depth                                : 16 bits
  83. Compression mode                         : Lossy
  84. Stream size                              : 659 MiB (2%)
  85. Title                                    : X-Men.Apocalypse.2016.2160p.BluRay.x264.8bit.SDR.DTS-HD.MA.TrueHD.7.1.Atmos-SWTYBLZ
  86. Language                                 : English
  87. Service kind                             : Complete Main
  88. Default                                  : No
  89. Forced                                   : No

  90. Text #1
  91. ID                                       : 5
  92. Format                                   : UTF-8
  93. Codec ID                                 : S_TEXT/UTF8
  94. Codec ID/Info                            : UTF-8 Plain Text
  95. Duration                                 : 2 h 12 min
  96. Bit rate                                 : 40 b/s
  97. Count of elements                        : 1489
  98. Stream size                              : 39.2 KiB (0%)
  99. Title                                    : English-SRT
  100. Language                                 : English
  101. Default                                  : Yes
  102. Forced                                   : No

  103. Text #2
  104. ID                                       : 6
  105. Format                                   : PGS
  106. Muxing mode                              : zlib
  107. Codec ID                                 : S_HDMV/PGS
  108. Codec ID/Info                            : Picture based subtitle format used on BDs/HD-DVDs
  109. Duration                                 : 2 h 21 min
  110. Bit rate                                 : 29.9 kb/s
  111. Count of elements                        : 3818
  112. Stream size                              : 30.3 MiB (0%)
  113. Title                                    : English-PGS
  114. Language                                 : English
  115. Default                                  : No
  116. Forced                                   : No

  117. Text #3
  118. ID                                       : 7
  119. Format                                   : PGS
  120. Muxing mode                              : zlib
  121. Codec ID                                 : S_HDMV/PGS
  122. Codec ID/Info                            : Picture based subtitle format used on BDs/HD-DVDs
  123. Duration                                 : 2 h 22 min
  124. Bit rate                                 : 21.5 kb/s
  125. Count of elements                        : 2816
  126. Stream size                              : 22.0 MiB (0%)
  127. Title                                    : Spanish-PGS
  128. Language                                 : Spanish
  129. Default                                  : No
  130. Forced                                   : No

  131. Text #4
  132. ID                                       : 8
  133. Format                                   : PGS
  134. Muxing mode                              : zlib
  135. Codec ID                                 : S_HDMV/PGS
  136. Codec ID/Info                            : Picture based subtitle format used on BDs/HD-DVDs
  137. Duration                                 : 2 h 22 min
  138. Bit rate                                 : 22.1 kb/s
  139. Count of elements                        : 2934
  140. Stream size                              : 22.6 MiB (0%)
  141. Title                                    : French-PGS
  142. Language                                 : French
  143. Default                                  : No
  144. Forced                                   : No

  145. Text #5
  146. ID                                       : 9
  147. Format                                   : PGS
  148. Muxing mode                              : zlib
  149. Codec ID                                 : S_HDMV/PGS
  150. Codec ID/Info                            : Picture based subtitle format used on BDs/HD-DVDs
  151. Duration                                 : 2 h 22 min
  152. Bit rate                                 : 17.8 kb/s
  153. Count of elements                        : 2612
  154. Stream size                              : 18.2 MiB (0%)
  155. Title                                    : French-PGS
  156. Language                                 : French
  157. Default                                  : No
  158. Forced                                   : No

  159. Text #6
  160. ID                                       : 10
  161. Format                                   : PGS
  162. Muxing mode                              : zlib
  163. Codec ID                                 : S_HDMV/PGS
  164. Codec ID/Info                            : Picture based subtitle format used on BDs/HD-DVDs
  165. Duration                                 : 2 h 22 min
  166. Bit rate                                 : 21.3 kb/s
  167. Count of elements                        : 2912
  168. Stream size                              : 21.7 MiB (0%)
  169. Title                                    : Spanish-PGS
  170. Language                                 : Spanish
  171. Default                                  : No
  172. Forced                                   : No

  173. Text #7
  174. ID                                       : 11
  175. Format                                   : PGS
  176. Muxing mode                              : zlib
  177. Codec ID                                 : S_HDMV/PGS
  178. Codec ID/Info                            : Picture based subtitle format used on BDs/HD-DVDs
  179. Duration                                 : 2 h 22 min
  180. Bit rate                                 : 19.8 kb/s
  181. Count of elements                        : 2272
  182. Stream size                              : 20.2 MiB (0%)
  183. Title                                    : Danish-PGS
  184. Language                                 : Danish
  185. Default                                  : No
  186. Forced                                   : No

  187. Text #8
  188. ID                                       : 12
  189. Format                                   : PGS
  190. Muxing mode                              : zlib
  191. Codec ID                                 : S_HDMV/PGS
  192. Codec ID/Info                            : Picture based subtitle format used on BDs/HD-DVDs
  193. Duration                                 : 2 h 22 min
  194. Bit rate                                 : 19.3 kb/s
  195. Count of elements                        : 2478
  196. Stream size                              : 19.7 MiB (0%)
  197. Title                                    : Dutch-PGS
  198. Language                                 : Dutch
  199. Default                                  : No
  200. Forced                                   : No

  201. Text #9
  202. ID                                       : 13
  203. Format                                   : PGS
  204. Muxing mode                              : zlib
  205. Codec ID                                 : S_HDMV/PGS
  206. Codec ID/Info                            : Picture based subtitle format used on BDs/HD-DVDs
  207. Duration                                 : 2 h 22 min
  208. Bit rate                                 : 19.2 kb/s
  209. Count of elements                        : 2890
  210. Stream size                              : 19.6 MiB (0%)
  211. Title                                    : Finnish-PGS
  212. Language                                 : Finnish
  213. Default                                  : No
  214. Forced                                   : No

  215. Text #10
  216. ID                                       : 14
  217. Format                                   : PGS
  218. Muxing mode                              : zlib
  219. Codec ID                                 : S_HDMV/PGS
  220. Codec ID/Info                            : Picture based subtitle format used on BDs/HD-DVDs
  221. Duration                                 : 2 h 22 min
  222. Bit rate                                 : 22.2 kb/s
  223. Count of elements                        : 2830
  224. Stream size                              : 22.6 MiB (0%)
  225. Title                                    : German-PGS
  226. Language                                 : German
  227. Default                                  : No
  228. Forced                                   : No

  229. Text #11
  230. ID                                       : 15
  231. Format                                   : PGS
  232. Muxing mode                              : zlib
  233. Codec ID                                 : S_HDMV/PGS
  234. Codec ID/Info                            : Picture based subtitle format used on BDs/HD-DVDs
  235. Duration                                 : 2 h 22 min
  236. Bit rate                                 : 21.7 kb/s
  237. Count of elements                        : 2934
  238. Stream size                              : 22.2 MiB (0%)
  239. Title                                    : Italian-PGS
  240. Language                                 : Italian
  241. Default                                  : No
  242. Forced                                   : No

  243. Text #12
  244. ID                                       : 16
  245. Format                                   : PGS
  246. Muxing mode                              : zlib
  247. Codec ID                                 : S_HDMV/PGS
  248. Codec ID/Info                            : Picture based subtitle format used on BDs/HD-DVDs
  249. Duration                                 : 2 h 22 min
  250. Bit rate                                 : 21.4 kb/s
  251. Count of elements                        : 2934
  252. Stream size                              : 21.8 MiB (0%)
  253. Title                                    : Norwegian-PGS
  254. Language                                 : Norwegian
  255. Default                                  : No
  256. Forced                                   : No

  257. Text #13
  258. ID                                       : 17
  259. Format                                   : PGS
  260. Muxing mode                              : zlib
  261. Codec ID                                 : S_HDMV/PGS
  262. Codec ID/Info                            : Picture based subtitle format used on BDs/HD-DVDs
  263. Duration                                 : 2 h 22 min
  264. Bit rate                                 : 20.8 kb/s
  265. Count of elements                        : 2942
  266. Stream size                              : 21.3 MiB (0%)
  267. Title                                    : Swedish-PGS
  268. Language                                 : Swedish
  269. Default                                  : No
  270. Forced                                   : No

  271. Text #14
  272. ID                                       : 18
  273. Format                                   : PGS
  274. Muxing mode                              : zlib
  275. Codec ID                                 : S_HDMV/PGS
  276. Codec ID/Info                            : Picture based subtitle format used on BDs/HD-DVDs
  277. Duration                                 : 2 h 22 min
  278. Bit rate                                 : 16.2 kb/s
  279. Count of elements                        : 2950
  280. Stream size                              : 16.5 MiB (0%)
  281. Title                                    : Chinese-PGS
  282. Language                                 : Chinese
  283. Default                                  : No
  284. Forced                                   : No

  285. Text #15
  286. ID                                       : 19
  287. Format                                   : PGS
  288. Muxing mode                              : zlib
  289. Codec ID                                 : S_HDMV/PGS
  290. Codec ID/Info                            : Picture based subtitle format used on BDs/HD-DVDs
  291. Duration                                 : 2 h 22 min
  292. Bit rate                                 : 17.4 kb/s
  293. Count of elements                        : 2948
  294. Stream size                              : 17.7 MiB (0%)
  295. Title                                    : Chinese-PGS
  296. Language                                 : Chinese
  297. Default                                  : No
  298. Forced                                   : No

  299. Text #16
  300. ID                                       : 20
  301. Format                                   : PGS
  302. Muxing mode                              : zlib
  303. Codec ID                                 : S_HDMV/PGS
  304. Codec ID/Info                            : Picture based subtitle format used on BDs/HD-DVDs
  305. Duration                                 : 1 h 26 min
  306. Bit rate                                 : 1 968 b/s
  307. Count of elements                        : 186
  308. Stream size                              : 1.22 MiB (0%)
  309. Title                                    : English-FORCED-PGS
  310. Language                                 : English
  311. Default                                  : No
  312. Forced                                   : No

  313. Menu
  314. 00:00:00.000                             : en:Chapter 1
  315. 00:08:18.789                             : en:Chapter 2
  316. 00:14:13.185                             : en:Chapter 3
  317. 00:18:07.086                             : en:Chapter 4
  318. 00:24:55.494                             : en:Chapter 5
  319. 00:30:45.343                             : en:Chapter 6
  320. 00:36:35.234                             : en:Chapter 7
  321. 00:41:00.082                             : en:Chapter 8
  322. 00:45:56.503                             : en:Chapter 9
  323. 00:49:24.294                             : en:Chapter 10
  324. 00:55:22.610                             : en:Chapter 11
  325. 00:59:36.823                             : en:Chapter 12
  326. 01:04:43.671                             : en:Chapter 13
  327. 01:12:35.851                             : en:Chapter 14
  328. 01:17:32.898                             : en:Chapter 15
  329. 01:22:18.516                             : en:Chapter 16
  330. 01:27:45.593                             : en:Chapter 17
  331. 01:34:05.806                             : en:Chapter 18
  332. 01:36:46.634                             : en:Chapter 19
  333. 01:39:50.901                             : en:Chapter 20
  334. 01:43:34.374                             : en:Chapter 21
  335. 01:49:57.382                             : en:Chapter 22
  336. 01:55:08.359                             : en:Chapter 23
  337. 01:57:21.659                             : en:Chapter 24
  338. 02:03:50.548                             : en:Chapter 25
  339. 02:07:56.710                             : en:Chapter 26
  340. 02:10:59.101                             : en:Chapter 27
  341. 02:12:54.091                             : en:Chapter 28

复制代码



X战警:天启/变种特攻:天启灭世战 X-Men.Apocalypse.2016.2160p.BluRay.x264.8bit.SDR.DTS-HD.MA.TrueHD.7.1.Atmos-SWTYBLZ 43.05GB-2.png X战警:天启/变种特攻:天启灭世战 X-Men.Apocalypse.2016.2160p.BluRay.x264.8bit.SDR.DTS-HD.MA.TrueHD.7.1.Atmos-SWTYBLZ 43.05GB-3.png X战警:天启/变种特攻:天启灭世战 X-Men.Apocalypse.2016.2160p.BluRay.x264.8bit.SDR.DTS-HD.MA.TrueHD.7.1.Atmos-SWTYBLZ 43.05GB-4.png X战警:天启/变种特攻:天启灭世战 X-Men.Apocalypse.2016.2160p.BluRay.x264.8bit.SDR.DTS-HD.MA.TrueHD.7.1.Atmos-SWTYBLZ 43.05GB-5.png X战警:天启/变种特攻:天启灭世战 X-Men.Apocalypse.2016.2160p.BluRay.x264.8bit.SDR.DTS-HD.MA.TrueHD.7.1.Atmos-SWTYBLZ 43.05GB-6.png X战警:天启/变种特攻:天启灭世战 X-Men.Apocalypse.2016.2160p.BluRay.x264.8bit.SDR.DTS-HD.MA.TrueHD.7.1.Atmos-SWTYBLZ 43.05GB-7.png




回复

使用道具 举报

发表于 2020-2-29 22:57:43 | 显示全部楼层
楼主发贴辛苦了,谢谢楼主分享!我觉得蓝光电影网是注册对了!
回复 支持 反对

使用道具 举报

 成长值: 2200

发表于 2020-3-1 07:26:11 | 显示全部楼层
怎么下载的 迅雷屏蔽无法下载 百度云离线也下载不啦
回复 支持 反对

使用道具 举报

发表于 2020-3-4 23:38:32 | 显示全部楼层
楼主发贴辛苦了,谢谢楼主分享!我觉得蓝光电影网是注册对了!
回复 支持 反对

使用道具 举报

发表于 2020-3-23 19:17:40 | 显示全部楼层

楼主太厉害了!楼主,电影应该很好看我觉得蓝光电影网真是个好地方!
回复 支持 反对

使用道具 举报

懒得打字嘛,点击右侧快捷回复 【右侧内容,后台自定义】
您需要登录后才可以回帖 登录 | 立即加入

本版积分规则

现在加入蓝光电影网,注册一个账号
上个主题 下个主题 快速回复 收藏帖子 返回列表 客服中心 搜索

手机版|小黑屋| 蓝光电影网 |网站地图 

Copyright © 2015-2019 Comsenz Inc.  Template by 蓝光电影论坛 All Rights Reserved.

Powered by 蓝光电影网 X3.4

特别声明:本站所有资源均由网上收集而来,版权归原影音公司所有,如果侵犯了你的权益,请通知我们,我们会及时删除侵权内容.

快速回复 返回顶部 返回列表