找回密码

蓝光电影网

查看: 540|回复: 15

[10bit.HDR] 飞屋环游记/冲天救兵 Up.2009.2160p.UHD.BluRay.X265.10bit.HDR.TrueHD.7.1.Atmos-AViATOR 11.37GB

[复制链接]

 成长值: 25360

发表于 2020-2-26 23:21:06 | 显示全部楼层 |阅读模式
飞屋环游记/冲天救兵 Up.2009.2160p.UHD.BluRay.X265.10bit.HDR.TrueHD.7.1.Atmos-AViATOR 11.37GB-1.png

译  名 飞屋环游记 / 冲天救兵(港) / 天外奇迹(台) / 飞屋历险记
片  名 Up
年  代 2009
产  地 美国
类  别 剧情 / 喜剧 / 动画 / 冒险
语  言 英语
上映日期 2009-05-13(戛纳电影节) / 2009-05-29(美国) / 2009-08-04(中国大陆)
IMDb评分  8.2/10 from 883364 users
IMDb链接  https://www.imdb.com/title/tt1049413
豆瓣评分 9.0/10 from 897311 users
豆瓣链接 https://movie.douban.com/subject/2129039/
片  长 96分钟
导  演 彼特·道格特 Pete Docter / 鲍勃·彼德森 Bob Peterson
编  剧 彼特·道格特 Pete Docter / 鲍勃·彼德森 Bob Peterson / 汤姆·麦卡锡 Tom McCarthy
主  演 爱德华·阿斯纳 Edward Asner
       克里斯托弗·普卢默 Christopher Plummer
       乔丹·长井 Jordan Nagai
       鲍勃·彼德森 Bob Peterson
       戴尔里·林多 Delroy Lindo
       杰罗姆·兰福特 Jerome Ranft
       约翰·拉岑贝格 John Ratzenberger
       大卫·卡耶 David Kaye
       艾丽·道克特 Elie Docter
       杰里米·利里 Jeremy Leary
       米凯·麦高万 Mickie McGowan
       丹尼·曼恩 Danny Mann
       唐纳德·富利洛夫 Donald Fullilove
       杰斯·哈梅尔 Jess Harnell
       乔什·库雷 Josh Cooley
       彼特·道格特 Pete Docter


标  签 动画 | 梦想 | 美国 | 冒险 | 爱情 | pixar | 温情 | Disney

简  介  

  小男孩卡尔(Carl Fredricksen)怀揣着对于冒险的热爱偶遇假小子艾丽(Ellie),而艾丽把整个屋子当成一艘大飞船游戏居然使他对这个女孩子有些着迷,相同的爱好最终使两个人成为了一生的爱侣。
  他们有一个梦想,那就是有朝一日要去南美洲的“仙境瀑布”探险,但直到艾丽去世,这个梦想也未能实现。终于有一天,曾经专卖气球的老人卡尔居然用五颜六色的气球拽着他的房子飞上了天空,他决定要去实现他们未曾实现的梦想。令卡尔始料不及的是,门廊居然搭上了一个自称是“荒野开拓者”的小男孩小罗(Russell),小罗的喋喋不休让卡尔对这个小胖墩格外讨厌。
  一老一少在飞行中经过了千难万险终于看到了传说中的“仙境瀑布”,在相处过程中卡尔发现小罗其实是个惹人怜爱的孩子。在步行穿越一座森林时,他们遇到了不会飞的大鸟凯文(Kevin)和一只会说话的狗狗逗逗(Dug),让老人惊讶的是他们还遇到了他少年的崇拜偶像——探险家查尔斯·蒙兹(Charles Muntz),而且他发现蒙兹居然是一个为达目的不择手段的坏人。这时,老人离自己的梦想之地只有一步之遥……
  本片荣获第82届奥斯卡最佳动画长片、最佳配乐2项大奖。

获奖情况  

  第82届奥斯卡金像奖(2010)
  最佳影片(提名) 乔纳斯·里维拉
  最佳原创剧本(提名) 汤姆·麦卡锡 / 彼特·道格特
  最佳动画长片 彼特·道格特
  最佳音效剪辑(提名) 迈克尔·席维斯 / Tom Myers
  最佳原创配乐 迈克·吉亚奇诺

  第66届威尼斯电影节(2009)
  未来电影数字奖-特别提及 彼特·道格特

  第67届金球奖(2010)
  电影类 最佳动画长片
  电影类 最佳原创配乐 迈克·吉亚奇诺

  第37届动画安妮奖(2010)
  最佳动画长片
  最佳导演 彼特·道格特
  最佳编剧(提名) 汤姆·麦卡锡 / 彼特·道格特 / 鲍勃·彼德森
  最佳配乐(提名) 迈克·吉亚奇诺
  最佳分镜(提名) 罗纳尔多·德尔·卡门 / 彼得·孙
  最佳动画角色(提名)
  最佳角色设计(提名) Daniel Lopez Munoz / Daniel Lopez Munoz
  最佳动画效果(提名) Eric Froemling

  第75届纽约影评人协会奖(2009)
  最佳动画片(提名)

  第10届美国电影学会奖(2009)
  年度佳片

  第8届华盛顿影评人协会奖(2009)
  最佳影片(提名)
  最佳原创剧本(提名) 彼特·道格特 / 鲍勃·彼德森
  最佳动画片

  第14届圣地亚哥影评人协会奖(2009)
  最佳动画片
  最佳配乐(提名) 迈克·吉亚奇诺

  第22届芝加哥影评人协会奖(2009)
  最佳原创剧本(提名) 鲍勃·彼德森
  最佳动画片
  最佳原创配乐 迈克·吉亚奇诺

  第43届堪萨斯影评人协会奖(2010)
  最佳动画片

  第9届凤凰城影评人协会奖(2009)
  最佳原创剧本 彼特·道格特 / 鲍勃·彼德森
  最佳原创配乐 迈克·吉亚奇诺
  最佳动画片

  第18届东南影评人协会奖(2009)
  最佳影片(提名)
  最佳动画片

  第11届美国青少年选择奖(2009)
  最佳暑期喜剧片
  1. Video
  2. ID                                       : 1
  3. Format                                   : HEVC
  4. Format/Info                              : High Efficiency Video Coding
  5. Format profile                           : Main 10@L5.1@High
  6. HDR format                               : SMPTE ST 2086, HDR10 compatible
  7. Codec ID                                 : V_MPEGH/ISO/HEVC
  8. Duration                                 : 1 h 36 min
  9. Bit rate                                 : 9 213 kb/s
  10. Width                                    : 3 840 pixels
  11. Height                                   : 2 160 pixels
  12. Display aspect ratio                     : 16:9
  13. Frame rate mode                          : Constant
  14. Frame rate                               : 23.976 (24000/1001/39027) FPS
  15. Color space                              : YUV
  16. Chroma subsampling                       : 4:2:0 (Type 2)
  17. Bit depth                                : 10 bits
  18. Bits/(Pixel*Frame)                       : 0.046
  19. Stream size                              : 6.19 GiB (55%)
  20. Writing library                          : x265 3.2+23-52135ffd9bcd:[Windows][GCC 9.2.1][64 bit] 10bit
  21. Encoding settings                        : cpuid=1176575 / frame-threads=6 / numa-pools=36 / wpp / no-pmode / no-pme / no-psnr / no-ssim / log-level=2 / input-csp=1 / input-res=3840x2160 / interlace=0 / total-frames=138291 / level-idc=51 / high-tier=1 / uhd-bd=1 / ref=4 / no-allow-non-conformance / repeat-headers / annexb / aud / hrd / info / hash=0 / no-temporal-layers / no-open-gop / min-keyint=1 / keyint=24 / gop-lookahead=0 / bframes=4 / b-adapt=2 / b-pyramid / bframe-bias=0 / rc-lookahead=25 / lookahead-slices=4 / scenecut=40 / hist-scenecut=0 / radl=0 / no-splice / no-intra-refresh / ctu=64 / min-cu-size=8 / rect / no-amp / max-tu-size=32 / tu-inter-depth=1 / tu-intra-depth=1 / limit-tu=0 / rdoq-level=2 / dynamic-rd=0.00 / no-ssim-rd / signhide / no-tskip / nr-intra=0 / nr-inter=0 / no-constrained-intra / no-strong-intra-smoothing / max-merge=3 / limit-refs=3 / limit-modes / me=3 / subme=3 / merange=57 / temporal-mvp / no-frame-dup / no-hme / weightp / no-weightb / no-analyze-src-pics / deblock=-3:-3 / no-sao / no-sao-non-deblock / rd=4 / selective-sao=0 / no-early-skip / rskip / no-fast-intra / no-tskip-fast / no-cu-lossless / no-b-intra / no-splitrd-skip / rdpenalty=0 / psy-rd=2.00 / psy-rdoq=1.00 / no-rd-refine / no-lossless / cbqpoffs=0 / crqpoffs=0 / rc=crf / crf=17.0 / qcomp=0.60 / qpstep=4 / stats-write=0 / stats-read=0 / vbv-maxrate=160000 / vbv-bufsize=160000 / vbv-init=0.9 / crf-max=0.0 / crf-min=0.0 / ipratio=1.40 / pbratio=1.30 / aq-mode=1 / aq-strength=1.00 / cutree / zone-count=0 / no-strict-cbr / qg-size=32 / no-rc-grain / qpmax=69 / qpmin=0 / no-const-vbv / sar=1 / overscan=0 / videoformat=5 / range=0 / colorprim=9 / transfer=16 / colormatrix=9 / chromaloc=1 / chromaloc-top=2 / chromaloc-bottom=2 / display-window=0 / master-display=G(13250,34500)B(7500,3000)R(34000,16000)WP(15635,16450)L(10000000,0) / cll=0,0 / min-luma=0 / max-luma=1023 / log2-max-poc-lsb=8 / vui-timing-info / vui-hrd-info / slices=1 / no-opt-qp-pps / no-opt-ref-list-length-pps / no-multi-pass-opt-rps / scenecut-bias=0.05 / hist-threshold=0.01 / no-opt-cu-delta-qp / no-aq-motion / hdr / hdr-opt / no-dhdr10-opt / no-idr-recovery-sei / analysis-reuse-level=5 / scale-factor=0 / refine-intra=0 / refine-inter=0 / refine-mv=1 / refine-ctu-distortion=0 / no-limit-sao / ctu-info=0 / no-lowpass-dct / refine-analysis-type=0 / copy-pic=1 / max-ausize-factor=1.0 / no-dynamic-refine / no-single-sei / no-hevc-aq / no-svt / no-field / qp-adaptation-range=1.00 / no-scenecut-aware-qp
  22. Default                                  : Yes
  23. Forced                                   : No
  24. Color range                              : Limited
  25. Color primaries                          : BT.2020
  26. Transfer characteristics                 : PQ
  27. Matrix coefficients                      : BT.2020 non-constant
  28. Mastering display color primaries        : Display P3
  29. Mastering display luminance              : min: 0.0000 cd/m2, max: 1000 cd/m2

  30. Audio #1
  31. ID                                       : 2
  32. Format                                   : MLP FBA 16-ch
  33. Format/Info                              : Meridian Lossless Packing FBA with 16-channel presentation
  34. Commercial name                          : Dolby TrueHD with Dolby Atmos
  35. Codec ID                                 : A_TRUEHD
  36. Duration                                 : 1 h 36 min
  37. Bit rate mode                            : Variable
  38. Bit rate                                 : 6 844 kb/s
  39. Maximum bit rate                         : 8 307 kb/s
  40. Channel(s)                               : 8 channels
  41. Channel layout                           : L R C LFE Ls Rs Lb Rb
  42. Sampling rate                            : 48.0 kHz
  43. Frame rate                               : 1 200.000 FPS (40 SPF)
  44. Compression mode                         : Lossless
  45. Stream size                              : 4.60 GiB (41%)
  46. Language                                 : English
  47. Default                                  : Yes
  48. Forced                                   : No
  49. Number of dynamic objects                : 13
  50. Bed channel count                        : 1 channel
  51. Bed channel configuration                : LFE

  52. Audio #2
  53. ID                                       : 3
  54. Format                                   : AC-3
  55. Format/Info                              : Audio Coding 3
  56. Commercial name                          : Dolby Digital
  57. Codec ID                                 : A_AC3
  58. Duration                                 : 1 h 36 min
  59. Bit rate mode                            : Constant
  60. Bit rate                                 : 640 kb/s
  61. Channel(s)                               : 6 channels
  62. Channel layout                           : L R C LFE Ls Rs
  63. Sampling rate                            : 48.0 kHz
  64. Frame rate                               : 31.250 FPS (1536 SPF)
  65. Bit depth                                : 16 bits
  66. Compression mode                         : Lossy
  67. Stream size                              : 440 MiB (4%)
  68. Language                                 : English
  69. Service kind                             : Complete Main
  70. Default                                  : No
  71. Forced                                   : No

  72. Text #1
  73. ID                                       : 4
  74. Format                                   : PGS
  75. Muxing mode                              : zlib
  76. Codec ID                                 : S_HDMV/PGS
  77. Codec ID/Info                            : Picture based subtitle format used on BDs/HD-DVDs
  78. Duration                                 : 1 h 35 min
  79. Bit rate                                 : 33.7 kb/s
  80. Count of elements                        : 2400
  81. Stream size                              : 23.1 MiB (0%)
  82. Title                                    : English SDH
  83. Language                                 : English
  84. Default                                  : No
  85. Forced                                   : No

  86. Text #2
  87. ID                                       : 5
  88. Format                                   : PGS
  89. Muxing mode                              : zlib
  90. Codec ID                                 : S_HDMV/PGS
  91. Codec ID/Info                            : Picture based subtitle format used on BDs/HD-DVDs
  92. Duration                                 : 1 h 35 min
  93. Bit rate                                 : 25.8 kb/s
  94. Count of elements                        : 1714
  95. Stream size                              : 17.7 MiB (0%)
  96. Title                                    : French
  97. Language                                 : French
  98. Default                                  : No
  99. Forced                                   : No

  100. Text #3
  101. ID                                       : 6
  102. Format                                   : PGS
  103. Muxing mode                              : zlib
  104. Codec ID                                 : S_HDMV/PGS
  105. Codec ID/Info                            : Picture based subtitle format used on BDs/HD-DVDs
  106. Duration                                 : 1 h 35 min
  107. Bit rate                                 : 25.6 kb/s
  108. Count of elements                        : 1716
  109. Stream size                              : 17.5 MiB (0%)
  110. Title                                    : Spanish
  111. Language                                 : Spanish
  112. Default                                  : No
  113. Forced                                   : No
复制代码
171847vkjhi81hw5x5iikw.png 171848menii9910t5tfitj.png 171848b2ixt3iit55tr0ib.png



回复

使用道具 举报

已抛锚 成长值: 310

发表于 2020-2-27 00:32:51 | 显示全部楼层
经典的回忆
回复 支持 反对

使用道具 举报

发表于 2020-2-27 02:04:36 | 显示全部楼层

楼主太厉害了!楼主,电影应该很好看我觉得蓝光电影网真是个好地方!
回复 支持 反对

使用道具 举报

发表于 2020-2-27 08:33:28 | 显示全部楼层

这东西我收了!谢谢楼主!蓝光电影网真好!
回复 支持 反对

使用道具 举报

发表于 2020-2-27 08:51:09 | 显示全部楼层
值得一看的片子,不错!
回复 支持 反对

使用道具 举报

发表于 2020-2-27 08:59:08 | 显示全部楼层
楼主发贴辛苦了,谢谢楼主分享!我觉得蓝光电影网是注册对了!
回复 支持 反对

使用道具 举报

发表于 2020-2-27 09:24:06 | 显示全部楼层
这东西我收了!谢谢楼主!蓝光电影网真好!
回复 支持 反对

使用道具 举报

发表于 2020-2-27 10:36:31 | 显示全部楼层
楼主发贴辛苦了,谢谢楼主分享!
回复 支持 反对

使用道具 举报

发表于 2020-2-27 12:41:02 | 显示全部楼层
不知道可有中文版
回复 支持 反对

使用道具 举报

发表于 2020-2-27 12:53:23 | 显示全部楼层
楼主发贴辛苦了,谢谢楼主分享!我觉得蓝光电影网是注册对了!
回复 支持 反对

使用道具 举报

懒得打字嘛,点击右侧快捷回复 【右侧内容,后台自定义】
您需要登录后才可以回帖 登录 | 立即加入

本版积分规则

现在加入蓝光电影网,注册一个账号
上个主题 下个主题 快速回复 收藏帖子 返回列表 客服中心 搜索

手机版|小黑屋| 蓝光电影网 |网站地图 

Copyright © 2015-2019 Comsenz Inc.  Template by 蓝光电影论坛 All Rights Reserved.

Powered by 蓝光电影网 X3.4

特别声明:本站所有资源均由网上收集而来,版权归原影音公司所有,如果侵犯了你的权益,请通知我们,我们会及时删除侵权内容.

快速回复 返回顶部 返回列表