找回密码

蓝光电影网

查看: 1215|回复: 48

[10bit.HDR] 利刃出鞘/上流谋杀案 Knives.Out.2019.2160p.UHD.BluRay.x265.10bit.HDR.DTS-HD.MA.TrueHD.7.1.Atmos-SWTYBLZ 34.55GB

[复制链接]

 成长值: 25285

发表于 2020-2-24 20:49:57 | 显示全部楼层 |阅读模式
利刃出鞘/上流谋杀案 Knives.Out.2019.2160p.UHD.BluRay.x265.10bit.HDR.DTS-HD.MA.TrueHD.7.1.Atmos-SWTYBLZ 34.55GB-1.png

译  名 利刃出鞘 / 上流谋杀案 / 亮剑 / 出鞘 / 神探白朗:福比利大宅谋杀案(港) / 致命遗产 / 锋回路转(台)
片  名 Knives Out
年  代 2019
产  地 美国
类  别 剧情 / 喜剧 / 悬疑 / 犯罪
语  言 英语 / 西班牙语
上映日期 2019-09-07(多伦多电影节) / 2019-11-27(美国) / 2019-11-29(中国大陆)
IMDb评分  8.0/10 from 184840 users
IMDb链接  https://www.imdb.com/title/tt8946378
豆瓣评分 8.2/10 from 354818 users
豆瓣链接 https://movie.douban.com/subject/30318116/
片  长 130分钟
导  演 莱恩·约翰逊 Rian Johnson
编  剧 莱恩·约翰逊 Rian Johnson
主  演 丹尼尔·克雷格 Daniel Craig
       安娜·德·阿玛斯 Ana de Armas
       克里斯·埃文斯 Chris Evans
       杰米·李·柯蒂斯 Jamie Lee Curtis
       迈克尔·珊农 Michael Shannon
       唐·约翰逊 Don Johnson
       托妮·科莱特 Toni Collette
       勒凯斯·斯坦菲尔德 Lakeith Stanfield
       克里斯托弗·普卢默 Christopher Plummer
       凯瑟琳·兰福德 Katherine Langford
       杰登·马泰尔 Jaeden Martell
       瑞琪·琳德赫姆 Riki Lindhome
       艾迪·帕特森 Edi Patterson
       弗兰克·奥兹 Frank Oz
       K·卡兰 K Callan
       诺阿·西甘 Noah Segan
       M·埃梅特·沃尔什 M. Emmet Walsh
       玛琳娜·福特 Marlene Forte
       劳尔·卡斯提洛 Raúl Castillo
       雪莉·罗德里格斯 Shyrley Rodriguez
       约瑟夫·高登-莱维特 Joseph Gordon-Levitt
       加布里埃尔·洛莱斯 Gabrielle Lorthe


标  签 悬疑 | 推理 | 美国 | 犯罪 | 黑色幽默 | 侦探 | 剧情 | 2019

简  介  

  富豪小说家哈兰·斯隆比在自己85岁生日第二天,被发现在自家庄园离奇自杀,遗留了亿万遗产。久负盛名的大侦探布兰科(丹尼尔·克雷格饰)突然被匿名人士雇佣调查此案真相。同时,哈兰的孙子兰森(克里斯·埃文斯饰)也正在秘密调查此案。当布兰科和哈兰·斯隆比家族的其他人对谈时, 他发现事情并没有想象中那么简单。
  哈兰家族没有表面上那么和睦,每个人都有着不可告人的秘密,每个人都想得到遗产……究竟这起命案是自杀还是他杀?似乎每个人都有嫌疑。随着一位遗产继承人的意外亮相,真相谜底渐渐浮出水面……

获奖情况  

  第92届奥斯卡金像奖(2020)
  最佳原创剧本(提名) 莱恩·约翰逊

  第77届金球奖(2020)
  电影类 最佳音乐/喜剧片(提名)
  电影类 音乐/喜剧片最佳男主角(提名) 丹尼尔·克雷格
  电影类 音乐/喜剧片最佳女主角(提名) 安娜·德·阿玛斯

  第73届英国电影学院奖(2020)
  电影奖 最佳原创剧本(提名) 莱恩·约翰逊

  第72届美国编剧工会奖(2020)
  电影奖 最佳原创剧本(提名) 莱恩·约翰逊

  第31届美国制片人工会奖(2020)
  最佳电影制片人奖(提名)

  第70届美国剪辑工会奖(2020)
  音乐/喜剧片最佳剪辑(提名) 鲍勃·达克萨

  第24届美国艺术指导工会奖(2020)
  电影奖 最佳当代电影艺术指导(提名) 大卫·格兰克

  第22届美国服装设计工会奖(2020)
  现代电影最佳服装设计 珍妮·伊根

  第91届美国国家评论协会奖(2019)
  最佳群戏
  年度佳片

  第25届美国评论家选择电影奖(2020)
  最佳群戏(提名)
  最佳喜剧片(提名)
  最佳原创剧本(提名) 莱恩·约翰逊

  第20届美国电影学会奖(2019)
  年度佳片

  第24届金卫星奖(2020)
  电影部门 最佳喜剧/音乐片(提名)
  电影部门 喜剧/音乐片最佳男主角(提名) 丹尼尔·克雷格
  电影部门 喜剧/音乐片最佳女主角(提名) 安娜·德·阿玛斯
  电影最佳群像

  第18届华盛顿影评人协会奖(2019)
  最佳群戏

  第40届伦敦影评人协会奖(2020)
  年度电影(提名)

  第32届芝加哥影评人协会奖(2019)
  最佳原创剧本(提名) 莱恩·约翰逊
  最佳艺术指导(提名)

  第4届亚特兰大影评人协会奖(2019)
  十佳影片

  第23届美国在线影评人协会奖(2020)
  最佳影片(提名)
  最佳原创剧本(提名) 莱恩·约翰逊

  第6届豆瓣电影年度榜单(2019)
  评分最高的外语电影(提名)
  评分最高的喜剧片(提名)
  1. Video
  2. ID                                       : 1
  3. Format                                   : HEVC
  4. Format/Info                              : High Efficiency Video Coding
  5. Format profile                           : Main 10@L5.1@High
  6. HDR format                               : SMPTE ST 2086, HDR10 compatible
  7. Codec ID                                 : V_MPEGH/ISO/HEVC
  8. Duration                                 : 2 h 10 min
  9. Bit rate                                 : 30.8 Mb/s
  10. Width                                    : 3 840 pixels
  11. Height                                   : 2 076 pixels
  12. Display aspect ratio                     : 1.85:1
  13. Frame rate mode                          : Constant
  14. Frame rate                               : 23.976 (24000/1001/39027) FPS
  15. Color space                              : YUV
  16. Chroma subsampling                       : 4:2:0 (Type 2)
  17. Bit depth                                : 10 bits
  18. Bits/(Pixel*Frame)                       : 0.161
  19. Stream size                              : 28.0 GiB (81%)
  20. Title                                    : Knives.Out.2019.2160p.UHD.BluRay.x265.10bit.HDR.DTS-HD.MA.TrueHD.7.1.Atmos-SWTYBLZ
  21. Writing library                          : x265 3.0_Au+10-74a8672ea4f7:[Windows][GCC 8.2.1][64 bit] 10bit
  22. Encoding settings                        : cpuid=1111039 / frame-threads=6 / numa-pools=24,24,24,24 / wpp / no-pmode / no-pme / no-psnr / no-ssim / log-level=2 / input-csp=1 / input-res=3840x2076 / interlace=0 / total-frames=0 / level-idc=51 / high-tier=1 / uhd-bd=0 / ref=3 / no-allow-non-conformance / repeat-headers / annexb / aud / hrd / info / hash=0 / no-temporal-layers / no-open-gop / min-keyint=1 / keyint=24 / gop-lookahead=0 / bframes=4 / b-adapt=2 / b-pyramid / bframe-bias=0 / rc-lookahead=25 / lookahead-slices=4 / scenecut=40 / radl=0 / no-splice / no-intra-refresh / ctu=64 / min-cu-size=8 / no-rect / no-amp / max-tu-size=32 / tu-inter-depth=1 / tu-intra-depth=1 / limit-tu=0 / rdoq-level=0 / dynamic-rd=0.00 / no-ssim-rd / signhide / no-tskip / nr-intra=0 / nr-inter=0 / no-constrained-intra / strong-intra-smoothing / max-merge=2 / limit-refs=3 / no-limit-modes / me=1 / subme=2 / merange=57 / temporal-mvp / weightp / no-weightb / no-analyze-src-pics / deblock=0:0 / no-sao / no-sao-non-deblock / rd=3 / no-early-skip / rskip / no-fast-intra / no-tskip-fast / no-cu-lossless / no-b-intra / no-splitrd-skip / rdpenalty=0 / psy-rd=2.00 / psy-rdoq=0.00 / no-rd-refine / no-lossless / cbqpoffs=0 / crqpoffs=0 / rc=crf / crf=16.0 / qcomp=0.60 / qpstep=4 / stats-write=0 / stats-read=0 / vbv-maxrate=160000 / vbv-bufsize=160000 / vbv-init=0.9 / crf-max=0.0 / crf-min=0.0 / ipratio=1.40 / pbratio=1.30 / aq-mode=1 / aq-strength=1.00 / cutree / zone-count=0 / no-strict-cbr / qg-size=32 / no-rc-grain / qpmax=69 / qpmin=0 / no-const-vbv / sar=1 / overscan=0 / videoformat=5 / range=0 / colorprim=9 / transfer=16 / colormatrix=9 / chromaloc=1 / chromaloc-top=2 / chromaloc-bottom=2 / display-window=0 / master-display=G(8500,39850)B(6550,2300)R(35400,14600)WP(15635,16450)L(10000000,01) / max-cll=267,89 / min-luma=0 / max-luma=1023 / log2-max-poc-lsb=8 / vui-timing-info / vui-hrd-info / slices=1 / opt-qp-pps / opt-ref-list-length-pps / no-multi-pass-opt-rps / scenecut-bias=0.05 / no-opt-cu-delta-qp / no-aq-motion / hdr / hdr-opt / no-dhdr10-opt / no-idr-recovery-sei / analysis-reuse-level=5 / scale-factor=0 / refine-intra=0 / refine-inter=0 / refine-mv=0 / refine-ctu-distortion=0 / no-limit-sao / ctu-info=0 / no-lowpass-dct / refine-analysis-type=-1190582272 / copy-pic=1 / max-ausize-factor=1.0 / no-dynamic-refine / no-single-sei / no-hevc-aq / no-svt / qp-adaptation-range=1.00
  23. Default                                  : Yes
  24. Forced                                   : No
  25. Color range                              : Limited
  26. Color primaries                          : BT.2020
  27. Transfer characteristics                 : PQ
  28. Matrix coefficients                      : BT.2020 non-constant
  29. Mastering display color primaries        : BT.2020
  30. Mastering display luminance              : min: 0.0001 cd/m2, max: 1000 cd/m2
  31. Maximum Content Light Level              : 267 cd/m2
  32. Maximum Frame-Average Light Level        : 89 cd/m2

  33. Audio #1
  34. ID                                       : 2
  35. Format                                   : MLP FBA 16-ch
  36. Format/Info                              : Meridian Lossless Packing FBA with 16-channel presentation
  37. Commercial name                          : Dolby TrueHD with Dolby Atmos
  38. Codec ID                                 : A_TRUEHD
  39. Duration                                 : 2 h 10 min
  40. Bit rate mode                            : Variable
  41. Bit rate                                 : 2 585 kb/s
  42. Maximum bit rate                         : 3 363 kb/s
  43. Channel(s)                               : 8 channels
  44. Channel layout                           : L R C LFE Ls Rs Lb Rb
  45. Sampling rate                            : 48.0 kHz
  46. Frame rate                               : 1 200.000 FPS (40 SPF)
  47. Compression mode                         : Lossless
  48. Stream size                              : 2.35 GiB (7%)
  49. Title                                    : Knives.Out.2019.2160p.UHD.BluRay.x265.10bit.HDR.DTS-HD.MA.TrueHD.7.1.Atmos-SWTYBLZ
  50. Language                                 : English
  51. Default                                  : Yes
  52. Forced                                   : No
  53. Number of dynamic objects                : 11
  54. Bed channel count                        : 1 channel
  55. Bed channel configuration                : LFE

  56. Audio #2
  57. ID                                       : 3
  58. Format                                   : DTS XLL
  59. Format/Info                              : Digital Theater Systems
  60. Commercial name                          : DTS-HD Master Audio
  61. Codec ID                                 : A_DTS
  62. Duration                                 : 2 h 10 min
  63. Bit rate mode                            : Variable
  64. Bit rate                                 : 3 799 kb/s
  65. Channel(s)                               : 8 channels
  66. Channel layout                           : C L R LFE Lb Rb Lss Rss
  67. Sampling rate                            : 48.0 kHz
  68. Frame rate                               : 93.750 FPS (512 SPF)
  69. Bit depth                                : 24 bits
  70. Compression mode                         : Lossless
  71. Stream size                              : 3.46 GiB (10%)
  72. Title                                    : Knives.Out.2019.2160p.UHD.BluRay.x265.10bit.HDR.DTS-HD.MA.TrueHD.7.1.Atmos-SWTYBLZ
  73. Language                                 : English
  74. Default                                  : No
  75. Forced                                   : No

  76. Audio #3
  77. ID                                       : 4
  78. Format                                   : AC-3
  79. Format/Info                              : Audio Coding 3
  80. Commercial name                          : Dolby Digital
  81. Codec ID                                 : A_AC3
  82. Duration                                 : 2 h 10 min
  83. Bit rate mode                            : Constant
  84. Bit rate                                 : 448 kb/s
  85. Channel(s)                               : 6 channels
  86. Channel layout                           : L R C LFE Ls Rs
  87. Sampling rate                            : 48.0 kHz
  88. Frame rate                               : 31.250 FPS (1536 SPF)
  89. Bit depth                                : 16 bits
  90. Compression mode                         : Lossy
  91. Stream size                              : 417 MiB (1%)
  92. Title                                    : Knives.Out.2019.2160p.UHD.BluRay.x265.10bit.HDR.DTS-HD.MA.TrueHD.7.1.Atmos-SWTYBLZ
  93. Language                                 : English
  94. Service kind                             : Complete Main
  95. Default                                  : No
  96. Forced                                   : No

  97. Text #1
  98. ID                                       : 5
  99. Format                                   : UTF-8
  100. Codec ID                                 : S_TEXT/UTF8
  101. Codec ID/Info                            : UTF-8 Plain Text
  102. Duration                                 : 2 h 2 min
  103. Bit rate                                 : 83 b/s
  104. Count of elements                        : 2267
  105. Stream size                              : 74.8 KiB (0%)
  106. Title                                    : English-SRT
  107. Language                                 : English
  108. Default                                  : Yes
  109. Forced                                   : No

  110. Text #2
  111. ID                                       : 6
  112. Format                                   : PGS
  113. Muxing mode                              : zlib
  114. Codec ID                                 : S_HDMV/PGS
  115. Codec ID/Info                            : Picture based subtitle format used on BDs/HD-DVDs
  116. Duration                                 : 2 h 2 min
  117. Bit rate                                 : 57.1 kb/s
  118. Count of elements                        : 4536
  119. Stream size                              : 49.9 MiB (0%)
  120. Title                                    : English-PGS
  121. Language                                 : English
  122. Default                                  : No
  123. Forced                                   : No

  124. Text #3
  125. ID                                       : 7
  126. Format                                   : PGS
  127. Muxing mode                              : zlib
  128. Codec ID                                 : S_HDMV/PGS
  129. Codec ID/Info                            : Picture based subtitle format used on BDs/HD-DVDs
  130. Duration                                 : 2 h 9 min
  131. Bit rate                                 : 60.2 kb/s
  132. Count of elements                        : 5050
  133. Stream size                              : 56.0 MiB (0%)
  134. Title                                    : English-SDH-PGS
  135. Language                                 : English
  136. Default                                  : No
  137. Forced                                   : No

  138. Text #4
  139. ID                                       : 8
  140. Format                                   : PGS
  141. Muxing mode                              : zlib
  142. Codec ID                                 : S_HDMV/PGS
  143. Codec ID/Info                            : Picture based subtitle format used on BDs/HD-DVDs
  144. Duration                                 : 2 h 4 min
  145. Bit rate                                 : 41.8 kb/s
  146. Count of elements                        : 4044
  147. Stream size                              : 37.1 MiB (0%)
  148. Title                                    : French-PGS
  149. Language                                 : French
  150. Default                                  : No
  151. Forced                                   : No

  152. Text #5
  153. ID                                       : 9
  154. Format                                   : PGS
  155. Muxing mode                              : zlib
  156. Codec ID                                 : S_HDMV/PGS
  157. Codec ID/Info                            : Picture based subtitle format used on BDs/HD-DVDs
  158. Duration                                 : 2 h 4 min
  159. Bit rate                                 : 51.6 kb/s
  160. Count of elements                        : 3982
  161. Stream size                              : 45.8 MiB (0%)
  162. Title                                    : Spanish-PGS
  163. Language                                 : Spanish
  164. Default                                  : No
  165. Forced                                   : No

  166. Menu
  167. 00:00:00.000                             : en:Chapter 01
  168. 00:05:28.036                             : en:Chapter 02
  169. 00:21:23.115                             : en:Chapter 03
  170. 00:31:48.698                             : en:Chapter 04
  171. 00:44:30.959                             : en:Chapter 05
  172. 00:49:52.364                             : en:Chapter 06
  173. 00:54:53.581                             : en:Chapter 07
  174. 00:58:39.766                             : en:Chapter 08
  175. 01:07:09.567                             : en:Chapter 09
  176. 01:12:43.734                             : en:Chapter 10
  177. 01:22:30.278                             : en:Chapter 11
  178. 01:28:49.490                             : en:Chapter 12
  179. 01:34:44.095                             : en:Chapter 13
  180. 01:40:47.332                             : en:Chapter 14
  181. 01:43:43.926                             : en:Chapter 15
  182. 02:01:45.131                             : en:Chapter 16
复制代码
191229dr7pf7rzqxc1p9x9.png 191229wzyeem8y2qcekpfp.png 191230oqnn95rqzhmwwnnh.png 191230b1syldiy3y12lfl6.png 191230l3mtu39ur9n3jezh.png 191231wwf7unnz9m7ns9q7.png 191231ngxqlizq5xxm59r3.png





回复

使用道具 举报

发表于 2020-2-24 21:11:47 | 显示全部楼层
dddd dd dddddd
回复 支持 反对

使用道具 举报

发表于 2020-2-24 21:13:17 | 显示全部楼层
一般什么时候非VIP才能下这类资源……
回复 支持 反对

使用道具 举报

发表于 2020-2-24 21:58:46 | 显示全部楼层
谢谢分享
回复

使用道具 举报

已抛锚 成长值: 290

发表于 2020-2-25 00:03:38 | 显示全部楼层
楼主发贴辛苦了,谢谢楼主分享!我觉得蓝光电影网是注册对了!
回复 支持 反对

使用道具 举报

发表于 2020-2-25 00:17:30 | 显示全部楼层
楼主发贴辛苦了,谢谢楼主分享!我觉得蓝光电影网是注册对了!
回复 支持 反对

使用道具 举报

发表于 2020-2-25 01:10:18 | 显示全部楼层

这个帖子不回对不起自己!我想我是一天也不能离开蓝光电影网
回复 支持 反对

使用道具 举报

发表于 2020-2-25 08:34:38 | 显示全部楼层

楼主太厉害了!楼主,电影应该很好看我觉得蓝光电影网真是个好地方!
回复 支持 反对

使用道具 举报

发表于 2020-2-25 10:15:24 | 显示全部楼层

这个帖子不回对不起自己!我想我是一天也不能离开蓝光电影网
回复 支持 反对

使用道具 举报

发表于 2020-2-25 11:56:42 | 显示全部楼层
楼主发贴辛苦了,谢谢楼主分享!我觉得蓝光电影网是注册对了!
回复 支持 反对

使用道具 举报

懒得打字嘛,点击右侧快捷回复 【右侧内容,后台自定义】
您需要登录后才可以回帖 登录 | 立即加入

本版积分规则

现在加入蓝光电影网,注册一个账号
上个主题 下个主题 快速回复 收藏帖子 返回列表 客服中心 搜索

手机版|小黑屋| 蓝光电影网 |网站地图 

Copyright © 2015-2019 Comsenz Inc.  Template by 蓝光电影论坛 All Rights Reserved.

Powered by 蓝光电影网 X3.4

特别声明:本站所有资源均由网上收集而来,版权归原影音公司所有,如果侵犯了你的权益,请通知我们,我们会及时删除侵权内容.

快速回复 返回顶部 返回列表