找回密码

蓝光电影网

查看: 411|回复: 5

[2160p-WEB] 公主日记2/公主日记2:皇室婚约 The.Princess.Diaries.2.Royal.Engagement.2004.iNTERNAL.HDR.2160p.WEB.H265-WATCHER 13.30GB

[复制链接]

 成长值: 25360

发表于 2020-2-24 16:39:48 | 显示全部楼层 |阅读模式
公主日记2/公主日记2:皇室婚约 The.Princess.Diaries.2.Royal.Engagement.2004.iNTERNAL.HDR.2160p.WEB.H265-WATCHER 13.30GB-1.png

译  名 公主日记2 / 公主日记2:皇室婚约 / 走佬俏公主2及时嫁到 / 麻雀变公主2:皇家有约(台)
片  名 The Princess Diaries 2: Royal Engagement
年  代 2004
产  地 美国
类  别 喜剧 / 爱情 / 家庭
语  言 英语 / 希腊语 / 法语 / 西班牙语
上映日期 2004-08-11(美国)
IMDb评分  5.8/10 from 70251 users
IMDb链接  https://www.imdb.com/title/tt0368933
豆瓣评分 6.9/10 from 125351 users
豆瓣链接 https://movie.douban.com/subject/1308753/
片  长 113 分钟
导  演 Garry Marshall
编  剧 Shonda Rhimes / Gina Wendkos / Meg Cabot
主  演 安妮·海瑟薇 Anne Hathaway
       朱丽·安德鲁斯 Julie Andrews
       克里斯·派恩 Chris Pine
       赫克托·埃里仲杜 Hector Elizondo
       John Rhys-Davies
       希瑟·玛塔拉佐 Heather Matarazzo
       卡鲁姆·布鲁 Callum Blue
       Kathleen Marshall
       汤姆·波士顿 Tom Poston


标  签 喜剧 | 美国 | AnneHathaway | 青春 | 公主日记2 | 爱情 | 美国电影 | 电影

简  介  

  公主米亚(安妮?海瑟薇 饰)大学毕业后再次回到了吉诺维亚。公主的到来轰动了全国,米亚也为此十分兴奋。可是,在一次皇家听证会上,大法官宣布公主必须成婚了才能继承王位。米亚必须在30天内订婚,否则她就不得不让出王位。王后(茱莉?安德鲁 饰)只好与助手们匆忙地帮米亚挑选夫婿。
  几经选择,米亚终于跟一个年轻帅气的贵族男子订婚。与她争夺王位的年轻男孩尼可拉斯(克里斯?派恩 饰)跟米亚之间却有了说不出的情愫,男孩的姨丈想让尼可拉斯勾引米亚,让她在一个月内无法完婚,两个年轻人之间却产生了真感情。
  1. Video
  2. ID                                       : 1
  3. Format                                   : HEVC
  4. Format/Info                              : High Efficiency Video Coding
  5. Format profile                           : Main High@L4@High
  6. Codec ID                                 : V_MPEGH/ISO/HEVC
  7. Duration                                 : 1 h 54 min
  8. Bit rate                                 : 16.3 Mb/s
  9. Width                                    : 3 840 pixels
  10. Height                                   : 2 160 pixels
  11. Display aspect ratio                     : 16:9
  12. Frame rate mode                          : Constant
  13. Frame rate                               : 23.976 (24000/1001) FPS
  14. Color space                              : YUV
  15. Chroma subsampling                       : 4:2:0
  16. Bit depth                                : 10 bits
  17. Bits/(Pixel*Frame)                       : 0.082
  18. Stream size                              : 13.0 GiB (98%)
  19. Default                                  : Yes
  20. Forced                                   : No
  21. Color range                              : Limited
  22. Color primaries                          : BT.2020
  23. Transfer characteristics                 : PQ
  24. Matrix coefficients                      : BT.2020 non-constant

  25. Audio
  26. ID                                       : 2
  27. Format                                   : E-AC-3
  28. Format/Info                              : Enhanced AC-3
  29. Commercial name                          : Dolby Digital Plus
  30. Codec ID                                 : A_EAC3
  31. Duration                                 : 1 h 54 min
  32. Bit rate mode                            : Constant
  33. Bit rate                                 : 256 kb/s
  34. Channel(s)                               : 6 channels
  35. Channel layout                           : L R C LFE Ls Rs
  36. Sampling rate                            : 48.0 kHz
  37. Frame rate                               : 31.250 FPS (1536 SPF)
  38. Compression mode                         : Lossy
  39. Stream size                              : 209 MiB (2%)
  40. Title                                    : English
  41. Language                                 : English
  42. Service kind                             : Complete Main
  43. Default                                  : Yes
  44. Forced                                   : No
复制代码

公主日记2/公主日记2:皇室婚约 The.Princess.Diaries.2.Royal.Engagement.2004.iNTERNAL.HDR.2160p.WEB.H265-WATCHER 13.30GB-2.png 公主日记2/公主日记2:皇室婚约 The.Princess.Diaries.2.Royal.Engagement.2004.iNTERNAL.HDR.2160p.WEB.H265-WATCHER 13.30GB-3.png 公主日记2/公主日记2:皇室婚约 The.Princess.Diaries.2.Royal.Engagement.2004.iNTERNAL.HDR.2160p.WEB.H265-WATCHER 13.30GB-4.png






回复

使用道具 举报

发表于 2020-2-24 19:24:47 | 显示全部楼层
感谢分享
回复

使用道具 举报

发表于 2020-2-24 23:01:13 | 显示全部楼层
楼主发贴辛苦了,谢谢楼主分享!我觉得蓝光电影网是注册对了!
回复 支持 反对

使用道具 举报

发表于 2020-2-25 12:45:17 | 显示全部楼层

这个帖子不回对不起自己!我想我是一天也不能离开蓝光电影网
回复 支持 反对

使用道具 举报

发表于 2020-2-26 09:37:10 | 显示全部楼层

这东西我收了!谢谢楼主!蓝光电影网真好!
回复 支持 反对

使用道具 举报

发表于 2020-2-26 10:55:21 | 显示全部楼层

这东西我收了!谢谢楼主!蓝光电影网真好!
回复 支持 反对

使用道具 举报

懒得打字嘛,点击右侧快捷回复 【右侧内容,后台自定义】
您需要登录后才可以回帖 登录 | 立即加入

本版积分规则

现在加入蓝光电影网,注册一个账号
上个主题 下个主题 快速回复 收藏帖子 返回列表 客服中心 搜索

手机版|小黑屋| 蓝光电影网 |网站地图 

Copyright © 2015-2019 Comsenz Inc.  Template by 蓝光电影论坛 All Rights Reserved.

Powered by 蓝光电影网 X3.4

特别声明:本站所有资源均由网上收集而来,版权归原影音公司所有,如果侵犯了你的权益,请通知我们,我们会及时删除侵权内容.

快速回复 返回顶部 返回列表