找回密码

蓝光电影网

查看: 632|回复: 18

[8bit.SDR] 星之彩/异星之彩 Color.Out.of.Space.2019.2160p.BluRay.x264.8bit.SDR.DTS-HD.MA.5.1-SWTYBLZ 31.01GB

[复制链接]

 成长值: 25285

发表于 2020-2-24 00:00:14 | 显示全部楼层 |阅读模式
星之彩/异星之彩 Color.Out.of.Space.2019.2160p.BluRay.x264.8bit.SDR.DTS-HD.MA.5.1-SWTYBLZ 31.01GB-1.png

译  名 星之彩 / 异星之彩 / 时空之外的颜色 / 流星溢彩
片  名 Color Out of Space
年  代 2019
产  地 葡萄牙 / 美国 / 马来西亚
类  别 科幻 / 恐怖
语  言 英语
上映日期 2019-09-07(多伦多国际电影节) / 2020-01-24(美国)
IMDb评分  6.3/10 from 6322 users
IMDb链接  https://www.imdb.com/title/tt5073642
豆瓣评分 6.2/10 from 2818 users
豆瓣链接 https://movie.douban.com/subject/30307197/
片  长 111分钟
导  演 理查德·斯坦利 Richard Stanley
编  剧 理查德·斯坦利 Richard Stanley / H·P·洛夫克拉夫特 H.P. Lovecraft / Scarlett Amaris
主  演 尼古拉斯·凯奇 Nicolas Cage
       玛德琳娜·亚瑟 Madeleine Arthur
       艾略特·奈特 Elliot Knight
       乔莉·理查德森 Joely Richardson
       布雷丹·梅耶尔 Brendan Meyer
       汤米·钟 Tommy Chong
       考莉安卡·基尔彻 Q'orianka Kilcher
       朱利安·希威德 Julian Hilliard
       Brett W. Bachman
       Melissa Nearman


标  签 科幻 | 恐怖 | 克苏鲁 | 尼古拉斯凯奇 | 美国 | H.P.洛夫克拉夫特 | 超自然 | 2019

简  介  

  一颗流光溢彩的太空陨石径直坠入新英格兰偏远庄园后,邪恶势力开始暗暗渗透静居于此的加德纳一家。不知不觉中,时间开始膨胀,自然逐渐呈现超凡脱俗的异世色调,而所有鲜亮美丽之物则受其影响纷纷异变腐败。
  本片由南非影人理查德·斯坦利执导,与斯嘉丽·阿马里斯合作改编自H·P·洛夫克拉夫特1927年同名短篇小说《异星之彩/流星溢彩(The Colour Out of Space)》,并由奥斯卡影帝尼古拉斯·凯奇领衔主演。
  1. Video
  2. ID                                       : 1
  3. Format                                   : AVC
  4. Format/Info                              : Advanced Video Codec
  5. Format profile                           : High@L4
  6. Format settings                          : CABAC / 5 Ref Frames
  7. Format settings, CABAC                   : Yes
  8. Format settings, Reference frames        : 5 frames
  9. Codec ID                                 : V_MPEG4/ISO/AVC
  10. Duration                                 : 1 h 50 min
  11. Bit rate                                 : 35.6 Mb/s
  12. Width                                    : 3 840 pixels
  13. Height                                   : 1 608 pixels
  14. Display aspect ratio                     : 2.40:1
  15. Frame rate mode                          : Constant
  16. Frame rate                               : 23.976 (24000/1001) FPS
  17. Color space                              : YUV
  18. Chroma subsampling                       : 4:2:0
  19. Bit depth                                : 8 bits
  20. Scan type                                : Progressive
  21. Bits/(Pixel*Frame)                       : 0.240
  22. Stream size                              : 27.4 GiB (89%)
  23. Title                                    : Color.Out.of.Space.2019.2160p.BluRay.x264.8bit.SDR.DTS-HD.MA.5.1-SWTYBLZ
  24. Writing library                          : x264 core 157 r2935 545de2f
  25. Encoding settings                        : cabac=1 / ref=5 / deblock=1:-1:-1 / analyse=0x3:0x113 / me=umh / subme=10 / psy=1 / psy_rd=1.00:0.15 / mixed_ref=1 / me_range=48 / chroma_me=1 / trellis=2 / 8x8dct=1 / cqm=0 / deadzone=21,11 / fast_pskip=1 / chroma_qp_offset=-3 / threads=48 / lookahead_threads=4 / sliced_threads=0 / nr=0 / decimate=0 / interlaced=0 / bluray_compat=0 / constrained_intra=0 / bframes=3 / b_pyramid=2 / b_adapt=2 / b_bias=0 / direct=3 / weightb=1 / open_gop=0 / weightp=2 / keyint=250 / keyint_min=23 / scenecut=40 / intra_refresh=0 / rc_lookahead=50 / rc=crf / mbtree=1 / crf=18.0 / qcomp=0.60 / qpmin=0 / qpmax=69 / qpstep=4 / ip_ratio=1.40 / aq=1:1.00
  26. Language                                 : English
  27. Default                                  : Yes
  28. Forced                                   : No

  29. Audio #1
  30. ID                                       : 2
  31. Format                                   : DTS XLL
  32. Format/Info                              : Digital Theater Systems
  33. Commercial name                          : DTS-HD Master Audio
  34. Codec ID                                 : A_DTS
  35. Duration                                 : 1 h 50 min
  36. Bit rate mode                            : Variable
  37. Bit rate                                 : 3 831 kb/s
  38. Channel(s)                               : 6 channels
  39. Channel layout                           : C L R Ls Rs LFE
  40. Sampling rate                            : 48.0 kHz
  41. Frame rate                               : 93.750 FPS (512 SPF)
  42. Bit depth                                : 24 bits
  43. Compression mode                         : Lossless
  44. Stream size                              : 2.95 GiB (10%)
  45. Title                                    : Color.Out.of.Space.2019.2160p.BluRay.x264.8bit.SDR.DTS-HD.MA.5.1-SWTYBLZ
  46. Language                                 : English
  47. Default                                  : Yes
  48. Forced                                   : No

  49. Audio #2
  50. ID                                       : 3
  51. Format                                   : AC-3
  52. Format/Info                              : Audio Coding 3
  53. Commercial name                          : Dolby Digital
  54. Codec ID                                 : A_AC3
  55. Duration                                 : 1 h 50 min
  56. Bit rate mode                            : Constant
  57. Bit rate                                 : 640 kb/s
  58. Channel(s)                               : 6 channels
  59. Channel layout                           : L R C LFE Ls Rs
  60. Sampling rate                            : 48.0 kHz
  61. Frame rate                               : 31.250 FPS (1536 SPF)
  62. Compression mode                         : Lossy
  63. Stream size                              : 504 MiB (2%)
  64. Title                                    : Color.Out.of.Space.2019.2160p.BluRay.x264.8bit.SDR.DTS-HD.MA.5.1-SWTYBLZ
  65. Language                                 : English
  66. Service kind                             : Complete Main
  67. Default                                  : No
  68. Forced                                   : No

  69. Text #1
  70. ID                                       : 4
  71. Format                                   : UTF-8
  72. Codec ID                                 : S_TEXT/UTF8
  73. Codec ID/Info                            : UTF-8 Plain Text
  74. Duration                                 : 1 h 44 min
  75. Bit rate                                 : 46 b/s
  76. Count of elements                        : 1253
  77. Stream size                              : 35.5 KiB (0%)
  78. Title                                    : English-SRT
  79. Language                                 : English
  80. Default                                  : Yes
  81. Forced                                   : No

  82. Text #2
  83. ID                                       : 5
  84. Format                                   : PGS
  85. Muxing mode                              : zlib
  86. Codec ID                                 : S_HDMV/PGS
  87. Codec ID/Info                            : Picture based subtitle format used on BDs/HD-DVDs
  88. Duration                                 : 1 h 45 min
  89. Bit rate                                 : 22.5 kb/s
  90. Count of elements                        : 2902
  91. Stream size                              : 17.0 MiB (0%)
  92. Title                                    : English-PGS
  93. Language                                 : English
  94. Default                                  : No
  95. Forced                                   : No

  96. Text #3
  97. ID                                       : 6
  98. Format                                   : PGS
  99. Muxing mode                              : zlib
  100. Codec ID                                 : S_HDMV/PGS
  101. Codec ID/Info                            : Picture based subtitle format used on BDs/HD-DVDs
  102. Duration                                 : 1 h 44 min
  103. Bit rate                                 : 18.4 kb/s
  104. Count of elements                        : 2437
  105. Stream size                              : 13.8 MiB (0%)
  106. Title                                    : Spanish-PGS
  107. Language                                 : Spanish
  108. Default                                  : No
  109. Forced                                   : No

  110. Menu
  111. 00:00:00.000                             : en:Chapter 01
  112. 00:15:38.520                             : en:Chapter 02
  113. 00:30:02.091                             : en:Chapter 03
  114. 00:43:30.441                             : en:Chapter 04
  115. 01:00:23.620                             : en:Chapter 05
  116. 01:10:49.495                             : en:Chapter 06
  117. 01:28:30.847                             : en:Chapter 07
  118. 01:46:28.215                             : en:Chapter 08
复制代码

星之彩/异星之彩 Color.Out.of.Space.2019.2160p.BluRay.x264.8bit.SDR.DTS-HD.MA.5.1-SWTYBLZ 31.01GB-2.png 星之彩/异星之彩 Color.Out.of.Space.2019.2160p.BluRay.x264.8bit.SDR.DTS-HD.MA.5.1-SWTYBLZ 31.01GB-3.png 星之彩/异星之彩 Color.Out.of.Space.2019.2160p.BluRay.x264.8bit.SDR.DTS-HD.MA.5.1-SWTYBLZ 31.01GB-4.png 星之彩/异星之彩 Color.Out.of.Space.2019.2160p.BluRay.x264.8bit.SDR.DTS-HD.MA.5.1-SWTYBLZ 31.01GB-5.png 星之彩/异星之彩 Color.Out.of.Space.2019.2160p.BluRay.x264.8bit.SDR.DTS-HD.MA.5.1-SWTYBLZ 31.01GB-6.png 星之彩/异星之彩 Color.Out.of.Space.2019.2160p.BluRay.x264.8bit.SDR.DTS-HD.MA.5.1-SWTYBLZ 31.01GB-7.png 星之彩/异星之彩 Color.Out.of.Space.2019.2160p.BluRay.x264.8bit.SDR.DTS-HD.MA.5.1-SWTYBLZ 31.01GB-8.png 星之彩/异星之彩 Color.Out.of.Space.2019.2160p.BluRay.x264.8bit.SDR.DTS-HD.MA.5.1-SWTYBLZ 31.01GB-9.png







回复

使用道具 举报

发表于 2020-2-24 00:16:07 | 显示全部楼层
感谢楼主,楼主辛苦了//
回复 支持 反对

使用道具 举报

发表于 2020-2-24 06:24:32 | 显示全部楼层

楼主太厉害了!楼主,电影应该很好看我觉得蓝光电影网真是个好地方!
回复 支持 反对

使用道具 举报

发表于 2020-2-24 08:17:16 | 显示全部楼层

其实我一直觉得楼主的品味不错!呵呵!蓝光电影网太棒了!
回复 支持 反对

使用道具 举报

发表于 2020-2-24 08:52:58 | 显示全部楼层


其实我一直觉得楼主的品味不错
回复 支持 反对

使用道具 举报

发表于 2020-2-24 08:54:48 | 显示全部楼层
感谢分享!!!!!!!!
回复

使用道具 举报

发表于 2020-2-24 09:45:47 | 显示全部楼层
thank u very much
回复 支持 反对

使用道具 举报

发表于 2020-2-24 12:23:11 | 显示全部楼层

这东西我收了!谢谢楼主!蓝光电影网真好!
回复 支持 反对

使用道具 举报

发表于 2020-2-24 15:39:38 | 显示全部楼层
楼主发贴辛苦了,谢谢楼主分享!我觉得蓝光电影网是注册对了!
回复 支持 反对

使用道具 举报

发表于 2020-2-25 02:36:06 | 显示全部楼层
楼主发贴辛苦了,谢谢楼主分享!我觉得蓝光电影网是注册对了!
回复 支持 反对

使用道具 举报

懒得打字嘛,点击右侧快捷回复 【右侧内容,后台自定义】
您需要登录后才可以回帖 登录 | 立即加入

本版积分规则

现在加入蓝光电影网,注册一个账号
上个主题 下个主题 快速回复 收藏帖子 返回列表 客服中心 搜索

手机版|小黑屋| 蓝光电影网 |网站地图 

Copyright © 2015-2019 Comsenz Inc.  Template by 蓝光电影论坛 All Rights Reserved.

Powered by 蓝光电影网 X3.4

特别声明:本站所有资源均由网上收集而来,版权归原影音公司所有,如果侵犯了你的权益,请通知我们,我们会及时删除侵权内容.

快速回复 返回顶部 返回列表